#VERSION:0.82;
#TITLE:I Really Like You;
#SUBTITLE:;
#ARTIST:Carly Rae Jepsen;
#TITLETRANSLIT:;
#SUBTITLETRANSLIT:;
#ARTISTTRANSLIT:;
#GENRE:Lip-sync Forrest Lip-sync;
#ORIGIN:;
#CREDIT:;
#BANNER:I Really Like You.png;
#BACKGROUND:I Really Like You-bg.png;
#PREVIEWVID:;
#JACKET:jacket.png;
#CDIMAGE:;
#DISCIMAGE:;
#LYRICSPATH:;
#CDTITLE:;
#MUSIC:I Really Like You.ogg;
#OFFSET:-0.333000;
#SAMPLESTART:39.740982;
#SAMPLELENGTH:15.074007;
#SELECTABLE:YES;
#BPMS:0.000=122.000;
#STOPS:75.000=1.967,
168.000=2.595;
#DELAYS:;
#WARPS:;
#TIMESIGNATURES:0.000=4=4;
#TICKCOUNTS:0.000=4;
#COMBOS:0.000=1;
#SPEEDS:0.000=1.000=0.000=0;
#SCROLLS:0.000=1.000;
#FAKES:;
#LABELS:0.000=Song Start;
#BGCHANGES:8.000=I Really Like You.avi=1.000=0=0=1=====,
99999=-nosongbg-=1.000=0=0=0 // don't automatically add -songbackground-
;
#KEYSOUNDS:;
#ATTACKS:
;

//---------------dance-single - ----------------
#NOTEDATA:;
#CHARTNAME:;
#STEPSTYPE:dance-single;
#DESCRIPTION:;
#CHARTSTYLE:;
#DIFFICULTY:Hard;
#METER:8;
#RADARVALUES:0.450149,0.620518,0.279933,0.136378,0.003589,381.000000,39.000000,19.000000,0.000000,0.000000,0.000000,0.000000,0.000000,0.450149,0.620518,0.279933,0.136378,0.003589,381.000000,39.000000,19.000000,0.000000,0.000000,0.000000,0.000000,0.000000;
#CREDIT:Ben Speirs;
#NOTES:
0000
0000
0000
0000
,
0000
0000
0000
0000
,
0000
0000
0000
0000
,
0000
0000
0000
0000
,
1002
0000
0103
0000
0000
1000
0001
0100
,
0100
0010
1000
0000
0001
0010
0100
0000
,
2001
0000
3010
0000
0000
0001
1000
0010
,
0010
0100
0001
0000
1000
0100
0010
0000
,
1100
0000
0101
0000
1000
0100
1000
0001
,
0100
0001
1000
0000
0100
0010
0001
0000
,
0011
0000
1010
0000
0001
0010
0001
1000
,
0020
0000
0000
0000
0130
0000
0000
0000
0000
0001
1000
0000
0010
0000
0000
0000
,
1000
0100
1000
0100
0010
0001
0010
0001
,
0100
0010
1000
0100
0010
0001
1000
0000
,
0001
0100
0001
0100
0010
1000
0010
1000
,
0001
0010
0100
1000
0010
0100
0001
0000
,
1000
0100
0001
0100
1000
0010
0001
0010
,
1000
0001
0100
0010
1000
0100
0010
0001
,
0200
0010
0001
0310
,
1001
0100
0100
0001
0001
1000
1000
0010
,
0010
1000
1000
0001
0001
1000
0001
0100
,
0000
0000
0000
0001
0010
0001
0000
1000
,
0010
1000
0000
0001
1000
0001
0100
0000
,
1001
0010
0010
1000
1000
0001
0001
0100
,
0100
0001
0001
1000
1000
0001
1000
0010
,
0000
0000
0000
1000
0100
1000
0000
0001
,
0100
0001
0000
1000
0001
1000
0010
0000
,
2100
0000
0100
0000
3001
0100
0010
1000
,
0001
1000
0100
0000
1000
0100
1000
0001
,
1000
0010
0100
0000
0001
1000
0010
1000
,
0001
0100
0010
1000
0100
0010
0001
0000
,
0110
0001
0001
1000
1000
0010
0010
1000
,
1000
0001
0001
0100
0100
0010
1000
0001
,
0000
0000
0000
1000
0100
1000
0000
0001
,
0100
0001
0000
1000
0100
0010
0001
0000
,
2000
0000
0000
0000
,
3020
0000
0000
0000
,
0230
0000
0000
0000
,
0302
0000
2003
0000
,
3020
1000
1030
0000
,
0002
0010
0013
0000
,
0200
0000
0010
0000
0310
0000
1000
0001
,
0000
0000
1001
0000
1000
1100
0001
0101
,
1000
1010
0001
0011
1000
1001
0100
0110
,
0001
1001
0010
0110
2000
0000
3000
0001
,
0100
0010
0000
1000
0001
0100
0000
0001
,
0010
0100
1000
0000
0001
0011
1000
1010
,
0001
0101
1000
1100
0001
1001
0010
0110
,
1000
1001
0100
0110
0002
0000
0003
1000
,
0010
0100
0000
0001
1000
0010
0000
1000
,
0100
0010
0001
0000
0100
0010
0100
1000
,
0100
0001
0010
0100
0100
0100
1000
0001
,
0010
0100
0010
0001
0001
0001
0100
0010
,
1000
0001
1000
0100
0100
0100
1000
0010
,
0100
0001
1000
0000
0001
0101
1000
1010
,
0100
1100
0010
0011
1000
1001
0010
0110
,
1000
1001
0100
0110
0002
0000
0003
0100
,
0010
1000
0000
0100
0010
0001
0000
1000
,
0010
0100
0001
0000
2000
0100
0100
0010
,
0010
0001
0001
0010
0010
0100
0100
0010
,
0010
0100
0001
3010
0000
0000
0000
0001
,
0100
0101
0000
1000
0100
1100
0000
0001
,
0010
0100
1000
0000
0002
0010
0010
0100
,
0100
1000
1000
0100
0100
0010
0010
0100
,
0100
0010
1000
0103
0000
0000
0000
1000
,
0010
1010
0000
0001
0010
0011
0000
1000
,
0100
0010
0002
0000
0003
0000
0000
0000
;

//---------------dance-single - ----------------
#NOTEDATA:;
#CHARTNAME:;
#STEPSTYPE:dance-single;
#DESCRIPTION:;
#CHARTSTYLE:;
#DIFFICULTY:Challenge;
#METER:9;
#RADARVALUES:0.650101,0.811447,0.875688,0.129200,0.290700,494.000000,122.000000,18.000000,0.000000,0.000000,0.000000,0.000000,0.000000,0.650101,0.811447,0.875688,0.129200,0.290700,494.000000,122.000000,18.000000,0.000000,0.000000,0.000000,0.000000,0.000000;
#CREDIT:Ben Speirs;
#OFFSET:-0.325000;
#BPMS:0.000000=122.000000
;
#STOPS:75.000000=1.967213
,168.000000=2.599022
;
#DELAYS:;
#WARPS:;
#TIMESIGNATURES:0.000000=4=4
;
#TICKCOUNTS:0.000000=4
;
#COMBOS:0.000000=1
;
#SPEEDS:0.000000=1.000000=0.000000=0
;
#SCROLLS:0.000000=1.000000
;
#FAKES:;
#LABELS:0.000000=Song Start
;
#NOTES:
// measure 0
0000
0000
0000
0000
,  // measure 1
0000
0000
0000
0000
,  // measure 2
0000
0000
0000
0000
,  // measure 3
0000
0000
0000
0000
,  // measure 4
1001
0000
0110
0100
0001
1000
0010
1000
,  // measure 5
0001
0001
0010
0001
0100
0010
1000
0001
,  // measure 6
0101
0000
1100
1000
0001
0100
0010
1000
,  // measure 7
0001
0000
1000
0010
0100
1000
0100
0001
,  // measure 8
1001
0000
0110
0010
1000
0001
0100
0001
,  // measure 9
1000
1000
0100
1000
0010
0100
0001
1000
,  // measure 10
1010
0000
0011
0001
1000
0010
0100
0001
,  // measure 11
1000
0000
0000
0000
0001
0000
0100
0000
0001
1000
0001
0000
1000
0000
0000
0000
,  // measure 12
2100
3000
0210
0300
0021
0030
1002
0003
,  // measure 13
0100
1000
0100
0010
0100
0001
0100
0000
,  // measure 14
0012
0003
0120
0030
1200
0300
2001
3000
,  // measure 15
0010
0001
0010
0100
0010
1000
0010
0000
,  // measure 16
1000
0100
0010
0001
0100
0010
1000
0001
,  // measure 17
0010
1000
0010
0001
0100
0010
1000
0100
,  // measure 18
0020
0001
1000
0031
,  // measure 19
1001
0110
0101
0011
0110
1100
1010
0110
,  // measure 20
0101
0011
0110
1100
1010
0110
0101
0011
,  // measure 21
1001
0000
0000
0100
0010
0000
1000
0100
1000
0000
0001
0000
0100
0000
0001
0010
,  // measure 22
0001
0000
0100
0000
0010
0000
1000
0001
1000
0000
0010
0000
0110
0000
0000
0000
,  // measure 23
1001
0110
1010
1100
0110
0011
0101
0110
,  // measure 24
1010
1100
0110
0011
0101
0110
1010
1100
,  // measure 25
1001
0000
0000
0010
0100
0000
0001
0010
0001
0000
1000
0000
0010
0000
1000
0100
,  // measure 26
1000
0000
0010
0000
0100
0000
0001
1000
0001
0000
0100
0000
0110
0000
0000
0000
,  // measure 27
1000
0000
0010
0100
0001
0000
1000
0000
0100
0000
0010
0000
0001
0100
0001
0000
,  // measure 28
1000
0000
0100
0010
0001
0000
0100
0000
0010
0000
1000
0000
0100
1000
0100
0000
,  // measure 29
0010
0000
0001
1000
0010
0000
0100
0000
0001
0000
1000
0000
0010
0100
0010
0000
,  // measure 30
1000
0000
0001
0010
0100
0000
1000
0000
0001
0100
0001
0000
1000
0000
0000
0000
,  // measure 31
1001
0110
1001
1100
1001
0101
1001
0110
,  // measure 32
1001
1010
0011
1001
0110
1001
1100
0101
,  // measure 33
1001
0000
0000
1000
0100
0000
0010
0001
0010
0000
0001
0000
1000
0000
0100
0010
,  // measure 34
0100
0000
1000
0000
0001
0000
1000
0010
1000
0000
0001
0000
1001
0000
0000
0000
,  // measure 35
0002
0000
0000
0000
,  // measure 36
0023
0000
0000
0000
,  // measure 37
0230
0000
0000
0000
,  // measure 38
2300
0000
3020
0000
,  // measure 39
0230
0000
0000
0000
,  // measure 40
0302
0000
0000
0000
,  // measure 41
2003
0000
0000
0000
,  // measure 42
3000
0000
0110
0000
1001
1100
1001
0101
,  // measure 43
1001
1010
1001
0011
1001
0110
1001
0110
,  // measure 44
1100
0000
0110
0000
0011
0000
1001
0000
0100
0000
0000
0100
0001
0000
1000
0100
,  // measure 45
1000
0000
0010
0000
0100
0000
0001
0010
0001
0000
0100
0000
0010
0000
1000
0001
,  // measure 46
1000
0100
0010
0000
1001
0011
1001
1010
,  // measure 47
1001
0101
1001
1100
1001
0110
1001
0110
,  // measure 48
0011
0000
0110
0000
1100
0000
1001
0000
0010
0000
0000
0010
1000
0000
0001
0010
,  // measure 49
0001
0000
0100
0000
0010
0000
1000
0100
1000
0000
0010
0000
0100
0000
0001
1000
,  // measure 50
0001
0000
0010
0000
0100
0000
0000
0000
1000
0000
0100
1000
0100
0000
1000
0000
,  // measure 51
0001
0000
0100
0000
0010
1000
0010
0000
0100
0000
0001
0010
0001
0000
1000
0000
,  // measure 52
0010
0000
0100
0000
0001
1000
0001
0000
0100
0000
0010
1000
0010
0000
0100
0000
,  // measure 53
0001
0000
1000
0000
0100
0010
0100
0000
1000
0000
0001
0100
0001
0000
1000
0000
,  // measure 54
0010
0000
0100
0000
1001
0000
0000
0000
0110
0000
0001
0100
0001
0100
0010
1000
,  // measure 55
0010
1000
0100
0010
0100
0010
0001
1000
0001
1000
0010
0100
0010
0100
0001
1000
,  // measure 56
0001
1000
0010
0100
0001
1000
0010
0100
0001
0000
0000
0100
0010
0000
1000
0100
,  // measure 57
1000
0000
0010
0000
0100
0000
0001
0010
0001
0000
0100
0000
0010
0000
1000
0001
,  // measure 58
1000
0100
0110
0000
1001
0110
0101
1010
,  // measure 59
1001
0110
1100
0011
1001
1010
0101
1010
,  // measure 60
0110
0000
1001
0000
1010
0000
0101
0000
1000
0000
0100
1000
0001
0000
0100
0010
,  // measure 61
0100
0000
0001
0000
1000
0000
0100
0010
0100
0000
1000
0000
0001
0000
0100
0010
,  // measure 62
0100
0000
0001
0000
1000
0000
0100
0000
0010
0001
0100
0010
0100
0010
1000
0001
,  // measure 63
0100
0010
0100
0010
1000
0001
0100
0010
0100
0010
1000
0001
0100
0010
0100
0010
,  // measure 64
1000
0100
0010
0001
0010
0100
1000
0001
0100
0000
0010
1000
0010
0000
1000
0100
,  // measure 65
1000
0000
0010
0000
0100
0000
0001
0010
0001
0000
0100
0000
0010
0000
1000
0100
,  // measure 66
0010
0001
0100
0010
2000
0000
0000
0000
3000
0000
0000
0000
0000
0000
0000
0000
;

//---------------dance-single - ----------------
#NOTEDATA:;
#CHARTNAME:;
#STEPSTYPE:dance-single;
#DESCRIPTION:;
#CHARTSTYLE:;
#DIFFICULTY:Medium;
#METER:5;
#RADARVALUES:0.308644,0.381857,0.086133,0.129200,0.000000,271.000000,12.000000,18.000000,0.000000,0.000000,0.000000,0.000000,0.000000,0.308644,0.381857,0.086133,0.129200,0.000000,271.000000,12.000000,18.000000,0.000000,0.000000,0.000000,0.000000,0.000000;
#CREDIT:Ben Speirs;
#NOTES:
0000
0000
0000
0000
,
0000
0000
0000
0000
,
0000
0000
0000
0000
,
0000
0000
0000
0000
,
1000
0101
0000
1000
,
0001
0000
0010
0000
0001
0100
0010
0000
,
0100
1001
0000
0100
,
1000
0000
0000
0000
0010
0100
0001
1000
,
0001
1010
0000
0001
,
1000
0000
0100
0000
1000
0010
0100
0000
,
0010
1001
0000
0010
,
0001
0000
0000
0000
1000
0100
0010
0001
,
2000
3100
0200
0310
,
0001
0000
0010
0100
0000
0010
0000
0000
,
0002
0103
0200
0310
,
1000
0000
0100
0010
0000
0100
0000
0000
,
2000
3001
0200
0310
,
2000
0000
3100
0010
0000
0002
0000
2000
,
0000
0000
0000
3003
,
0000
0100
0010
0100
0010
0100
0010
0100
,
0010
0100
0010
0100
0010
0100
0010
0010
,
0000
0000
1000
0100
,
1000
0001
0100
0000
,
0000
0010
0100
0010
0100
0010
0100
0010
,
0100
0010
0100
0010
0100
0010
0100
0100
,
0000
0000
0001
0010
,
0001
1000
0100
0000
,
1001
0100
0010
1000
,
0001
0010
0001
1000
,
0010
0100
0010
1000
,
0001
0000
0010
0000
0100
1000
0001
0000
,
0000
1000
0001
1000
0001
1000
0001
1000
,
0001
1000
0001
1000
0001
1000
0001
0001
,
0000
0000
0100
0010
,
1000
0100
0010
0001
,
2000
0000
0000
3000
,
0002
0000
0000
0003
,
0200
0000
0000
0300
,
0020
0000
2030
0000
,
3002
0000
0000
0003
,
0020
0000
0000
0030
,
0200
0000
0000
0000
,
0300
0000
1001
0000
0000
0100
0010
0100
,
0010
0100
0010
0100
0010
0100
0010
0100
,
0010
0100
0010
0010
0000
0000
0100
0000
,
0001
0010
0100
1000
,
0001
0000
0000
0000
0000
1000
0100
1000
,
0100
1000
0100
1000
0100
1000
0100
1000
,
0100
1000
0100
0100
0000
0000
1000
0000
,
0010
1000
0001
0100
,
0010
0000
1001
1001
,
0110
1001
0100
0010
,
1000
0000
0100
0000
0010
0001
0010
0000
,
0100
0000
1000
0000
0001
0100
0001
0000
,
1000
0000
0010
0000
0000
0100
0001
0100
,
0001
0100
0001
0100
0001
0100
0001
0100
,
0001
0100
0001
0001
0000
0000
0010
0000
,
0001
0100
0010
1000
,
0001
0000
1001
0000
0000
0100
0001
0100
,
0001
0100
0001
0100
0010
1000
0010
1000
,
0010
1000
0010
0010
0000
0000
1000
0000
,
0001
0010
0001
1000
,
0010
0000
1010
0000
0000
1000
0100
1000
,
0100
1000
0100
1000
0001
0010
0001
0010
,
0001
0010
0001
0001
0000
0000
0100
0000
,
0010
1000
0001
0010
,
0100
1000
0020
0000
0030
0000
0000
0000
;

//---------------dance-single - ----------------
#NOTEDATA:;
#CHARTNAME:;
#STEPSTYPE:dance-single;
#DESCRIPTION:;
#CHARTSTYLE:;
#DIFFICULTY:Easy;
#METER:4;
#RADARVALUES:0.218409,0.380422,0.351711,0.050244,0.000000,157.000000,49.000000,7.000000,0.000000,0.000000,0.000000,0.000000,0.000000,0.218409,0.380422,0.351711,0.050244,0.000000,157.000000,49.000000,7.000000,0.000000,0.000000,0.000000,0.000000,0.000000;
#CREDIT:Ben Speirs;
#NOTES:
0000
0000
0000
0000
,
0000
0000
0000
0000
,
0000
0000
0000
0000
,
0000
0000
0000
0000
,
0100
0100
0000
0001
,
0000
1000
0000
0100
,
0010
0010
0000
0001
,
0000
1000
0000
0010
,
0100
0100
0000
0001
,
0000
1000
0000
0100
,
0010
0010
0000
0001
,
0000
1000
0000
0010
,
1000
1000
0001
0001
,
0200
0300
0200
0300
,
0001
0001
1000
1000
,
0200
0300
0200
0300
,
1000
1000
0001
0001
,
0010
0010
0001
0001
,
0200
0000
0000
0300
,
0000
1001
1001
1001
,
1001
0000
1001
0000
1001
0000
0010
0010
,
0000
0000
0001
0000
,
1000
0000
0010
0000
,
0000
1001
1001
1001
,
1001
0000
1001
0000
1001
0000
0010
0010
,
0000
0000
1000
0000
,
0010
0000
0100
0000
,
0002
0000
0003
0000
,
1000
1000
0000
0010
,
0010
0010
0000
0100
,
0100
0100
0000
0000
,
0000
1001
1001
1001
,
1001
0000
1001
0000
1001
0000
0010
0010
,
0000
0000
0001
0000
,
1000
0000
0010
0010
,
0010
0000
0000
0000
,
1000
0000
0000
0000
,
0001
0000
0000
0000
,
0000
0000
0100
0000
,
0100
0000
0000
0000
,
0001
0000
0000
0000
,
1000
0000
0000
0000
,
0000
0000
1001
1001
,
1001
1001
1001
1001
,
1001
0000
0010
0010
0000
0000
0001
0000
,
0000
1000
0000
0010
,
0000
0000
0000
1001
,
1001
1001
1001
1001
,
1001
0000
0010
0010
0000
0000
0001
0000
,
0000
1000
0000
0010
,
0000
0000
2000
0000
,
0000
3000
0100
0100
,
0000
0010
0010
0010
,
0000
0001
0001
0001
,
0000
0000
0000
1001
,
1001
1001
1001
1001
,
1001
0000
0010
0010
0000
0000
1000
0000
,
0000
0001
0000
0010
,
0000
0000
0000
1001
,
0110
1001
0110
1001
,
0110
0000
1000
1000
0000
0000
0000
0000
,
0010
0000
0010
0000
,
0010
0000
0000
1001
,
0110
1001
0110
1001
,
0110
0000
0001
0001
0000
0000
0000
0000
,
0010
0000
0010
0000
,
0010
0010
0000
0000
;

//---------------dance-single - ----------------
#NOTEDATA:;
#CHARTNAME:;
#STEPSTYPE:dance-single;
#DESCRIPTION:;
#CHARTSTYLE:;
#DIFFICULTY:Beginner;
#METER:2;
#RADARVALUES:0.144581,0.190211,0.014356,0.000000,0.000000,139.000000,2.000000,0.000000,0.000000,0.000000,0.000000,0.000000,0.000000,0.144581,0.190211,0.014356,0.000000,0.000000,139.000000,2.000000,0.000000,0.000000,0.000000,0.000000,0.000000,0.000000;
#CREDIT:Ben Speirs;
#NOTES:
0000
0000
0000
0000
,
0000
0000
0000
0000
,
0000
0000
0000
0000
,
0000
0000
0000
0000
,
0001
0001
0000
1000
,
0000
0100
0000
0000
,
1000
1000
0000
0010
,
0000
0100
0000
0000
,
0010
0010
0000
1000
,
0000
0001
0000
0000
,
0100
0100
0000
0001
,
0000
1000
0000
0000
,
0100
0100
0100
0100
,
0010
0000
0010
0000
,
0100
0100
0100
0100
,
0010
0000
0010
0000
,
0001
0001
0001
0000
,
1000
1000
1000
0000
,
0010
0000
0010
0000
,
0000
0000
1000
1000
,
1000
1000
1000
1000
,
0000
0000
0010
0000
,
0010
0000
0100
0000
,
0000
0001
0001
0001
,
0001
0001
0001
0001
,
0000
0000
0010
0000
,
0010
0000
0100
0000
,
1001
0000
0000
0000
,
0100
0100
0000
0000
,
0001
0001
0000
0000
,
1000
1000
0000
0000
,
0000
0010
0010
0010
,
0010
0010
0010
0010
,
0000
0000
1000
0000
,
1000
0000
0001
0000
,
0100
0000
0000
0000
,
0000
0000
0000
0000
,
0000
0000
0000
0000
,
0000
0000
0000
0000
,
0100
0000
0000
0000
,
0001
0000
0000
0000
,
1000
0000
0000
0000
,
0000
0000
0001
0001
,
0001
0001
0001
0001
,
0001
0001
0000
0000
,
0100
0000
0100
0000
,
0010
0000
1000
1000
,
1000
1000
1000
1000
,
1000
1000
0000
0000
,
0100
0000
0100
0000
,
0010
0000
1001
0000
,
0000
0000
0100
0100
,
0000
0000
0010
0010
,
0000
0000
1000
1000
,
0000
0000
0001
0001
,
0001
0001
0001
0001
,
0001
0001
0000
0000
,
0010
0000
0010
0000
,
0100
0000
1000
1000
,
1000
1000
0001
0001
,
0001
0001
0000
0000
,
0100
0000
0100
0000
,
0100
0000
0001
0001
,
0001
0001
1000
1000
,
1000
1000
0000
0000
,
0100
0000
0100
0000
,
0010
0010
0000
0000
;

//---------------dance-double - ----------------
#NOTEDATA:;
#CHARTNAME:;
#STEPSTYPE:dance-double;
#DESCRIPTION:;
#CHARTSTYLE:;
#DIFFICULTY:Challenge;
#METER:10;
#RADARVALUES:0.621390,0.784620,0.674711,0.086133,0.276344,500.000000,94.000000,12.000000,0.000000,0.000000,0.000000,0.000000,0.000000,0.621390,0.784620,0.674711,0.086133,0.276344,500.000000,94.000000,12.000000,0.000000,0.000000,0.000000,0.000000,0.000000;
#CREDIT:Ben Speirs;
#NOTES:
00000000
00000000
00000000
00000000
,
00000000
00000000
00000000
00000000
,
00000000
00000000
00000000
00000000
,
00000000
00000000
00000000
00000000
,
10000000
00000000
01010000
01000000
00100000
10000000
01000000
10000000
,
00010000
00100000
01000000
00000000
10000000
01000000
00100000
00010000
,
01010000
00000000
10000000
01000000
00100000
00010000
01000000
00010000
,
00200000
00000000
00000000
00000000
00301000
00000000
00010000
00000000
00000100
00001000
00000100
00000000
00001000
00000000
00000010
00000000
,
00000200
00000000
00000301
00000001
00001000
00001000
00000010
00001000
,
00000100
00000010
00000001
00000000
00001000
00000100
00001000
00000001
,
00000101
00000000
00001010
00001000
00000100
00000010
00000001
00001000
,
00000010
00000000
00000000
00000000
00001000
00000000
00000100
00000000
00010000
00001000
00010000
00000000
00001000
00000000
00000000
00000000
,
00101000
00100000
00110000
00100000
00101000
00100000
00100100
00100000
,
00001000
00000000
00010000
00000000
00100000
00000000
10000000
00000000
01000000
00100000
00010000
00000000
01000000
00000000
00100000
00000000
,
10000000
10000000
00010000
00010000
01000000
00100000
10000000
01000000
,
00100000
00000000
00010000
00000000
01000000
00000000
00001000
00000000
00100000
00010000
00100000
00000000
00001000
00000000
00000000
00000000
,
00010100
00000100
00001100
00000100
00010100
00000100
01000100
00000100
,
00001000
00000100
00000010
00000001
00000100
00000010
00001000
00000100
,
00020000
00000000
00032000
00000000
00103000
00010000
10000000
00000000
,
01010000
11000000
01010000
11000000
00110000
10100000
00110000
10100000
,
10010000
01100000
10010000
01100000
10010000
10000000
01000000
00100000
,
00010000
00000000
00000000
00010000
01000000
00000000
00100000
10000000
00100000
00000000
01000000
00000000
00010000
00000000
10000000
01000000
,
10000000
00000000
00010000
00000000
00100000
00000000
00001000
00010000
00001000
00000000
00010000
00000000
00000100
00000000
00000000
00000000
,
00001100
00000101
00001100
00000101
00001010
00000011
00001010
00000011
,
00001001
00000110
00001001
00000110
00001000
00000100
00000010
00000001
,
00001000
00000000
00000000
00001000
00000001
00000000
00000100
00000010
00000100
00000000
00000001
00000000
00001000
00000000
00000100
00000010
,
00000100
00000000
00001000
00000000
00000010
00000000
00010000
00000100
00010000
00000000
00001000
00000000
00100000
00000000
00000000
00000000
,
00010000
01000000
00010000
01000000
00010000
01000000
00010000
01000000
00010000
00000000
01000000
00000000
00100000
00000000
10000000
00000000
,
10000000
10000000
01000000
10000000
00100000
01000000
00010000
10000000
,
10000000
10000000
00100000
01000000
00010000
10000000
01000000
00100000
,
00100000
00100000
00010000
01000000
00100000
10000000
00010000
00000000
,
01010000
10100000
01010000
10100000
11000000
00110000
11000000
00110000
,
10010000
01100000
10010000
01100000
10000000
00100000
01000000
00010000
,
10000000
00000000
00000000
10000000
01000000
00000000
00100000
00010000
00100000
00000000
01000000
00000000
10000000
00000000
00100000
01000000
,
00100000
00000000
10000000
00000000
01000000
00000000
00100000
00010000
00100000
00000000
00001000
00000000
00010000
00000000
00000000
00000000
,
00012000
00000000
00000000
00003000
,
00200000
00000000
00000000
00300000
,
00020000
00000000
00000000
00030000
,
02000000
00000000
03002000
00000000
,
00023000
00000000
00000000
00030000
,
00000200
00000000
00000000
00000300
,
00002000
00000000
00000000
00000000
,
00003001
00000000
00011000
00000000
00011000
00101000
00011000
00010010
,
00011000
01001000
00011000
00010010
00011000
00110000
01100000
11000000
,
10010000
00000000
10000000
00000000
00100000
00000000
01000000
00000000
00010000
00000000
00000000
00010000
10000000
00000000
00100000
01000000
,
00100000
00000000
10000000
00000000
01000000
00000000
00100000
00010000
00100000
00000000
01000000
00000000
10000000
00000000
00010000
00100000
,
00010000
00100000
00001000
00000000
00011000
00010100
00011000
01001000
,
00011000
00010010
00011000
01001000
00011000
00001100
00000110
00000011
,
00001001
00000000
00000001
00000000
00000100
00000000
00000010
00000000
00001000
00000000
00000000
00001000
00000001
00000000
00000100
00000010
,
00000100
00000000
00000001
00000000
00000010
00000000
00000100
00001000
00000100
00000000
00000010
00000000
00000001
00000000
00001000
00000100
,
00001000
00000000
00000100
00000000
00010000
00000000
00000000
00000000
00000100
00001000
00000100
00001000
00000100
00001000
00000100
00001000
,
00000100
00001000
00000010
00000100
00000100
00000100
00000001
00001000
,
00000010
00000100
00000001
00001000
00001000
00001000
00000100
00010000
,
00001000
00100000
00010000
01000000
01000000
01000000
00100000
10000000
,
01000000
00100000
00010000
00000000
11000000
01100000
00110000
00011000
,
00001100
00000110
00000011
00001001
00000011
00000110
00001100
00011000
,
00110000
00000000
01100000
00000000
11000000
00000000
10010000
00000000
01000000
00000000
00100000
01000000
00100000
00000000
10000000
01000000
,
10000000
00000000
00100000
01000000
00100000
00000000
10000000
01000000
10000000
00000000
00010000
01000000
00010000
00000000
10000000
01000000
,
00100000
00000000
00010000
00000000
10000000
00000000
00000000
00000000
01010000
00000000
10000000
01000000
10000000
01000000
00100000
00010000
,
00100000
00010000
01000000
00001000
01000000
00001000
00010000
00001000
00010000
00001000
00010000
00000010
00010000
00000010
00001000
00000010
,
00001000
00000100
00000010
00000001
00001000
00000000
00000010
00000000
00000100
00000000
00000001
00000000
00001000
00000000
00000010
00000100
,
00000010
00000100
00000010
00000000
00001000
00000000
00000001
00000010
00000001
00000010
00000001
00000000
00000100
00000000
00000010
00001000
,
00000010
00001000
00000010
00000000
00000100
00000000
00000001
00000000
00001000
00000000
00000001
00000010
00000001
00000010
00000100
00000010
,
00000100
00000010
00000100
00001000
00000100
00001000
00000100
00010000
00000100
00010000
00001000
00010000
00001000
00010000
00001000
00100000
,
00001000
00100000
00010000
00100000
00010000
10000000
00100000
00000000
01000000
00000000
00010000
10000000
00010000
00000000
01000000
00100000
,
01000000
00000000
00010000
00000000
10000000
00000000
00100000
10000000
00100000
00000000
01000000
00000000
00010000
00000000
10000000
01000000
,
10000000
00010000
01000000
00100000
10000000
00000000
00000000
00000000
00000000
00000000
00000000
00000000
00000000
00000000
00000000
00000000
;
