#TITLE:Euphoria -Sweden 2012-;
#ARTIST:Loreen;
#FILE:Euphoria.mp3;
#BPM:132.000;
#GAP:360;
#SAMPLESTART:90.660;
#SAMPLELENGTH:17.980;
#DISPLAYBPM:66..132;
#FREEZE:928.000=170.000,931.000=170.000,934.000=170.000,937.000=170.000,940.000=170.000,943.000=170.000;
#CHANGEBPM:288.000=66.000,352.000=132.000,480.000=66.000,512.000=132.000,928.000=266.000,946.000=133.000;
#SINGLE:MANIAC:12:
00000000
00000000
8!80702080
60406280
4!40108!8090
40602084
2!20108040
60806820
8!80902!20A0
20604080
B!40202020
80207424
60806040
80804040
10804620
80462842
80604080
284060A0
(B!40000012!200024286)
(2!2003!600B!4004088424)
(6!6003!200A!8008000842)
{80000060000040000080000020000080000040000000000000000000B0000000}
3!60904280
64204868
40246086
20A06242
60864024
80106462
(8004002008006004)
0B0020A!80
(7006002000842468)
(2008006004008070)
(2006208020006000)
40246480
(2008206040008040)
20406824
(8048004060460020)
(6026002080206040)
207020B0
80904030
(8028002060260040)
(6046004020408020)
(8004002008006004)
(0060020080040080)
(B004204080208000)
46208426
20486084
20B0A264
20462084
60103284
(2004006002008007)
0B0024B0
(A002006004002004)
(0060020820602080)
(4002004008002008)
(0040020860408040)
(6002008004006002)
(0080040240802080)
(7003009001003007)
0B!B0B0000
;
#SINGLE:ANOTHER:7:
00000000
00000000
80402000
40608068
20008000
60400024
80004000
80402080
60002000
60400024
80402020
40006820
80604040
60602620
60002060
40204820
80802000
80402000
B!B0062!2004
8!80026!6008
2!20068!8002
4!40086!600B
A0406020
80406824
60408020
80402482
60206040
60802482
80808040
10B00080
A0604084
20406480
20208040
60004286
40802020
80406000
86806040
24204080
20800040
60206000
42408040
82804060
B0000000
202020A0
B0204080
20804826
40804060
80208628
40604080
20804286
80808080
20B00084
20406080
60408424
80402080
60406268
60208040
20806464
(8002006004008004)
02!2020000
;
#SINGLE:BASIC:3:
00000000
00000000
80004000
20004060
20006000
80006080
20008000
60004080
20008000
40002000
B0004000
20008060
40002000
40008040
20004000
60004020
80006000
40602080
80002060
40002020
20004060
80808080
B0002000
40804020
80002000
40802060
80006000
40602060
4!40406!6060
A!A0A00000
80002080
40002040
80004000
80804040
20004000
60604040
2!20102!2010
00000000
80004000
20008000
6!60306!6030
6!60300000
B0000000
000000A0
A0002000
80004020
80006000
40006080
20008000
60004080
20202020
20200000
B0002000
40008040
20004000
60402020
20004000
80808000
B!B0000000
00B00000
;
#SINGLE:BEGINNER:1:
00000000
00000000
00000000
00000000
80000000
80000000
20000000
20000000
60000000
60000000
40000000
40000000
80000000
80000000
40000000
40000000
20000000
20000000
B0000080
80000020
20000060
60000040
40000000
80008000
80000000
20002000
20000000
60006000
60000000
40000000
A0000020
20000080
80000000
40000000
20000000
40000000
60006000
60000000
20000000
60000000
80008000
80000000
B0000000
00000000
20002000
20000000
40004000
40000000
80008000
80000000
20202020
20200000
B0000000
40006000
60000000
20008000
80000000
40004000
B0000000
;
