#TITLE:Chance!;
#ARTIST:久住 小春;
#FILE:Chance!.mp3;
#BPM:156.000;
#GAP:320;
#SAMPLESTART:66.480;
#SAMPLELENGTH:17.980;
#FREEZE:684.000=10.000;
#SINGLE:BEGINNER:1:
00000000
00000000
80000000
80000000
80000000
80000000
20000000
60000000
40000000
80000000
40004000
40000000
80008000
80000000
40000000
60000000
80000000
20000000
B0000000
80000000
20000000
60000000
40000000
20000000
40000000
80000000
40000000
60000000
80000000
00606060
60000000
20000000
80000000
20000000
80000000
40000000
20000000
40000000
60000000
40000000
80000000
00000000
00000000
20002000
20000000
80008000
80000000
40000000
60000000
40000000
20202000
40004000
40000000
60006000
60000000
20000000
60000000
40000000
20000000
B0000000
80000000
40000000
20000000
B0000000
60000000
80000000
20000000
B0000000
;
#SINGLE:ANOTHER:6:
00000000
00000000
B0000000
A0000000
B0000000
A0000000
40802060
40208060
40608020
A0460000
26408040
60862000
84204060
20826000
20604020
4070B000
20006080
20004286
40602080
20604020
10804060
20804060
30804646
00208020
60802040
80408020
80406464
00204080
20804062
0030B010
2!20182!20A0
20604060
8!80928!8070
20408020
30802060
B0804060
10408020
A0804060
40208620
80408260
82406480
04640828
000000B0
26402040
80284000
84602060
80286000
20604080
40602080
20804060
20820000
62804060
40286000
86208040
60428000
60402080
6030B000
20004060
20006824
80406020
80206048
40204080
20604062
60802040
60208048
40604020
80604082
8!80008000
;
#SINGLE:MANIAC:11:
00000000
00000000
B0000000
A0000000
30000000
70000000
B0406020
A0406080
90208060
B04!42!20100
862!20A424
6284!46!60B0
862!20A424
6284!42!2010
46482082
602!203!60B8
(2!2000200060020060)
4!40408264
B0842462
(8000206020804064)
60424648
20826284
60420862
08026040
80406402
04280600
20640842
04062080
44884402
0010B030
A!80078!8008
20604280
30B02408
26421!40B!60
3!208080A0
8!804020A0
4!40202070
6!60202090
(3000800040020080)
(6000200080040060)
B!B00000B0
02820646
028042B0
248!80A686
4826!64!40B0
248!80A686
4826!68!8090
6462804!40
1!20182064
204!40B!609!80
902!26!60030
44706622
8264!42!2010
88902288
4246!62!2030
64642046
402!20A!8092
(6!6000600040020040)
8!80804628
A0268648
(2000804080206046)
40686462
(8000402040802064)
60842462
(8000206020804064)
60424648
(2000608060208046)
4!40004000
;
#SINGLE:BASIC:3:
00000000
00000000
B0000000
B0000000
B0000000
B0000000
20006000
40008000
40002000
40000000
60606000
40404000
80808000
20202000
80406000
40602000
60008000
20004060
B0002000
80002000
B0008000
20008000
40006000
40802000
80004000
60004000
20008000
60002060
40002000
00B0B0B0
20008000
40006000
40002000
40008020
60008060
40002000
40008040
20004060
20008020
80004060
40000000
00200020
000000B0
40404000
60606000
20202000
60606000
80006000
20604000
80004000
80402000
40404000
80808000
20202000
60606000
40006000
80602000
60002000
80004060
30004000
20408000
70002000
60402000
B0008000
60002000
A0008000
40802060
20000000
;
