#TITLE:SUPER MARIO BROS. (CARIBBEAN MIX);
#ARTIST:Nintendo;
#FILE:Super Mario Bros. (Caribbean Mix).mp3;
#BPM:100.000;
#GAP:4847;
#SAMPLESTART:40.800;
#SAMPLELENGTH:12.000;
#CDTITLE:./CDTITLES/DANCE DANCE REVOLUTION EXTREME.PNG;
#SINGLE:MANIAC:9:
(6008002008040640)
`600000000000000020000000000000006000000000000000200000000000000000000000800000000000400000000000000000000000200000000000000000000000800000000000600000000000000000000000200000000000000000000000'
(8004006002080420)
`800000000000000020000000000000008000000000000000200000000000000000000000400000000000600000000000000000000000200000000000000000000000800000000000400000000000000000000000600000000000000000000000'
(0042424208680282)
(004646460802A000)
(0062626208480262)
(00700300B!B000B000)
(0068686802420464)
(008484840206B000)
(0082828206860424)
(00900100B!B000B000)
(8206048026026000)
(4802084200000000)
(6802048042042000)
(82060480A000B000)
(2008006002080480)
`200000000000000060000000000000002000000000000000600000000000000000000000400000000000800000000000000000000000200000000000000000000000600000000000400000000000000000000000800000000000000000000000'
(2008004006080240)
`600000000000000040000000000000006000000000000000400000000000000000000000800000000000200000000000000000000000600000000000000000000000400000000000200000000000000000000000600000000000000000000000'
(4802064082082000)
`600000000000000040000000000000006000000000000000400000000000000060000000000000004000000000000000600000000000200000000000000000000000800000000000400000000000000000000000000000000000000000000000'
(6204082068064000)
[8020802080208!800000800000]
(2408062084064000)
`600000000000000080000000000000006000000000000000800000000000000060000000000000008000000000000000200000000000400000000000000000000000800000000000200000000000000000000000000000000000000000000000'
(6402086028046000)
[2040204020402!200000200000]
(8206048026048000)
(2804068200000000)
(6204086024086000)
(82060240A000B000)
(8402064082068000)
`200000000000000040000000000000002000000000000000400000000000000020000000000000004000000000000000200000000000800000000000000000000000600000000000400000000000000000000000000000000000000000000000'
(8206042086028000)
[408040804080400A00B00000]
;
#SINGLE:ANOTHER:6:
82842862
64826284
62428468
26286482
06482648
02842860
02648246
(00A00A00A!A000A000)
04846826
04824620
08264268
(00A00A00A!A000A000)
40000006
40000006
40000006
40206080
42624868
42684268
46268248
26426846
26482620
88888260
42682480
66666480
26482680
22222460
26482680
44444820
80000002
80000002
80000002
80406020
84626820
44444820
62684280
666662A0
;
#SINGLE:BASIC:4:
60208040
60206048
40602080
40602084
06264848
02628480
04246262
(008008008!80008000)
04246868
04648280
02826868
(002002002!20002000)
60000004
60000004
60000004
60606060
40206080
40802086
40602060
40802068
282828A0
62626230
48482630
84846890
282828A0
42424210
62628470
26264870
40000006
40000006
40000006
40404040
646464B0
84848470
68682410
848464B0
;
