#VERSION:0.82;
#TITLE:Clearest Blue;
#SUBTITLE:;
#ARTIST:CHVRCHES;
#TITLETRANSLIT:;
#SUBTITLETRANSLIT:;
#ARTISTTRANSLIT:;
#GENRE:I Just Can't Get Enough!;
#ORIGIN:;
#CREDIT:;
#BANNER:Clearest Blue.png;
#BACKGROUND:Clearest Blue-bg.png;
#PREVIEWVID:;
#JACKET:jacket.png;
#CDIMAGE:;
#DISCIMAGE:;
#LYRICSPATH:;
#CDTITLE:;
#MUSIC:Clearest Blue.ogg;
#OFFSET:0.000000;
#SAMPLESTART:101.454292;
#SAMPLELENGTH:13.714000;
#SELECTABLE:YES;
#BPMS:0.000=123.000;
#STOPS:;
#DELAYS:;
#WARPS:;
#TIMESIGNATURES:0.000=4=4;
#TICKCOUNTS:0.000=4;
#COMBOS:0.000=1;
#SPEEDS:0.000=1.000=0.000=0;
#SCROLLS:0.000=1.000;
#FAKES:;
#LABELS:0.000=Song Start;
#BGCHANGES:4.000=Clearest Blue.avi=1.000=0=0=1=====,
99999=-nosongbg-=1.000=0=0=0 // don't automatically add -songbackground-
;
#KEYSOUNDS:;
#ATTACKS:
;

//---------------dance-single - ----------------
#NOTEDATA:;
#CHARTNAME:;
#STEPSTYPE:dance-single;
#DESCRIPTION:;
#CHARTSTYLE:;
#DIFFICULTY:Hard;
#METER:9;
#RADARVALUES:0.573251,0.581510,0.028921,0.144604,0.448272,531.000000,4.000000,20.000000,0.000000,0.000000,0.000000,0.000000,0.000000,0.573251,0.581510,0.028921,0.144604,0.448272,531.000000,4.000000,20.000000,0.000000,0.000000,0.000000,0.000000,0.000000;
#CREDIT:Ben Speirs;
#NOTES:
0000
0000
0000
0000
,
0000
0000
0000
0000
,
0000
0000
0000
0000
,
0000
0000
0000
0000
,
1000
0000
0001
0000
0100
0000
0010
1000
,
0100
0000
0000
0000
0010
0000
0000
0000
0001
0000
0000
0000
1000
0000
0010
0100
,
0010
1000
0100
0000
0010
0000
0001
1000
,
0010
0000
0000
0000
0100
0000
0001
1000
0001
0000
0100
0000
0010
0000
1000
0000
,
0200
0010
0310
0011
,
1000
0001
1000
0010
0100
0000
0001
1000
,
0020
1000
1030
1010
,
0001
0100
0001
1000
0100
0010
0001
0000
,
1001
0000
0100
1000
0010
0000
0100
0001
,
0010
0000
0000
0000
0100
0000
1000
0000
0010
0000
0000
0000
0100
0000
0001
1000
,
0001
0100
0010
0000
1000
0100
0010
0000
,
0001
0000
1000
0000
0010
0000
0100
0001
0100
0000
0010
0000
1000
0000
0100
0000
,
0010
0001
2000
0000
3010
1000
0002
0000
,
0013
0001
2000
0000
3100
1000
0002
0000
,
0103
0000
0100
0010
0000
0000
1000
0000
0100
0000
0100
0010
0000
0000
0001
0000
,
0100
0000
0100
0020
0000
0000
1030
0000
0100
0000
1000
0000
0001
0000
0000
0000
,
0100
0010
0100
0000
0001
0000
0010
0000
0100
0000
1000
0000
0001
0000
0000
0000
,
1000
0010
0100
0001
1000
0100
0010
0000
,
0001
0100
0001
0000
1000
0000
0100
0000
0010
0000
0001
0000
1000
0000
0000
0000
,
0001
0100
0010
1000
0100
0010
0001
0000
,
1000
0010
1000
0000
0100
0000
0010
0001
0000
0001
1000
0000
0010
0000
0000
0000
,
0100
0001
0100
0000
0010
0000
1000
0100
0000
0100
0010
0000
0001
0000
0000
0000
,
0100
0010
0100
0000
0001
0000
1000
0100
0000
0100
0010
0000
0001
0000
0000
0000
,
1000
0010
1000
0000
0001
0000
0010
0100
0000
0100
1000
0000
0001
0000
0000
0000
,
0100
0010
0100
0000
0001
0000
0010
0000
0100
0000
1000
0000
0001
0000
0100
0000
,
0010
1000
0010
0000
0100
0000
0001
0000
0010
0000
0100
0000
1000
0000
0000
0000
,
0001
0100
0001
0000
1000
0000
0100
0000
0010
0000
0001
0000
1000
0000
0001
0000
,
0100
0010
0100
0000
0001
0000
0001
1000
0000
0000
0100
0000
0010
0000
0010
0001
,
0000
0000
1000
0000
0010
0000
0100
0010
0000
0100
0001
0000
2000
0000
0000
3100
,
0010
0000
0000
0000
0001
0000
1000
0001
0000
1000
0010
0000
0200
0000
0000
0301
,
1000
0000
0000
0000
0001
0000
0100
0001
0000
0100
0010
0000
2000
0000
0000
3100
,
0010
0000
0001
0100
0001
0000
1000
0100
1000
0000
0001
0000
0100
0000
0100
0000
,
0110
0000
0000
0000
0001
0000
0100
0010
0000
0010
1000
0000
0000
0000
0001
0000
,
0000
1000
0000
0000
0100
0000
0010
0001
0000
0001
1000
0000
0010
0000
0100
0000
,
0001
0000
0000
0000
1000
0000
0100
0010
0000
0010
0001
0000
0000
0000
1000
0000
,
0000
0001
0000
0000
0100
0000
0010
1000
0000
1000
0001
0000
0100
0010
0100
0010
,
1000
0000
0000
0000
0100
0000
0010
0001
0000
0001
1000
0000
0000
0000
0010
0000
,
0000
0100
0000
0000
0001
0000
1000
0100
0000
0100
0010
0000
0001
0000
1000
0000
,
0010
0000
0000
0000
0100
0000
0001
1000
0000
1000
0100
0000
0010
0000
0001
0000
,
0000
0100
0000
0000
0010
0000
1000
0001
0000
0001
0100
0000
0010
1000
0010
1000
,
0002
0000
0000
0000
0103
0000
0010
1000
0000
1000
0100
0000
0010
0000
0001
0000
,
0100
0000
0010
0000
1000
0000
0100
0010
0000
0010
0001
0000
1000
0000
0010
0000
,
0200
0000
0000
0000
0301
0000
1000
0100
0000
0100
0010
0000
0001
0000
1000
0000
,
0020
0000
0000
0000
0130
0000
0001
1000
0000
1000
0100
0000
0010
0000
0001
0000
,
0200
0000
0000
0000
0310
0000
1000
0100
0000
0100
0010
0000
0000
0000
0001
0000
,
0000
1000
0000
0000
0001
0000
0100
0010
0000
0010
1000
0000
0001
0000
0100
0000
,
0010
0000
0000
0000
1000
0000
0100
0010
0000
0010
0001
0000
1000
0000
0010
0000
,
0000
0100
0000
0000
0010
0000
1000
0100
0000
1000
0010
0000
0100
0001
0100
0001
,
2000
0000
0000
0000
3010
0000
0100
0001
0000
0001
0010
0000
0100
0000
1000
0000
,
0010
0000
0100
0000
0001
0000
0010
0100
0000
0100
1000
0000
0001
0000
0100
0000
,
0020
0000
0000
0000
1030
0000
0001
0010
0000
0010
0100
0000
1000
0000
0001
0000
,
0200
0000
0000
0000
0310
0000
1000
0001
0000
0001
0010
0000
0100
0000
1000
0000
,
0020
0000
0000
0000
0130
0000
0001
0010
0000
0010
0100
0000
0000
0000
1000
0000
,
0000
0001
0000
0000
1000
0000
0010
0100
0000
0100
0001
0000
1000
0000
0010
0000
,
0100
0000
0000
0000
0001
0000
0010
0100
0000
0100
1000
0000
0001
0000
0100
0000
,
0000
0010
0000
0000
0100
0000
0001
0010
0000
0001
0100
0000
0010
1000
0010
1000
,
0100
0000
0010
0000
0001
0000
1000
0100
1000
0000
0010
0000
0100
0000
0001
0000
,
1000
0100
1000
0000
0010
0000
0100
0001
0100
0000
0010
0000
1000
0000
0000
0000
,
0001
0000
0010
0000
0001
1000
0001
0000
0100
0000
0010
0000
1000
0000
0100
0010
,
0100
0000
1000
0000
0001
0000
0100
0001
0100
0000
0010
0000
1000
0001
1000
0001
,
0200
0000
0000
0000
0310
0000
1000
0100
0000
0100
0010
0000
0001
0000
1000
0000
,
0010
0100
0010
0000
1000
0000
0001
0010
0001
0000
1000
0000
0020
0000
0000
0000
,
0130
0000
0001
0000
1000
0000
0100
0010
0000
0010
0001
0000
1000
0000
0010
0100
,
0010
0000
1000
0000
0001
0000
0010
0100
0000
0100
1000
0000
0001
0100
0001
0100
,
0010
1000
0010
0001
0010
1000
0010
0001
,
0010
0000
1000
0000
0010
0000
0001
0000
0010
0000
1000
0100
0010
0001
0010
0001
;

//---------------dance-single - ----------------
#NOTEDATA:;
#CHARTNAME:;
#STEPSTYPE:dance-single;
#DESCRIPTION:;
#CHARTSTYLE:;
#DIFFICULTY:Challenge;
#METER:11;
#RADARVALUES:0.925464,0.834341,0.028921,0.014460,1.000000,890.000000,4.000000,2.000000,0.000000,0.000000,0.000000,0.000000,0.000000,0.925464,0.834341,0.028921,0.014460,1.000000,890.000000,4.000000,2.000000,0.000000,0.000000,0.000000,0.000000,0.000000;
#CREDIT:Ben Speirs;
#NOTES:
// measure 0
0000
0000
0000
0000
,  // measure 1
0000
0000
0000
0000
,  // measure 2
0000
0000
0000
0000
,  // measure 3
0000
0000
0000
0000
,  // measure 4
2000
0100
3100
1000
0100
0010
0001
1000
,  // measure 5
0010
0000
0100
0000
0010
0000
1000
0000
0100
0000
0010
0000
0001
0000
1000
0100
,  // measure 6
1000
0001
0200
0010
0310
0100
0001
0010
,  // measure 7
0100
0000
1000
0000
0001
0000
0010
0100
0010
0000
0001
0000
1000
0000
0010
0000
,  // measure 8
0100
0100
0001
1000
0100
0100
0010
0001
,  // measure 9
1000
0000
1000
0000
0010
0000
1000
0000
0001
0000
0001
0000
1000
0000
0010
0100
,  // measure 10
0010
0100
0001
1000
0100
0100
0010
0001
,  // measure 11
0100
0100
0010
1000
0001
0010
0100
0000
,  // measure 12
1100
0000
1000
0000
0001
0000
0100
0000
0010
1000
0010
0000
0100
0000
0001
0000
,  // measure 13
1000
0000
0100
0000
0010
0000
0001
0000
1000
0010
1000
0000
0001
0000
0010
0100
,  // measure 14
0010
0000
0001
0000
0100
0000
0010
0000
1000
0000
0001
0000
0010
0000
0100
1000
,  // measure 15
0100
0000
0010
0000
0001
0000
0100
0010
0100
0000
0001
0000
1000
0000
0100
0000
,  // measure 16
1000
0001
1000
0001
1000
0001
1000
0001
0100
0010
0100
0010
0100
0010
0100
0010
,  // measure 17
1000
0100
1000
0100
1000
0100
1000
0100
0010
0001
0010
0001
0010
0001
0010
0001
,  // measure 18
1000
0010
0100
0001
1000
0001
1000
0001
1000
0010
0100
0001
1000
0001
1000
0001
,  // measure 19
1000
0010
0100
0001
1000
0001
1000
0001
0100
0010
1000
0100
0010
0001
0100
0010
,  // measure 20
1000
0100
1000
0100
1000
0000
0001
0100
0001
0100
0010
0000
1000
0000
0001
0100
,  // measure 21
0001
1000
0000
1000
0010
0000
0010
0100
0001
0100
0010
0000
1000
0000
0100
0000
,  // measure 22
0010
0001
0010
0001
0010
0000
0100
1000
0100
1000
0001
0000
1000
0000
0010
0000
,  // measure 23
0100
0001
0100
0000
0010
0000
1000
0100
1000
0000
0001
0000
0010
0000
0100
0000
,  // measure 24
1000
0001
1000
0001
1000
0000
0010
0100
0010
0100
0001
0000
1000
0000
0001
0000
,  // measure 25
0010
0100
0010
0000
0001
1000
0001
1000
0100
0000
0010
0000
0001
0000
1000
0000
,  // measure 26
0010
1000
0010
1000
0001
0000
0010
0001
0010
0001
1000
0000
0100
0000
1000
0000
,  // measure 27
0001
0100
0001
0000
1000
0100
1000
0100
1000
0000
0001
0000
0010
0000
0100
0000
,  // measure 28
1000
0001
1000
0001
0100
0010
0100
0010
1000
0100
1000
0100
0010
0001
0010
0001
,  // measure 29
0100
0010
0100
0010
1000
0100
1000
0100
0010
0001
0100
0010
1000
0000
0001
0000
,  // measure 30
0100
0001
0100
0001
1000
0010
1000
0010
0100
0001
0100
0001
1000
0100
1000
0100
,  // measure 31
0010
0001
0010
0001
1000
0010
0100
0001
1000
0000
0001
0000
1000
0100
0010
0001
,  // measure 32
0100
0000
0010
0000
0100
0001
0100
0010
0100
0001
0100
0010
1000
0100
0010
0001
,  // measure 33
1000
0000
0010
0000
1000
0100
1000
0001
1000
0100
1000
0001
1000
0010
0100
0001
,  // measure 34
1000
0000
0001
0000
0010
0001
0010
0100
0010
0001
0010
0100
0010
0001
1000
0010
,  // measure 35
0100
0000
0001
1000
0001
0100
0010
1000
0100
0010
0001
1000
0010
1000
0001
0000
,  // measure 36
0101
0000
0100
0010
1000
0000
1000
0100
0010
0001
0010
0100
1000
0000
0001
0100
,  // measure 37
0001
1000
0000
1000
0100
0010
0001
1000
0010
0100
0001
0000
0101
0000
0100
0000
,  // measure 38
1010
0000
0010
0100
0001
0000
0001
0010
0100
1000
0100
0010
0001
0000
1000
0010
,  // measure 39
1000
0001
0000
0001
0010
0100
1000
0001
0100
0010
1000
0000
0001
0100
0001
0100
,  // measure 40
0010
0000
1000
0100
1000
0000
0001
0100
0010
0100
0001
0000
1000
0100
1000
0001
,  // measure 41
0100
0010
0000
0010
1000
0100
1000
0001
0100
0001
1000
0000
0010
1000
0001
0000
,  // measure 42
0100
0000
0001
0010
0001
0000
1000
0010
0100
0010
1000
0000
0001
0010
0001
1000
,  // measure 43
0010
0100
0000
0100
0001
0010
0001
1000
0010
1000
0001
0100
0001
0100
0001
0100
,  // measure 44
0010
1000
0010
1000
0100
0010
0001
0100
0010
1000
0100
0010
0001
1000
0010
0100
,  // measure 45
0001
0010
0100
0010
0001
1000
0010
0100
0001
1000
0100
0010
0001
1000
0010
0100
,  // measure 46
0001
1000
0001
1000
0010
0100
0001
0010
0100
1000
0001
0100
0010
1000
0100
0010
,  // measure 47
0001
1000
0001
1000
0010
0100
0001
1000
0010
0100
0010
0100
0001
1000
0001
1000
,  // measure 48
0100
0010
0001
0100
0010
1000
0100
0010
0001
1000
0010
0100
0001
0010
0100
0010
,  // measure 49
0001
1000
0010
0100
0001
0010
0100
1000
0001
0100
0010
1000
0100
0010
0100
0010
,  // measure 50
0001
1000
0010
0100
0001
0010
0100
1000
0001
0100
0010
0100
0001
0010
0100
1000
,  // measure 51
0001
1000
0010
1000
0001
0010
0100
1000
0001
0100
0010
1000
0001
0100
0001
0100
,  // measure 52
0010
1000
0010
1000
0100
0010
0001
0100
0010
1000
0100
1000
0010
0100
0001
0010
,  // measure 53
0100
0010
0001
1000
0010
0100
0001
1000
0100
0010
0001
1000
0010
0100
0001
1000
,  // measure 54
0010
0100
0010
0100
0001
1000
0100
0010
0001
1000
0010
0100
0001
1000
0010
0100
,  // measure 55
0001
0010
0001
0010
0100
1000
0001
0100
0010
1000
0010
1000
0001
0100
0001
0100
,  // measure 56
0010
1000
0100
0010
0001
0100
0010
1000
0100
0010
0100
0010
0100
1000
0001
0100
,  // measure 57
0010
1000
0100
0010
0001
1000
0010
0100
0001
1000
0010
0100
0001
0010
0001
0010
,  // measure 58
0100
1000
0010
0100
0001
1000
0100
0010
0100
0010
0100
1000
0001
0100
0010
1000
,  // measure 59
0100
0010
0001
1000
0010
0100
0001
1000
0001
1000
0010
1000
0001
0100
0001
0100
,  // measure 60
0010
1000
0100
0010
0001
0100
0010
1000
0100
0010
0001
1000
0010
1000
0001
0010
,  // measure 61
0100
1000
0001
0100
0010
1000
0100
0010
0001
0100
0010
0100
0001
0010
0100
1000
,  // measure 62
0001
0100
0010
0100
0001
0010
0100
0010
0001
1000
0010
1000
0001
0010
0100
1000
,  // measure 63
0001
0100
0001
0100
0010
1000
0100
0010
0001
1000
0001
1000
0010
0100
0001
1000
,  // measure 64
0010
0100
0010
0100
0001
1000
0100
0010
0001
1000
0010
0100
0001
1000
0100
0010
,  // measure 65
0001
1000
0001
1000
0010
0100
0001
1000
0001
1000
0010
0100
0001
1000
0001
1000
,  // measure 66
0010
0100
0001
0010
0100
1000
0001
0100
0010
1000
0100
0010
0001
1000
0010
0100
,  // measure 67
0001
0100
0001
0100
0010
1000
0100
0010
0001
1000
0010
0100
0001
1000
0001
1000
,  // measure 68
0010
0000
0100
0001
0100
0000
0010
1000
0010
0000
1000
0100
1000
0000
0001
0010
,  // measure 69
0001
0000
1000
0100
1000
0000
0001
0100
0001
0000
1000
0010
0100
0001
0100
0001
;

//---------------dance-single - ----------------
#NOTEDATA:;
#CHARTNAME:;
#STEPSTYPE:dance-single;
#DESCRIPTION:;
#CHARTSTYLE:;
#DIFFICULTY:Medium;
#METER:5;
#RADARVALUES:0.372871,0.404167,0.187985,0.245826,0.000000,301.000000,26.000000,34.000000,0.000000,0.000000,0.000000,0.000000,0.000000,0.372871,0.404167,0.187985,0.245826,0.000000,301.000000,26.000000,34.000000,0.000000,0.000000,0.000000,0.000000,0.000000;
#CREDIT:Ben Speirs;
#NOTES:
0000
0000
0000
0000
,
0000
0000
0000
0000
,
0000
0000
0000
0000
,
0000
0000
0000
0000
,
2000
3100
0010
0001
,
1000
0000
0010
0000
0100
0000
0001
1000
,
0001
0100
0020
0000
1030
0000
0100
0000
,
0010
0001
2000
3002
,
0103
0010
0100
0000
0001
0000
1000
0000
,
0010
0100
0001
0000
,
1000
0100
1000
0000
0001
0000
0100
0000
,
0010
0000
0010
0000
1000
0000
0100
0010
,
0002
0103
0010
1000
,
0001
0000
0010
0000
0100
0000
1000
0010
,
1000
0001
0200
0000
0310
0000
1000
0000
,
0001
0000
0010
0000
0001
1000
0001
0000
,
0200
0000
0300
0000
0010
1000
0010
0000
,
0200
0000
0300
0000
0001
1000
0001
0000
,
0020
0031
2000
3010
,
0200
0301
1000
0000
,
0101
0000
0100
0000
0010
1000
0010
0000
,
0100
0000
0001
1000
0001
0000
0000
0000
,
1100
0000
0100
0000
0010
0001
0010
0000
,
0100
0000
1000
0001
1000
0000
0000
0000
,
0010
1000
0020
0000
0130
0000
0000
0000
,
0001
0100
0002
0000
1003
0000
0000
0000
,
0020
1030
0100
0100
,
0010
0000
0001
1000
0001
0000
0000
0000
,
1000
0100
1000
0100
1000
0100
1000
0000
,
0001
0100
0001
0100
0001
0100
0001
0000
,
1000
0010
1000
0010
1000
0010
1000
0000
,
0001
0010
0001
0010
0001
0010
0001
0000
,
0200
0000
0320
0000
2030
0000
3001
0100
,
0001
0000
2000
0000
3200
0000
0310
0001
,
0010
0000
0002
0000
2003
0000
3010
0100
,
0010
0000
1000
0100
0010
0001
0000
0000
,
1100
0101
0010
1001
,
0010
0000
1000
0100
0010
0000
0001
0000
,
1000
1010
0011
1001
,
0010
0000
1000
0100
0010
0001
0100
0000
,
0010
0101
0010
1100
,
1001
0000
0011
0000
1000
0001
1000
0000
,
0010
1010
0001
1000
,
0010
0100
0010
0000
1000
0100
0010
0000
,
0012
1000
0100
0013
,
0001
0000
0000
0000
1000
0010
0100
0000
,
2010
0100
0010
3001
,
2000
3000
0002
0003
,
0110
0000
0100
0000
0001
1000
0001
0000
,
0010
0001
1000
0000
,
0010
1000
0010
0000
0100
0000
0001
0000
,
1000
0100
0010
0000
0001
0000
0000
0000
,
2100
0010
0001
3100
,
1000
0000
0000
0000
0010
1000
0010
0000
,
0102
1000
0010
0103
,
0002
0003
2000
3000
,
1010
0000
0001
0000
0100
0100
0000
0000
,
0010
0000
1000
0000
0100
0010
0001
0000
,
1000
0000
0001
0000
0010
0010
0000
0000
,
0001
0000
1000
0000
0010
1000
0001
0000
,
0101
0000
1100
0000
0010
0001
0100
0000
,
0110
0000
0001
0100
0000
0100
0010
0000
,
1000
0000
1100
0000
0001
1000
0001
0000
,
0202
0303
2020
3030
,
1001
0000
1000
0000
0100
0010
0001
0000
,
1000
0000
0010
0100
0000
0100
0010
0000
,
2000
0000
3000
0000
0001
0010
0001
0000
,
1000
0100
1000
0000
0001
0010
0100
0000
,
1000
0000
1000
0000
1000
0001
0100
0000
,
1000
0000
1000
0000
1000
0001
0100
0100
;

//---------------dance-single - ----------------
#NOTEDATA:;
#CHARTNAME:;
#STEPSTYPE:dance-single;
#DESCRIPTION:;
#CHARTSTYLE:;
#DIFFICULTY:Easy;
#METER:3;
#RADARVALUES:0.224136,0.277368,0.028921,0.180755,0.000000,188.000000,4.000000,25.000000,0.000000,0.000000,0.000000,0.000000,0.000000,0.224136,0.277368,0.028921,0.180755,0.000000,188.000000,4.000000,25.000000,0.000000,0.000000,0.000000,0.000000,0.000000;
#CREDIT:Ben Speirs;
#NOTES:
0000
0000
0000
0000
,
0000
0000
0000
0000
,
0000
0000
0000
0000
,
0000
0000
0000
0000
,
2000
3000
0010
0100
,
0001
0000
1000
0000
,
0010
0010
0100
0000
,
0001
0000
1000
0100
,
0020
0030
0001
0000
,
1000
0000
0010
0010
,
0100
0100
0001
0000
,
1000
1000
0100
0010
,
0002
0003
0100
0010
,
1000
0000
0001
0000
,
0100
0100
0010
0000
,
1000
0000
0001
0010
,
0200
0300
1000
0000
,
0001
0000
0100
0100
,
0010
0010
1000
0000
,
0001
0001
0010
0100
,
1000
0000
0010
0100
,
0001
0000
1000
0100
,
0010
0000
0001
0000
,
1000
0010
0100
0000
,
0001
0000
1000
0000
,
0010
1000
0001
0000
,
0100
0100
0010
0000
,
1000
0100
0010
0000
,
0001
0100
0001
0000
,
1000
0100
1000
0000
,
0001
0010
0001
0000
,
1000
0010
1000
0000
,
0002
0003
2000
3000
,
0020
0030
0200
0300
,
0001
1000
0010
0100
,
0001
1000
0010
0100
,
1001
0000
1000
0100
,
0100
0000
0010
0000
,
0001
1000
0001
0100
,
0100
0000
0010
0000
,
1000
0000
0001
0100
,
0100
0000
0010
0000
,
1000
0100
1000
0001
,
0001
0000
0100
0000
,
2002
3003
1000
0000
,
0010
0100
0001
0000
,
2000
3000
0100
0010
,
0002
0003
2000
3000
,
0010
0010
0100
0000
,
0001
1000
0100
0000
,
0010
0010
0001
1000
,
0010
0010
0100
0000
,
2002
3003
0001
0000
,
0100
0010
1000
0000
,
0002
0003
0010
0100
,
2000
3000
0002
0003
,
0100
0100
0010
0000
,
1000
0001
0010
0000
,
0100
0100
1000
0001
,
0100
0100
0010
0000
,
1000
1000
0100
0100
,
0020
0030
0020
0030
,
0002
0003
1000
0010
,
2000
3000
0002
0003
,
0100
0010
0010
1000
,
2000
3000
0002
0003
,
0100
0000
0001
1000
,
0100
0100
0010
0000
,
0001
0000
0001
0000
,
0001
0000
0001
0110
;

//---------------dance-single - ----------------
#NOTEDATA:;
#CHARTNAME:;
#STEPSTYPE:dance-single;
#DESCRIPTION:;
#CHARTSTYLE:;
#DIFFICULTY:Beginner;
#METER:2;
#RADARVALUES:0.138406,0.176507,0.021691,0.000000,0.000000,131.000000,3.000000,0.000000,0.000000,0.000000,0.000000,0.000000,0.000000,0.138406,0.176507,0.021691,0.000000,0.000000,131.000000,3.000000,0.000000,0.000000,0.000000,0.000000,0.000000,0.000000;
#CREDIT:Ben Speirs;
#NOTES:
0000
0000
0000
0000
,
0000
0000
0000
0000
,
0000
0000
0000
0000
,
0000
0000
0000
0000
,
0001
0000
1000
0000
,
0010
0000
0010
0000
,
0100
0100
0000
0000
,
0001
0000
1000
1000
,
1000
0000
0000
0000
,
0001
0000
1000
0000
,
0010
0010
0000
0000
,
1000
0000
0000
0000
,
0001
0000
1000
0000
,
0100
0000
0000
0000
,
1000
1000
0000
0000
,
0010
0000
0010
0000
,
0100
0100
0000
0000
,
0001
0000
0000
0000
,
1000
0000
1000
0000
,
1000
0000
0000
0000
,
0010
0010
0000
0000
,
0100
0100
0000
0000
,
0001
0001
0000
0000
,
1000
1000
0000
0000
,
0010
0010
0000
0000
,
1000
1000
0000
0000
,
0001
0001
0000
0000
,
0100
0100
0000
0000
,
0001
0000
0001
0000
,
1000
0000
1000
0000
,
0010
0000
0010
0000
,
0100
0000
0100
0000
,
0000
0001
0001
0001
,
0000
1000
1000
1000
,
0000
0010
0010
0010
,
0000
0100
0100
0000
,
1001
0000
1000
0000
,
0100
0000
0100
0000
,
1000
0000
0001
0000
,
0100
0100
0100
0000
,
0001
0000
1000
0000
,
0010
0000
0010
0000
,
1000
0000
0100
0000
,
1000
0000
0010
0010
,
0010
0000
0000
0000
,
0100
0000
0100
0000
,
0001
0000
1000
0000
,
0100
0100
0100
0100
,
0100
0000
0000
0000
,
1000
0000
0001
0000
,
0100
0000
0000
0000
,
0010
0010
0000
0000
,
1001
0000
0000
0000
,
0010
0000
0010
0000
,
1000
0000
0000
0000
,
0001
0001
0001
0001
,
0001
0000
0000
0000
,
1000
1000
0000
0000
,
0010
0000
0100
0000
,
0010
0010
0000
0000
,
1000
0000
1000
0000
,
0100
0100
0100
0000
,
0010
0000
0000
0000
,
0001
0001
0001
0000
,
0000
0100
0100
0000
,
0010
0000
0010
0000
,
0000
1000
0000
1000
,
0000
0000
0001
0001
,
0001
0000
0000
0000
,
1000
0000
0000
1001
;

//---------------dance-double - ----------------
#NOTEDATA:;
#CHARTNAME:;
#STEPSTYPE:dance-double;
#DESCRIPTION:;
#CHARTSTYLE:;
#DIFFICULTY:Challenge;
#METER:9;
#RADARVALUES:0.601138,0.581510,0.057841,0.122913,0.509728,557.000000,8.000000,17.000000,0.000000,0.000000,0.000000,0.000000,0.000000,0.601138,0.581510,0.057841,0.122913,0.509728,557.000000,8.000000,17.000000,0.000000,0.000000,0.000000,0.000000,0.000000;
#CREDIT:Ben Speirs;
#NOTES:
00000000
00000000
00000000
00000000
,
00000000
00000000
00000000
00000000
,
00000000
00000000
00000000
00000000
,
00000000
00000000
00000000
00000000
,
00101000
00000000
00010000
00000000
10000000
00100000
01000000
00000000
,
00010000
00000000
00000000
00000000
10000000
00000000
00000000
00000000
01000000
00000000
00100000
00000000
00010000
00000000
10000000
01000000
,
10000000
00010000
02000000
00000000
03100000
00000000
10000000
00000000
,
01000000
00000000
00000000
00000000
00100000
00000000
00010000
10000000
00010000
00000000
01000000
00000000
00100000
00000000
10000000
00000000
,
00020000
00000000
00130000
00000000
00001000
00010000
00001000
00000000
,
00200000
00000000
00000000
00000000
00301000
00000000
00000000
00000000
00010000
00000000
00000000
00000000
00000100
00000000
00001000
00000010
,
00001000
00000100
00000020
00000000
00000031
00001000
00000010
00000000
,
00000100
00000001
00001000
00000000
00000010
00001000
00000100
00000000
,
00010100
00000000
00001000
00000000
00000001
00000100
00000010
00000000
,
00001000
00000000
00000000
00000000
00000001
00000000
00000000
00000000
00000010
00000000
00000100
00000000
00001000
00000000
00000001
00000010
,
00000001
00001000
00000020
00000000
00000130
00000000
00000001
00000000
,
00000010
00000000
00000000
00000000
00000100
00000000
00001000
00000001
00001000
00000000
00000010
00000000
00000100
00000000
00000001
00000000
,
00002000
00000000
00003100
00000000
00010000
00001000
00010000
00000000
,
00000200
00000000
00000000
00000000
00010300
00000000
00000000
00000000
00001000
00000000
00000000
00000000
00100000
00000000
00010000
01000000
,
00010000
00000000
00100000
00000000
02000000
00000000
00000000
00000000
13000000
00000000
00100000
01000000
00200000
00000000
00000000
00000000
,
10300000
00000000
00010000
01000000
00020000
00000000
00000000
00000000
10030000
00000000
01000000
00000000
00100000
00000000
00000000
00000000
,
00010000
10000000
00010000
10000000
00100000
00000000
01000000
00000000
00010000
00000000
10000000
00000000
01000000
00000000
00100000
00000000
,
00010000
01000000
00010000
01000000
00001000
00000000
00100000
00000000
00010000
00000000
01000000
00000000
00001000
00000000
00000000
00000000
,
00010000
00001000
00010000
00001000
00010000
00000000
00000100
00000000
00010000
00000000
00000010
00000000
00001000
00000000
00000100
00000000
,
00000010
00000001
00000010
00000001
00000010
00000000
00000100
00000000
00001000
00000000
00000010
00000000
00000100
00000000
00000000
00000000
,
00000001
00000100
00000001
00000100
00000010
00000000
00001000
00000000
00000100
00000000
00000010
00000000
00000001
00000000
00001000
00000000
,
00000010
00000100
00000010
00000100
00000001
00000000
00001000
00000000
00000100
00000000
00010000
00000000
00001000
00000000
00000000
00000000
,
00010000
00000100
00010000
00000100
00010000
00000000
00001000
00000000
00100000
00000000
00010000
00000000
01000000
00000000
00100000
00000000
,
10000000
00010000
10000000
00010000
00100000
00000000
00010000
00000000
01000000
00000000
00100000
00000000
10000000
00000000
00000000
00000000
,
00010000
01000000
00010000
00000000
10000000
00000000
00100000
01000000
00000000
01000000
00010000
00000000
10000000
00000000
01000000
00000000
,
00100000
00010000
00100000
00000000
01000000
00000000
10000000
00010000
00000000
00000000
01000000
00000000
00100000
00000000
00000000
00000000
,
10000000
00100000
10000000
00000000
00010000
00000000
00100000
01000000
00000000
01000000
00100000
00000000
00010000
00000000
01000000
00000000
,
00001000
00100000
00001000
00000000
00100000
00000000
00010000
00100000
00000000
00000000
00001000
00000000
00100000
00000000
00000100
00010000
,
00000000
00000000
00000100
00000000
00010000
00001000
00010000
00001000
00000000
00010000
00000100
00000000
00001000
00000000
00000010
00000000
,
00000100
00000000
00000000
00000000
00000001
00001000
00000001
00001000
00000000
00000010
00000100
00000000
00000001
00000000
00001000
00000000
,
00000100
00000000
00000000
00000000
00010000
00000100
00010000
00000100
00000000
00010000
00001000
00000000
00100000
00000000
00010000
00000000
,
01000000
00000000
00100000
10000000
00100000
00000000
01000000
00010000
00000000
00010000
00100000
00000000
00001000
00000000
00010000
00000000
,
00101000
00000000
00000000
00000000
00001000
00000000
00010000
00001000
00000000
00001000
00100000
00000000
00001000
00000000
00010000
00000100
,
00000000
00100000
00001000
00000000
00010000
00000000
00000100
00100000
00000000
00100000
00001000
00000000
00011000
00000000
00000000
00000000
,
00010100
00000000
00000000
00000000
00010000
00000000
00001000
00010000
00000000
00010000
00000100
00000000
00010000
00000000
00001000
00100000
,
00000000
00000100
00010000
00000000
00001000
00000000
00100000
00000100
00000000
00000100
00010000
00000000
00001000
00010000
00001000
00010000
,
00100000
00000000
10000000
00000000
01000000
00000000
00100000
00010000
00000000
00010000
10000000
00000000
00100000
00000000
01000000
00010000
,
00000000
10000000
01000000
00000000
00100000
00000000
00010000
10000000
00000000
10000000
00100000
00000000
10100000
00000000
00000000
00000000
,
01010000
00000000
01000000
00000000
00100000
00000000
10000000
01000000
00000000
01000000
00100000
00000000
00010000
00000000
10000000
00100000
,
00000000
00100000
01000000
00000000
00010000
00000000
10000000
01000000
00000000
01000000
00100000
00000000
00010000
10000000
00010000
10000000
,
00100000
00000000
00010000
00000000
00001000
00000000
00000010
00000001
00000000
00000001
00000100
00000000
00000010
00000000
00001000
00000100
,
00001000
00000000
00000010
00000000
00000100
00000000
00000001
00000010
00000000
00000010
00000100
00000000
00001000
00000000
00000001
00000000
,
00000100
00000000
00001000
00000000
00010000
00000000
01000000
10000000
00000000
10000000
00100000
00000000
01000000
00000000
00010000
00000000
,
10000000
01000000
10000000
00000000
00100000
00000000
01000000
00000000
00010000
00100000
00010000
00000000
10000000
00100000
10000000
00100000
,
01000000
00000000
00010000
00000000
10000000
00000000
00000000
01000000
00000000
01000000
00100000
00000000
00000000
00000000
00010000
00000000
,
00000000
10000000
00000000
00000000
00100000
00000000
01000000
00010000
00000000
00010000
10000000
00000000
01000000
00000000
00100000
00000000
,
00010000
00000000
01000000
00000000
00001000
00000000
00000000
00100000
00000000
00100000
00010000
00000000
00000000
00000000
00100000
00000000
,
00000000
00001000
00000000
00000000
00010000
00000000
00000100
00010000
00000000
00010000
00001000
00000000
00010000
00000100
00010000
00000100
,
00001000
00000000
00000010
00000000
00000100
00000000
00000001
00000010
00000000
00000010
00000100
00000000
00000010
00000000
00000001
00000000
,
00001000
00000000
00000010
00000000
00000100
00000000
00000001
00001000
00000000
00001000
00000100
00000000
00000010
00000000
00000100
00000000
,
00010000
00000000
00001000
00000000
00010000
00000000
00000100
00001000
00000000
00001000
00000010
00000000
00000100
00000000
00000001
00000000
,
00001000
00000100
00001000
00000000
00000010
00000000
00010000
00000000
00001000
00010000
00001000
00000000
00100000
00010000
00100000
00010000
,
01000000
00000000
00100000
00000000
10000000
00000000
00000000
00010000
00000000
00010000
10000000
00000000
00000000
00000000
00100000
00000000
,
00000000
01000000
00000000
00000000
00010000
00000000
10000000
01000000
00000000
01000000
00100000
00000000
00010000
00000000
01000000
00000000
,
00001000
00000000
00100000
00000000
00001000
00000000
00000000
00010000
00000000
00010000
00000100
00000000
00000000
00000000
00010000
00000000
,
00000000
00001000
00000000
00000000
00010000
00000000
00000100
00001000
00000000
00001000
00000010
00000000
00010000
00001000
00010000
00001000
,
00100000
00000000
00010000
00000000
01000000
00100000
01000000
00000000
00010000
00000000
10000000
00000000
01000000
00100000
01000000
00000000
,
00100000
00000000
00010000
00000000
01000000
00001000
01000000
00000000
00001000
00000000
00010000
00000000
00000100
00000000
00001000
00000000
,
00000010
00000000
00000100
00000000
00000001
00000010
00000001
00000000
00000010
00000000
00000100
00000000
00001000
00000010
00001000
00000000
,
00000001
00001000
00000001
00000000
00000100
00000000
00000010
00000000
00001000
00000100
00001000
00000000
00000010
00010000
00000010
00010000
,
00001000
00000000
00000000
00000000
00100000
00000000
00001000
00010000
00000000
00010000
00100000
00000000
10000000
00000000
01000000
00000000
,
00100000
00010000
00100000
00000000
01000000
00000000
10000000
00100000
10000000
00000000
00010000
00000000
10010000
00000000
00000000
00000000
,
00100000
00000000
10000000
00000000
01000000
00000000
00100000
00010000
00000000
00010000
01000000
00000000
00001000
00000000
00100000
00010000
,
00100000
00000000
00001000
00000000
00010000
00000000
00000100
00001000
00000000
00001000
00000010
00000000
00001000
00000001
00001000
00000001
,
00000200
00002300
00023000
02030000
,
23000000
00000000
00000000
00000000
32000000
00000000
00000000
00000000
03020000
00000000
00000000
00000000
00031000
00000000
00000100
00000001
;
