#TITLE:Runaways;
#ARTIST:The Killers;
#FILE:Runaways.mp3;
#BPM:118.000;
#GAP:110;
#SAMPLESTART:95.440;
#SAMPLELENGTH:16.340;
#CHANGEBPM:224.000=122.000;
#SINGLE:BEGINNER:1:
00000000
00000000
00000000
00000000
40004000
40000000
80008000
80000000
20000000
60000000
40000000
80800000
40000000
60000000
B0000000
00008080
80000000
00000000
40004000
20002000
80008000
60000000
B0000000
80000000
20002000
60006000
80008000
20202000
40004000
80008000
40004000
60006000
20000000
60600000
20000000
80800000
40000000
20200000
B0000000
80008000
80000000
20002000
20000000
60000000
40000000
20000000
40004000
80808080
80000000
20000000
60600000
60600000
B0000000
40000000
80800000
40400000
00202020
20000000
40004000
80008000
00404040
40000000
60006000
60002000
A0000000
B0000000
;
#SINGLE:ANOTHER:8:
00000000
00000000
00000000
00000000
80804020
42400000
40402040
62608020
B!B00000B0
2!20008000
1!40000080
8!80000400
2!20000080
6!60000030
B!40202020
20207042
46208020
80406000
40246040
80284060
40208060
30000000
A00B0000
10202020
40802080
46200000
80406080
20408424
80406080
28600000
80602080
40802628
2!2000A280
4!40206!60B0
8!80202060
9!60203000
7!40002210
40802000
7!40808080
80807042
86208020
60406000
42866020
84244080
4080280B
00000000
64646464
82828020
40460000
A0628260
40402040
6060A000
40420000
80642460
20208040
60004080
20842080
64600000
40206020
40806080
40628040
64600000
20408020
80402860
A00B0000
7!70000070
;
#SINGLE:MANIAC:11:
00000000
00000000
00000000
00000000
60020000
80000000
40020000
80006040
B!40001480
20802060
9!60003840
64604280
3!2000A284
60402480
32826282
62826284
28242824
28242824
10846020
82826460
10908462
8!80A04A00
2!2003!60000
B!40200810
42860282
64608020
86280284
84246480
28260868
24604080
28260424
82846820
B!40272482
60208260
42624820
88802628
4!402080B0
6!60208890
A8682868
28682864
28242824
28242824
108460A0
62426468
2!20A!809464
2!204080A0
10628260
22684860
182B0828
A0628468
24248264
82826!6030
72690824
10846482
84246848
6!60382640
14828468
48642862
82648428
68482482
64628428
62842468
48624862
84286848
A0630000
B!B00000B0
;
#SINGLE:BASIC:4:
00000000
00000000
00000000
00000000
80402040
60000000
80602080
40002000
70002060
40002020
40008040
60008080
60002080
40002000
B0606060
60606060
A0808080
80808080
40002000
40208000
60604040
60000000
A0060000
40000000
20408020
20800000
20602000
80208000
20604020
40400000
80408000
20602000
B0002040
20004000
80402020
80806020
60002080
20000000
B0404040
40404040
A0202020
20202020
80004020
40602000
80802020
80000000
20602060
40204020
B00B0000
20204040
80804040
60608000
B00B0000
B0008020
80404060
60000000
A0208040
80206020
80408020
60208040
A0608020
80608020
40208060
80204020
10080000
B!B00000B0
;
