#VERSION:0.82;
#TITLE:Ex's & Oh's;
#SUBTITLE:;
#ARTIST:Elle King;
#TITLETRANSLIT:;
#SUBTITLETRANSLIT:;
#ARTISTTRANSLIT:;
#GENRE:XOXO;
#ORIGIN:;
#CREDIT:;
#BANNER:Ex's & Oh's.png;
#BACKGROUND:Ex's & Oh's-bg.png;
#PREVIEWVID:;
#JACKET:jacket.png;
#CDIMAGE:;
#DISCIMAGE:;
#LYRICSPATH:;
#CDTITLE:;
#MUSIC:Ex's & Oh's.ogg;
#OFFSET:-0.000000;
#SAMPLESTART:47.993969;
#SAMPLELENGTH:13.714000;
#SELECTABLE:YES;
#BPMS:0.000=140.000;
#STOPS:;
#DELAYS:;
#WARPS:;
#TIMESIGNATURES:0.000=4=4;
#TICKCOUNTS:0.000=4;
#COMBOS:0.000=1;
#SPEEDS:0.000=1.000=0.000=0;
#SCROLLS:0.000=1.000;
#FAKES:;
#LABELS:0.000=Song Start;
#BGCHANGES:4.000=Ex and Ohs.avi=1.000=0=0=1=====,
99999=-nosongbg-=1.000=0=0=0 // don't automatically add -songbackground-
;
#KEYSOUNDS:;
#ATTACKS:
;

//---------------dance-single - ----------------
#NOTEDATA:;
#CHARTNAME:;
#STEPSTYPE:dance-single;
#DESCRIPTION:;
#CHARTSTYLE:;
#DIFFICULTY:Hard;
#METER:8;
#RADARVALUES:0.546913,0.545875,0.436146,0.242303,0.515760,455.000000,63.000000,35.000000,0.000000,0.000000,0.000000,0.000000,0.000000,0.546913,0.545875,0.436146,0.242303,0.515760,455.000000,63.000000,35.000000,0.000000,0.000000,0.000000,0.000000,0.000000;
#CREDIT:Ben Speirs;
#NOTES:
0000
0000
0000
0000
,
0000
0000
0000
0000
,
0000
0000
0000
0000
,
0000
0000
0000
0000
,
0001
0000
0001
1000
0000
1000
0010
0000
0000
0102
0000
0000
,
1003
2100
3001
1000
,
0010
0000
0010
1000
0000
1000
0001
0000
0000
0012
0000
0000
,
1003
0000
0000
2010
0000
0000
3001
0000
0000
0100
0000
0010
,
2000
0100
0010
0001
,
3100
0000
0000
0010
0000
0010
1000
0000
1000
0100
0000
0100
,
0010
0000
0000
0001
0000
1000
0020
0000
0000
0130
0000
0000
,
0001
0000
0000
1000
0000
0100
0020
0000
0000
0031
0000
0000
,
1000
0000
1000
0001
0000
0001
0100
0000
0000
2010
0000
0000
,
3001
0012
1003
0001
,
0100
0000
0100
0001
0000
0001
1000
0000
0000
2100
0000
0000
,
3001
0000
0000
0102
0000
0000
1003
0000
0000
0010
0000
0100
,
0002
0010
0100
1000
,
0013
0000
0000
0100
0000
0100
0001
0000
0001
0010
0000
0010
,
0100
0000
0000
1000
0000
0001
0200
0000
0000
0310
0000
0000
,
1000
0000
0000
0001
0000
0010
0200
0000
0000
1300
0000
0000
,
0011
0000
0000
0011
0000
0000
0011
0000
0000
1001
0000
0100
,
1000
0000
0000
1001
0000
0100
0001
0000
0000
1001
0000
0000
,
1010
1010
0011
0011
,
1000
0000
0100
0010
0000
0001
1000
0000
0000
0001
0000
0000
,
1010
0000
0000
1010
0000
0000
1010
0000
0000
1001
0000
0100
,
0001
0000
0000
1001
0000
0100
1000
0000
0000
0001
0010
0100
,
1000
0000
0000
0000
,
0000
0000
0000
0000
,
0101
0000
0100
0010
0000
0010
1000
0000
1000
0100
0000
0000
,
0110
0000
0000
0011
0000
0000
1100
0000
0000
0001
0000
1000
,
0010
0000
0010
0100
0000
0000
0001
0000
1000
0100
0000
0010
,
0001
0000
0001
1000
0000
1000
0010
0000
0010
0100
0000
0100
,
0001
0000
1000
0100
0000
0000
0010
0000
0001
1000
0000
1000
,
0010
0000
0010
0100
0000
0100
0001
0000
0001
1000
0000
0000
,
2100
3010
0102
0013
,
1001
0000
0000
0010
0000
0000
1000
0000
0001
0000
0100
0000
,
0010
0000
0010
1000
0000
0200
0000
0000
0000
0310
0000
0000
,
0001
0000
0001
1000
0000
0020
0000
0000
0000
0130
0000
0000
,
0001
0000
0001
1000
0000
0200
0000
0000
0000
1300
0000
0000
,
0001
0000
0001
0010
0000
0010
0100
0000
0100
1000
0000
0000
,
0001
0000
1000
0010
0000
1000
0001
0000
1000
0010
0000
1000
,
0001
0000
0100
0010
0000
1000
0100
0000
0010
0001
0000
0000
,
1000
0000
0001
0100
0000
0001
1000
0000
0001
0100
0000
0001
,
1000
0000
0010
0100
0000
0001
0010
0000
0100
1000
0000
0000
,
0002
0100
0100
1000
,
2003
0000
0000
3100
0000
0000
1000
0000
0100
0010
0000
0010
,
0001
0000
0000
1000
0000
0010
0100
0000
0000
0001
0000
1000
,
0100
0000
0000
0010
0000
0001
1000
0000
0000
0011
0000
0000
,
1000
0000
0001
0100
0000
0001
1000
0000
0001
0100
0000
0001
,
1000
0000
0010
0100
0000
0001
0010
0000
0100
1000
0000
0000
,
0001
0000
1000
0010
0000
1000
0001
0000
1000
0010
0000
1000
,
0001
0000
0100
0010
0000
1000
0100
0000
0010
0001
0000
0000
,
2000
0010
0010
0001
,
3002
0000
0000
0013
0000
0000
0001
0000
0010
0100
0000
0100
,
1000
0000
0000
0001
0000
0100
0010
0000
0000
1000
0000
0001
,
0010
0000
0000
0100
0000
1000
0001
0000
0000
1010
0000
0000
,
1001
0000
0000
1001
0000
0000
1001
0000
0000
1100
0000
0100
,
0010
0000
0010
0001
0000
0100
0010
0000
0000
1001
0000
0000
,
0101
0000
0100
0010
0000
0000
1100
0000
0100
0010
0000
0000
,
0001
0000
1000
0010
0000
1000
0001
0000
0000
0100
0000
0000
,
1001
0000
0000
1001
0000
0000
1001
0000
0000
0011
0000
0010
,
0100
0000
0100
1000
0000
0010
0100
0000
0000
1001
0000
0000
,
1000
0000
1000
0001
0000
0001
0020
0000
0000
0031
0000
1000
,
0010
0000
0010
1000
0000
1000
0002
0000
0000
0103
0000
0000
,
1001
0000
1000
0100
0000
0100
0010
0000
0010
0001
0000
0000
,
1100
0011
0101
1010
,
0001
1000
0001
0200
0000
0000
0310
0000
0000
1000
0000
1000
,
0100
0000
0100
0010
0000
0010
0001
0000
0001
1000
0000
1000
,
0010
0000
0000
1001
0000
0000
0100
0000
0000
0001
1000
0001
,
0010
0000
0010
0100
0000
0100
1000
0000
1000
0010
0000
0000
,
0102
1003
2100
3001
,
0012
0000
0000
1003
0000
0000
0001
0010
0100
1000
0000
0000
,
1001
0000
0001
0010
0000
0010
0100
0000
0100
1000
0000
0000
,
0011
1100
1010
0101
,
1000
0001
1000
0020
0000
0000
0130
0000
0000
0001
0000
0001
,
0010
0000
0010
0100
0000
0100
1000
0000
1000
0001
0000
0001
,
0100
0000
0000
1001
0000
0000
0010
0000
0000
1000
0001
1000
,
0100
0000
0100
0010
0000
0010
0001
0000
0001
0100
0000
0000
,
2010
3001
0012
1003
,
2100
0000
0000
3001
0000
0000
1000
0100
0010
0001
0100
0010
,
1000
0000
0000
0100
0000
0100
0020
0000
0000
0031
0000
0000
,
1000
0000
0000
0010
0000
0010
0200
0000
0000
0301
0000
0000
,
1000
0000
0000
0001
0000
0001
0010
0000
0010
0100
0000
0000
,
1100
0000
0000
0000
;

//---------------dance-double - ----------------
#NOTEDATA:;
#CHARTNAME:;
#STEPSTYPE:dance-double;
#DESCRIPTION:;
#CHARTSTYLE:;
#DIFFICULTY:Challenge;
#METER:8;
#RADARVALUES:0.560759,0.545875,0.394608,0.422300,0.494991,449.000000,57.000000,61.000000,0.000000,0.000000,0.000000,0.000000,0.000000,0.560759,0.545875,0.394608,0.422300,0.494991,449.000000,57.000000,61.000000,0.000000,0.000000,0.000000,0.000000,0.000000;
#CREDIT:Ben Speirs;
#NOTES:
// measure 0
00000000
00000000
00000000
00000000
,  // measure 1
00000000
00000000
00000000
00000000
,  // measure 2
00000000
00000000
00000000
00000000
,  // measure 3
00000000
00000000
00000000
00000000
,  // measure 4
10000000
00000000
10000000
01000000
00000000
01000000
00200000
00000000
00000000
00310000
00000000
10000000
,  // measure 5
00020000
00000000
00000000
10030000
00000000
00010000
20000000
00000000
00000000
30100000
00000000
00000000
,  // measure 6
10000000
00000000
10000000
00010000
00000000
00010000
00100000
00000000
00100000
00001000
00000000
00001000
,  // measure 7
00010000
00000000
00010000
00000100
00000000
00000100
00001000
00000000
00001000
00000010
00000000
00000100
,  // measure 8
00000002
00000013
00000200
00001300
,  // measure 9
00000101
00000000
00000000
00001000
00000000
00001000
00000100
00000000
00000100
00010000
00000000
00010000
,  // measure 10
00000010
00002010
00003100
00000012
,  // measure 11
00001003
00000000
00000000
00001001
00000000
00000001
00000100
00000000
00000000
00001010
00000000
00000000
,  // measure 12
00000001
00000000
00000001
00000010
00000000
00000010
00000200
00000000
00000000
00001300
00000000
00000001
,  // measure 13
00002000
00000000
00000000
00003001
00000000
00001000
00000002
00000000
00000000
00000103
00000000
00000000
,  // measure 14
00000001
00000000
00000001
00001000
00000000
00001000
00000100
00000000
00000100
00010000
00000000
00010000
,  // measure 15
00001000
00000000
00001000
00100000
00000000
00100000
00010000
00000000
00010000
01000000
00000000
00100000
,  // measure 16
20000000
31000000
00200000
00310000
,  // measure 17
10100000
00000000
00000000
00010000
00000000
00010000
00100000
00000000
00100000
00001000
00000000
00001000
,  // measure 18
01000000
01020000
00130000
21000000
,  // measure 19
30010000
00000000
00000000
10010000
00000000
10000000
00100000
00000000
00000000
01100000
00000000
00000000
,  // measure 20
10010000
00000000
00000000
10010000
00000000
00000000
10010000
00000000
00000000
10000000
00000000
01000000
,  // measure 21
00020000
00000000
00000000
01030000
00000000
00010000
00002000
00000000
00000000
00013000
00000000
00000000
,  // measure 22
00001000
00000000
00001000
00100000
00000000
00100000
00010000
00000000
00010000
01000000
00000000
01000000
,  // measure 23
00100000
00000000
00100000
00010000
00000000
00010000
00001000
00000000
00001000
00000010
00000000
00000000
,  // measure 24
00000011
00000000
00000000
00000011
00000000
00000000
00000011
00000000
00000000
00000001
00000000
00000100
,  // measure 25
00002000
00000000
00000000
00013000
00000000
00001000
00000200
00000000
00000000
00000301
00000000
00000000
,  // measure 26
00001100
00000000
00000000
00000000
,  // measure 27
00000000
00000000
00000000
00000000
,  // measure 28
00001001
00000000
00000001
00000100
00000000
00000100
00000010
00000000
00000010
00001000
00000000
00001000
,  // measure 29
00000100
00010100
00100000
00101000
,  // measure 30
00001000
00000000
00001000
00010000
00000000
00010000
00100000
00000000
00100000
10000000
00000000
10000000
,  // measure 31
01000000
11000000
00010000
01010000
,  // measure 32
10000000
00000000
10000000
00010000
00000000
00010000
01000000
00000000
01000000
00100000
00000000
10000000
,  // measure 33
00020000
00230000
00302000
00013000
,  // measure 34
00021000
00030100
00012000
00103000
,  // measure 35
00200200
00000000
00000000
00300300
00000000
00000000
00010000
00000000
00001000
00000000
00100000
00000000
,  // measure 36
00110000
00000000
00000000
00010000
00000000
10000000
00200000
00000000
00000000
01300000
00000000
00000000
,  // measure 37
00010000
00000000
00000000
10000000
00000000
01000000
00200000
00000000
00000000
00310000
00000000
00000000
,  // measure 38
10000000
00000000
00000000
00010000
00000000
00100000
00002000
00000000
00000000
00013000
00000000
00000000
,  // measure 39
00000100
00000000
00000000
00001000
00000000
00000001
00000200
00000000
00000000
00000310
00000000
00000000
,  // measure 40
00001000
00000000
00000010
00001000
00000000
00000001
00001000
00000000
00000010
00001000
00000000
00000001
,  // measure 41
00000010
00000000
00000010
00000100
00000000
00000100
00001000
00000000
00000000
00000001
00000000
00000000
,  // measure 42
00000100
00000000
00000100
00000010
00000000
00000010
00001000
00000000
00001000
00000100
00000000
00000100
,  // measure 43
00010000
00000000
00010000
00001000
00000000
00001000
01000000
00000000
01000000
00010000
00000000
00100000
,  // measure 44
02000000
10000000
00100000
13000000
,  // measure 45
01010000
00000000
00000000
10000000
00000000
10000000
00010000
00000000
00010000
00100000
00000000
00100000
,  // measure 46
00010000
00000000
00000000
01000000
00000000
00100000
20000000
00000000
00000000
30010000
00000000
00000000
,  // measure 47
10000000
00000000
00000000
00100000
00000000
01000000
00020000
00000000
00000000
10030000
00000000
00000000
,  // measure 48
00010000
00000000
01000000
00010000
00000000
10000000
00010000
00000000
01000000
00010000
00000000
10000000
,  // measure 49
01000000
00000000
01000000
00100000
00000000
00100000
00010000
00000000
00000000
10000000
00000000
00000000
,  // measure 50
00100000
00000000
00100000
01000000
00000000
01000000
00010000
00000000
00010000
00100000
00000000
00100000
,  // measure 51
00001000
00000000
00001000
00010000
00000000
00010000
00000010
00000000
00000010
00001000
00000000
00000100
,  // measure 52
00000020
00000001
00000100
00000031
,  // measure 53
00001010
00000000
00000000
00000001
00000000
00000001
00001000
00000000
00001000
00000100
00000000
00000100
,  // measure 54
00001000
00000000
00000000
00000010
00000000
00000100
00000002
00000000
00000000
00001003
00000000
00000000
,  // measure 55
00000001
00000000
00000000
00000100
00000000
00000010
00002000
00000000
00000000
00003001
00000000
00000000
,  // measure 56
00001001
00000000
00000000
00001001
00000000
00000000
00001001
00000000
00000000
00000001
00000000
00000010
,  // measure 57
00002000
00000000
00000000
00003010
00000000
00001000
00020000
00000000
00000000
00031000
00000000
00000000
,  // measure 58
00010000
00000000
00010000
00000100
00000000
00000100
00001000
00000000
00001000
00000010
00000000
00000010
,  // measure 59
00000100
00000000
00000100
00001000
00000000
00001000
00010000
00000000
00010000
01000000
00000000
00000000
,  // measure 60
11000000
00000000
00000000
11000000
00000000
00000000
11000000
00000000
00000000
10000000
00000000
00100000
,  // measure 61
00020000
00000000
00000000
00031000
00000000
00010000
00200000
00000000
00000000
10300000
00000000
00000000
,  // measure 62
00110000
11000000
01010000
10100000
,  // measure 63
00020000
20030000
30200000
01300000
,  // measure 64
10010000
00000000
10000000
00100000
00000000
00100000
01000000
00000000
01000000
00010000
00000000
00010000
,  // measure 65
00100000
00101000
00000100
00010100
,  // measure 66
00010000
00000000
00010000
00001000
00000000
00001000
00000100
00000000
00000100
00000001
00000000
00000001
,  // measure 67
00000010
00000011
00001000
00001010
,  // measure 68
00000001
00000000
00000001
00001000
00000000
00001000
00000010
00000000
00000010
00000100
00000000
00000001
,  // measure 69
00002000
00003200
00020300
00031000
,  // measure 70
00012000
00103000
00021000
00030100
,  // measure 71
00200200
00000000
00000000
00300300
00000000
00000000
00001000
00000000
00010000
00001000
00000000
00000000
,  // measure 72
00201000
00000000
00000000
00310000
00000000
00000000
10010000
00000000
00000000
10000000
01000000
00100000
,  // measure 73
00010000
00000000
00010000
01000000
00000000
01000000
00001000
00000000
00001000
00010000
00000000
00010000
,  // measure 74
00000100
00000000
00000000
00002100
00000000
00000000
00003001
00000000
00000000
00000001
00000010
00000100
,  // measure 75
00001000
00000000
00001000
00000010
00000000
00000010
00010000
00000000
00010000
00001000
00000000
00001000
,  // measure 76
00100000
00000000
00000000
00120000
00000000
00000000
10030000
00000000
00000000
00100000
00000000
01000000
,  // measure 77
00020000
00230000
00302000
00013000
,  // measure 78
00010200
00001300
00201000
00310000
,  // measure 79
00200200
00300300
01000010
00100100
,  // measure 80
00011000
00000000
00010000
00100000
00000000
00100000
20000000
00000000
00000000
31000000
00000000
00000000
,  // measure 81
10000000
00000000
10000000
01000000
00000000
01000000
00020000
00000000
00000000
00031000
00000000
00000000
,  // measure 82
00010000
00000000
00010000
00001000
00000000
00001000
00000100
00000000
00000100
00000001
00000000
00000000
,  // measure 83
00001100
00000000
00000000
00000000
;

//---------------dance-single - ----------------
#NOTEDATA:;
#CHARTNAME:;
#STEPSTYPE:dance-single;
#DESCRIPTION:;
#CHARTSTYLE:;
#DIFFICULTY:Medium;
#METER:6;
#RADARVALUES:0.398564,0.545875,0.249226,0.422300,0.100383,306.000000,36.000000,61.000000,0.000000,0.000000,0.000000,0.000000,0.000000,0.398564,0.545875,0.249226,0.422300,0.100383,306.000000,36.000000,61.000000,0.000000,0.000000,0.000000,0.000000,0.000000;
#CREDIT:Ben Speirs;
#NOTES:
0000
0000
0000
0000
,
0000
0000
0000
0000
,
0000
0000
0000
0000
,
0000
0000
0000
0000
,
0100
0010
1000
1000
,
0100
0000
0000
0010
0000
0001
1000
0000
0000
0000
0000
0000
,
0010
1000
0001
0001
,
0010
0000
0000
0001
0000
1000
0100
0000
0000
0000
0000
0000
,
2000
3100
1000
0010
,
1000
0001
1000
0100
,
0022
0033
0001
1000
,
2020
3030
0001
1000
,
0001
0100
0010
0010
,
1000
0000
0000
0100
0000
0010
0001
0000
0000
0000
0000
0000
,
1000
0001
0100
0100
,
0010
0000
0000
1000
0000
0100
0010
0000
0000
0000
0000
0000
,
0002
0013
0001
0100
,
0001
0000
0000
0010
0000
0000
0001
0000
0100
0010
0000
0000
,
2000
3000
0100
0010
,
0002
0003
0100
0000
,
1001
1001
1001
0000
,
0010
1000
0100
0000
,
1000
0000
0000
0100
0000
0000
0010
0000
0010
0001
0000
0000
,
1000
0000
0000
0010
0000
0010
0100
0000
0000
0000
0000
0000
,
0101
0101
0101
0000
,
0001
1000
0010
0000
,
1001
0000
0000
0000
,
0000
0000
0000
0000
,
1100
0000
0000
0100
0000
0000
0010
0000
0000
0001
0000
1000
,
0020
0230
0302
2003
,
0100
0000
0000
3100
0000
0000
1000
0000
0000
0010
0000
0100
,
0002
2003
3200
0320
,
0001
0000
0000
0031
0000
0000
1000
0000
0000
0001
0000
0100
,
0020
2030
3002
0103
,
2020
3030
0022
0033
,
2002
3003
1000
0001
,
0100
0010
1000
1000
,
0100
0010
0001
0001
,
1000
0001
0100
0100
,
0010
1000
0001
0001
,
1000
0000
1000
0100
0000
0000
1000
0000
0000
0100
0000
0000
,
1000
0000
1000
0100
0000
0000
1000
0000
0000
0100
0000
0000
,
0010
0001
1000
0010
,
0100
0000
0000
0001
0000
0000
1000
0000
0000
0100
0000
0010
,
0001
0000
1000
0001
,
0100
0000
0010
1000
,
0001
0000
0010
0001
,
1000
0001
0100
0000
,
0001
0000
0001
0010
0000
0000
0001
0000
0000
0010
0000
0000
,
0001
0000
0001
0010
0000
0000
0001
0000
0000
0010
0000
0000
,
0100
0000
0100
1000
0000
0000
0010
0000
0000
0100
0000
0000
,
0001
0000
0001
1000
0000
0000
0010
0000
0000
0100
0000
0000
,
0001
0000
0100
0001
,
1000
0000
0100
1000
,
0010
0000
0100
0001
,
1000
1000
0001
0000
,
1100
0101
1100
0010
,
1000
0001
0100
0000
,
0001
0000
1000
0010
0000
0000
0200
0000
0000
0302
0000
0000
,
1003
0000
0000
0100
0000
0010
0001
0000
0000
0000
0000
0000
,
1010
0011
1010
0001
,
1000
0000
0000
0010
0000
0100
0001
0000
0000
1000
0000
0000
,
1100
0011
0101
1010
,
1001
0110
1001
0110
,
1100
0000
0000
0100
0000
0000
0010
0000
0000
0001
0000
1000
,
0020
0230
0302
2003
,
0100
0000
0000
3100
0000
0000
1000
0000
0000
0010
0000
0100
,
0002
2003
3200
0320
,
0001
0000
0000
0031
0000
0000
1000
0000
0000
0001
0000
0100
,
0020
2030
3002
0103
,
2020
3030
0022
0033
,
2002
3003
1000
0001
,
0011
0000
0000
0010
0000
0000
0100
0000
0000
1000
0000
0001
,
0200
0320
2030
3002
,
0010
0000
0000
0013
0000
0000
0001
0000
0000
0100
0000
0010
,
2000
3002
0023
0230
,
1000
0000
0000
1300
0000
0000
0001
0000
0000
1000
0000
0010
,
0200
0302
2003
3010
,
0202
0303
2200
3300
,
2002
3003
0001
1000
,
0010
0000
0000
0100
0000
0100
0010
0000
0000
1000
0000
0000
,
0100
0000
0000
0010
0000
0010
0001
0000
0000
1000
0000
0000
,
0010
0000
0000
0100
0000
0100
0001
0000
0000
0010
0000
0000
,
1100
0000
0000
0000
;

//---------------dance-single - ----------------
#NOTEDATA:;
#CHARTNAME:;
#STEPSTYPE:dance-single;
#DESCRIPTION:;
#CHARTSTYLE:;
#DIFFICULTY:Easy;
#METER:3;
#RADARVALUES:0.241314,0.287303,0.124613,0.173074,0.000000,201.000000,18.000000,25.000000,0.000000,0.000000,0.000000,0.000000,0.000000,0.241314,0.287303,0.124613,0.173074,0.000000,201.000000,18.000000,25.000000,0.000000,0.000000,0.000000,0.000000,0.000000;
#CREDIT:Ben Speirs;
#NOTES:
0000
0000
0000
0000
,
0000
0000
0000
0000
,
0000
0000
0000
0000
,
0000
0000
0000
0000
,
1000
0000
0001
0000
,
0100
0010
1000
0000
,
0001
0000
1000
0000
,
0010
0100
0001
0000
,
2000
3000
1000
0000
,
0002
0003
0001
0000
,
0200
0300
0100
0000
,
0020
0030
0010
0000
,
1000
0010
0100
0000
,
0001
1000
0100
0000
,
0010
0001
1000
0000
,
0010
0100
0001
0000
,
2000
3000
1000
0000
,
0020
0030
0010
0000
,
0200
0300
0100
0000
,
0002
0003
0001
0000
,
1001
1001
1001
0000
,
0100
0000
0100
0000
,
0010
0000
0010
0001
,
1000
0000
0010
0000
,
1001
1001
1001
0000
,
1000
0000
0001
0000
,
0100
0000
0000
0000
,
0000
0000
0000
0000
,
1001
0000
0100
0000
,
1000
0010
0100
0001
,
1000
0000
0100
0000
,
1000
0100
0010
0001
,
1000
0000
0010
0000
,
0100
0001
1000
0100
,
0020
0030
0002
0003
,
2000
3000
0010
0000
,
1001
0000
0100
0100
,
1000
0000
1000
1000
,
0001
0000
0001
0001
,
0010
0000
0001
0000
,
1001
0000
1000
0000
,
0010
0100
0001
0000
,
1000
0000
0001
0000
,
0100
0010
1000
0000
,
0002
0003
0001
0000
,
2000
3000
1000
0000
,
0020
0030
0010
0000
,
0200
0300
0100
0000
,
0001
0100
0010
0000
,
1000
0001
0010
0000
,
0100
1000
0001
0000
,
0100
0010
1000
0000
,
0002
0003
0001
0000
,
0200
0300
0100
0000
,
0020
0030
0010
0000
,
2000
3000
1000
0000
,
1001
1001
1001
0000
,
0010
0000
0010
0000
,
0100
0000
0100
1000
,
0001
0000
0100
0000
,
1001
1001
1001
0000
,
0001
0000
1000
0000
,
0010
0010
0010
0100
,
0001
0001
0001
0000
,
1001
0000
0010
0000
,
0001
0100
0010
1000
,
0001
0000
0010
0000
,
0001
0010
0100
1000
,
0001
0000
0100
0000
,
0010
1000
0001
0010
,
0200
0300
2000
3000
,
0002
0003
0100
0000
,
1001
0000
0100
0000
,
1000
0010
0100
0001
,
1000
0000
0100
0000
,
1000
0100
0010
0001
,
1000
0000
0010
0000
,
0100
0001
1000
0100
,
0020
0030
0002
0003
,
2000
3000
0010
0000
,
1001
0000
0100
0100
,
1000
0000
1000
1000
,
0001
0000
0001
0001
,
0010
0000
0000
0000
;

//---------------dance-single - ----------------
#NOTEDATA:;
#CHARTNAME:;
#STEPSTYPE:dance-single;
#DESCRIPTION:;
#CHARTSTYLE:;
#DIFFICULTY:Beginner;
#METER:2;
#RADARVALUES:0.131536,0.201112,0.020769,0.000000,0.000000,130.000000,3.000000,0.000000,0.000000,0.000000,0.000000,0.000000,0.000000,0.131536,0.201112,0.020769,0.000000,0.000000,130.000000,3.000000,0.000000,0.000000,0.000000,0.000000,0.000000,0.000000;
#CREDIT:Ben Speirs;
#NOTES:
0000
0000
0000
0000
,
0000
0000
0000
0000
,
0000
0000
0000
0000
,
0000
0000
0000
0000
,
0100
0000
0000
0000
,
0010
0000
0010
0000
,
1000
0000
0000
0000
,
0100
0000
0100
0000
,
0010
0000
0000
0000
,
0001
0000
0000
0000
,
1000
0000
0000
0000
,
0001
0000
0000
0000
,
0100
0000
0000
0000
,
0010
0000
0010
0000
,
1000
0000
0000
0000
,
0100
0000
0100
0000
,
0010
0000
0000
0000
,
0001
0000
0000
0000
,
1000
0000
0000
0000
,
0010
0000
0000
0000
,
0100
0100
0100
0000
,
0100
0000
0000
0000
,
0001
0000
1000
0000
,
0001
0000
0000
0000
,
0010
0010
0010
0000
,
0010
0000
0000
0000
,
0001
0000
0000
0000
,
0000
0000
0000
0000
,
1001
0000
0000
0000
,
1000
1000
1000
0000
,
1000
0000
0000
0000
,
0001
0001
0001
0000
,
0001
0000
0000
0000
,
0100
0100
0100
0000
,
0100
0000
0010
0000
,
1000
0000
0001
0000
,
0010
0000
0000
0001
,
0001
0000
0000
1000
,
1000
0000
0000
0010
,
0010
0000
0000
0000
,
0010
0000
0000
0000
,
0100
0000
0100
0000
,
0001
0000
0000
0000
,
0010
0000
0010
0000
,
0100
0000
0000
0000
,
1000
0000
0000
0000
,
0001
0000
0000
0000
,
1000
0000
0000
0000
,
0010
0000
0000
0000
,
0100
0000
0100
0000
,
0001
0000
0000
0000
,
0010
0000
0010
0000
,
0100
0000
0000
0000
,
1000
0000
0000
0000
,
0001
0000
0000
0000
,
0100
0000
0000
0000
,
0010
0010
0010
0000
,
0010
0000
0000
0000
,
1000
0000
0001
0000
,
1000
0000
0000
0000
,
0100
0100
0100
0000
,
0100
0000
0000
0000
,
1000
0000
0001
0000
,
0100
0100
0100
0000
,
1001
0000
0000
0000
,
0001
0001
0001
0000
,
0001
0000
0000
0000
,
1000
1000
1000
0000
,
1000
0000
0000
0000
,
0010
0010
0010
0000
,
0010
0000
0100
0000
,
0001
0000
1000
0000
,
1001
0000
0000
0000
,
1000
1000
1000
0000
,
1000
0000
0000
0000
,
0001
0001
0001
0000
,
0001
0000
0000
0000
,
0100
0100
0100
0000
,
0100
0000
0010
0000
,
1000
0000
0001
0000
,
0100
0000
0000
0010
,
0010
0000
0000
1000
,
1000
0000
0000
0001
,
0001
0000
0000
0000
;
