#VERSION:0.82;
#TITLE:Could Have Been Me;
#SUBTITLE:;
#ARTIST:The Struts;
#TITLETRANSLIT:;
#SUBTITLETRANSLIT:;
#ARTISTTRANSLIT:;
#GENRE:NXT! NXT! NXT!;
#ORIGIN:;
#CREDIT:;
#BANNER:Could Have Been Me.png;
#BACKGROUND:Could Have Been Me-bg.png;
#PREVIEWVID:;
#JACKET:jacket.png;
#CDIMAGE:;
#DISCIMAGE:;
#LYRICSPATH:;
#CDTITLE:;
#MUSIC:Could Have Been Me.ogg;
#OFFSET:-0.036000;
#SAMPLESTART:101.098167;
#SAMPLELENGTH:13.714000;
#SELECTABLE:YES;
#BPMS:0.000=160.000,
104.000=150.000,
104.500=140.000,
105.000=130.000,
105.500=120.000,
106.000=103.000,
107.000=160.020,
171.000=150.000,
171.500=140.000,
172.000=130.000,
172.500=120.000,
173.000=110.000,
173.500=90.000,
174.000=82.000,
174.500=80.000,
175.000=79.000,
176.000=160.000;
#STOPS:;
#DELAYS:;
#WARPS:;
#TIMESIGNATURES:0.000=4=4;
#TICKCOUNTS:0.000=4;
#COMBOS:0.000=1;
#SPEEDS:0.000=1.000=0.000=0;
#SCROLLS:0.000=1.000;
#FAKES:;
#LABELS:0.000=Song Start;
#BGCHANGES:6.500=Could Have Been Me.avi=1.000=0=0=1=====,
99999=-nosongbg-=1.000=0=0=0 // don't automatically add -songbackground-
;
#KEYSOUNDS:;
#ATTACKS:
;

//---------------dance-single - ----------------
#NOTEDATA:;
#CHARTNAME:;
#STEPSTYPE:dance-single;
#DESCRIPTION:;
#CHARTSTYLE:;
#DIFFICULTY:Hard;
#METER:8;
#RADARVALUES:0.594221,0.637048,0.262314,0.397218,0.000000,467.000000,35.000000,53.000000,0.000000,0.000000,0.000000,0.000000,0.000000,0.594221,0.637048,0.262314,0.397218,0.000000,467.000000,35.000000,53.000000,0.000000,0.000000,0.000000,0.000000,0.000000;
#CREDIT:Ben Speirs;
#NOTES:
// measure 0
0000
0000
0000
0000
,  // measure 1
0000
0000
0000
0000
,  // measure 2
0000
0000
0000
0000
,  // measure 3
0000
0000
0000
1001
,  // measure 4
1000
0100
0010
0001
1000
0000
0001
0100
,  // measure 5
0002
2003
3020
0230
,  // measure 6
0301
0000
1000
1000
0001
0001
1000
0100
,  // measure 7
0020
0032
2003
3010
,  // measure 8
2001
3100
1002
0103
,  // measure 9
2001
3010
1002
0013
,  // measure 10
2000
0100
3002
0010
,  // measure 11
2003
0000
0010
0000
3002
0000
0103
0001
,  // measure 12
1000
0001
0100
0001
1100
0000
0001
1000
,  // measure 13
0100
0000
0010
0000
0001
1000
0001
0000
,  // measure 14
0100
0001
1000
0001
1100
0000
1000
0001
,  // measure 15
0100
0000
0010
0000
1000
0001
1000
0000
,  // measure 16
0102
0013
2100
3010
,  // measure 17
1002
0013
2002
3003
,  // measure 18
2000
0010
3002
0100
,  // measure 19
2003
0100
3002
0013
,  // measure 20
0001
0010
0100
1000
0001
0000
1000
0000
,  // measure 21
0010
0100
0010
0000
1000
0000
0001
0000
,  // measure 22
1000
0100
0010
0001
1000
0000
0001
0000
,  // measure 23
0100
0010
0100
0000
0001
0000
1000
0000
,  // measure 24
0010
1000
0100
0010
0001
0000
1000
0000
,  // measure 25
0001
0100
0001
0000
1000
0000
0001
0000
,  // measure 26
2200
0000
0000
0000
3300
0000
0001
0100
,  // measure 27
1000
0100
0001
0010
0100
1000
0020
0000
,  // measure 28
0000
0000
1030
0001
1000
0000
0001
0010
,  // measure 29
1000
0010
0001
1000
0010
0100
0002
0000
,  // measure 30
0000
0000
1003
0100
1000
0000
0102
0000
,  // measure 31
0013
2100
3010
2002
,  // measure 32
3003
0000
1000
0100
0010
0000
0012
0000
,  // measure 33
1003
2010
3001
2002
,  // measure 34
3003
0000
1000
0100
0010
0000
0001
0010
,  // measure 35
0100
1000
0100
0010
0001
1000
0020
0000
,  // measure 36
0000
0000
1030
0001
1000
0000
0001
0100
,  // measure 37
0010
1000
0010
0100
0001
1000
0002
0000
,  // measure 38
0000
0000
1003
0100
1000
0000
0012
0000
,  // measure 39
1000
0100
0010
1000
,  // measure 40
0100
0000
1003
0001
0100
0000
2100
0000
,  // measure 41
0001
0100
0010
0001
,  // measure 42
0100
0010
3001
2002
,  // measure 43
0000
0000
0000
0000
0000
3003
0000
0110
,  // measure 44
1001
1000
0100
1000
0001
0000
0100
0010
,  // measure 45
2000
3002
0023
0031
,  // measure 46
1000
0100
0010
0001
1000
1000
0001
0001
,  // measure 47
0200
0000
0320
0000
1030
0100
1000
0000
,  // measure 48
0001
0010
0001
0010
0100
0010
0100
0010
,  // measure 49
0100
1000
0100
1000
0001
1000
0001
0000
,  // measure 50
1000
0010
1000
0010
0100
0010
0100
0010
,  // measure 51
0100
0001
0100
0001
1000
0001
1000
0000
,  // measure 52
0001
0010
0100
1000
0010
0100
0001
1000
,  // measure 53
0010
0100
0001
0010
0100
1000
0001
0000
,  // measure 54
0010
0001
1000
0010
0100
0001
1000
0100
,  // measure 55
0010
0001
1000
0010
1000
0001
0100
0000
,  // measure 56
0001
1000
0001
1000
0010
0100
0010
0100
,  // measure 57
0001
1000
0001
1000
0100
0010
0100
0000
,  // measure 58
1000
0001
1000
0001
0100
0010
0100
0010
,  // measure 59
1000
0001
1000
0001
0010
0100
0010
0000
,  // measure 60
0012
0010
0010
0013
,  // measure 61
0010
0001
1000
0000
0001
1000
0010
0000
,  // measure 62
2010
0010
0010
3010
,  // measure 63
0010
1000
0100
0000
0010
0001
0100
0000
,  // measure 64
0001
1000
0001
1000
0010
0100
0010
0100
,  // measure 65
0001
0010
0100
1000
0010
0100
0001
1000
,  // measure 66
0020
0000
0000
0000
0100
0100
0130
0000
,  // measure 67
0110
0100
0001
1000
1100
1000
0001
0010
,  // measure 68
0012
0000
1003
0000
0010
0100
0010
0000
,  // measure 69
1010
1000
0100
0010
0011
0001
1000
0001
,  // measure 70
0102
0000
1003
0000
0010
0100
0010
0000
,  // measure 71
1000
0100
1000
0100
0010
0001
0010
0001
,  // measure 72
1000
0010
0100
0001
0010
0100
1000
0000
,  // measure 73
0001
0010
0001
0010
0100
1000
0100
1000
,  // measure 74
0001
0100
0010
1000
0100
0010
0001
0000
,  // measure 75
1100
1000
0010
0100
0001
1000
0010
0100
,  // measure 76
0001
0010
0100
1000
1001
0000
0010
0000
,  // measure 77
0101
0100
0010
1000
0100
0010
0001
1000
,  // measure 78
0010
1000
0001
0010
0011
0000
1000
0000
,  // measure 79
0010
0100
0010
0100
0001
1000
0100
0010
,  // measure 80
0001
1000
0001
1000
0010
0100
0001
0010
,  // measure 81
0100
1000
0100
1000
0001
0100
0010
1000
,  // measure 82
0001
0010
1000
0010
0001
0100
1000
0100
,  // measure 83
0020
0000
0000
0000
,  // measure 84
0000
0000
0000
0000
,  // measure 85
0030
0000
0000
0000
;

//---------------dance-double - ----------------
#NOTEDATA:;
#CHARTNAME:;
#STEPSTYPE:dance-double;
#DESCRIPTION:;
#CHARTSTYLE:;
#DIFFICULTY:Challenge;
#METER:8;
#RADARVALUES:0.589938,0.605195,0.449681,0.584585,0.014989,413.000000,60.000000,78.000000,0.000000,0.000000,0.000000,0.000000,0.000000,0.589938,0.605195,0.449681,0.584585,0.014989,413.000000,60.000000,78.000000,0.000000,0.000000,0.000000,0.000000,0.000000;
#CREDIT:Ben Speirs;
#NOTES:
00000000
00000000
00000000
00000000
,
00000000
00000000
00000000
00000000
,
00000000
00000000
00000000
00000000
,
00000000
00000000
00000000
00011000
,
00010000
00001000
00010000
00010000
00002000
00000000
00013000
01000000
,
20000000
30200000
02300000
03001000
,
00010000
00000000
00001000
00001000
00010000
00010000
00001000
00000100
,
00000002
00000023
00000230
00001300
,
00000001
00000010
00000000
00000000
00000011
00000000
00000000
00000000
00001000
00000010
00000000
00000000
00001010
00000000
00000000
00000000
,
00001000
00000010
00000100
00000001
00000010
00000100
00001000
00000000
,
00001200
00010300
00021000
00031000
,
00120000
01030000
20020000
30030000
,
10000000
00100000
01000000
00100000
10010000
00000000
10000000
01000000
,
20000000
30020000
00230000
00301000
,
00100000
00001000
00010000
00001000
00110000
00000000
00001000
00010000
,
00000200
00002300
00003020
00000130
,
00000002
00001003
00002000
00003100
,
00000200
00010300
00022000
00033000
,
00001000
00010000
00100000
10000000
01000000
00100000
00010000
00000000
,
22000000
33000000
01010000
10000000
,
00110000
00000000
00001000
00010000
00001000
00000000
00100000
00000000
,
00010000
00100000
01000000
10000000
00100000
01000000
00010000
10000000
,
00100000
00000000
10000000
00000000
00010000
00000000
01000000
00100000
,
00010000
00001000
00000010
00000001
,
00000100
00000100
00000010
00000000
00001000
00000000
00000100
00000010
,
00000001
00001000
00000100
00000010
00000100
00001000
00000100
00010000
,
00000200
00000000
00000300
00011000
,
00010000
10010000
10000000
02200000
,
03300000
00000000
10000000
00010000
10000000
00000000
00010000
01000000
,
00010000
01000000
00001000
00010000
00001000
00010000
00000200
00000000
,
00000300
00000000
00001000
00000100
00000010
00000000
00000012
00000000
,
00001003
00002010
00003001
00000220
,
00000330
00000000
00000001
00000010
00000100
00001000
00000020
00000000
,
00000130
00000200
00000301
00000002
,
00001003
00000000
00001000
00000100
00010000
00000000
00012000
00000000
,
00103000
00021000
00030010
00022000
,
00033000
00000000
00001000
00010000
01000000
10000000
00100000
01000000
,
00100000
01000000
00010000
10000000
00010000
10000000
02000000
00000000
,
03100000
00000000
00010000
00100000
00001000
00000000
00202000
00000000
,
00303000
00000000
00011000
00000000
00000000
00000000
00010000
00001000
,
00010000
00000000
00001000
00010000
00000010
00000000
00020020
00000000
,
00030030
00000000
00011000
00000000
00000000
00000000
00001000
00010000
,
00001000
00000000
00010000
00001000
01000000
00000000
02020000
00000000
,
00000000
00000000
00000000
00000000
00000000
03030000
00000000
10010000
,
10000000
01000000
00100000
00010000
10000000
00000000
00100000
01000000
,
00020000
00000000
20030000
00000000
31000000
01000000
00100000
00000000
,
00110000
00000000
00110000
00000000
10000000
00010000
10000000
00000000
,
01000000
00100000
00010000
00100000
00001000
00010000
00001000
00000100
,
00000002
00000013
00000020
00000130
,
00001001
00000100
00001001
00000100
,
00000010
00001000
00000000
00000000
00001010
00000000
00000000
00000000
00000001
00000010
00000000
00000000
00000011
00000000
00000000
00000000
,
00000001
00000100
00001000
00000100
00000001
00001000
00000100
00000000
,
00010100
00001000
00001000
00010000
00010000
00000000
00001000
00010000
,
00020000
00230000
20300000
31000000
,
10000000
00010000
00010000
01000000
01000000
00000000
00001000
00010000
,
00020000
00030200
00000302
00000203
,
00010300
00001000
00010000
00000100
00010000
00000100
00010000
00001000
,
00010000
00001000
00100000
00010000
00100000
00010000
10000000
00000000
,
00100000
01000000
00010000
10000000
01000000
00100000
00010000
10000000
,
01000000
10000000
00100000
01000000
00010000
10000000
01000000
00000000
,
10010000
00000000
10010000
00000000
10010000
00000000
10000000
00010000
,
00110000
00000000
00110000
00000000
00110000
00000000
00100000
00001000
,
00011000
00000000
00011000
00000000
00011000
00000000
00000100
00001000
,
00001100
00000000
00001100
00000000
00001100
00000000
00000001
00000100
,
00000010
00000010
00001000
00000100
00000010
00000010
00000001
00001000
,
00000010
00000100
00000100
00000001
00000001
00001000
00001000
00000100
,
00000100
00000000
00000000
00000000
00000100
00010000
00001000
00000000
,
00011000
00001000
00001001
00000001
,
00000220
00000000
00000330
00000000
00000001
00001000
00000001
00000000
,
00001000
00000010
00001000
00000010
00010000
00001000
00010000
00001000
,
00200000
00000000
00300000
00000000
00010000
00100000
01000000
00000000
,
21000000
30010000
01020000
10030000
,
02200000
00000000
03300000
00000000
10000000
01000000
00100000
00010000
,
02000000
03100000
00200000
10300000
,
20000000
00000000
30010000
00000000
00010000
00100000
00001000
00000000
,
00021000
00030100
00012000
01003000
,
00022000
00000000
00033000
00000000
00010000
00001000
00000010
00000001
,
00000100
00000010
00000100
00000010
00001000
00000001
00001000
00000001
,
00000020
00000000
00000130
00000000
00001000
00000100
00010000
00000000
,
00020200
00030300
00011000
00000000
,
00001000
00010000
00001000
00000000
00010000
00001000
01000000
00000000
,
02002000
03003000
00011000
00000000
,
00010000
00001000
00010000
00000000
00001000
00010000
00000010
00001000
,
00000002
00000000
00000000
00000000
,
00000000
00000000
00000000
00000000
,
00000003
00000000
00000000
00000000
;

//---------------dance-single - ----------------
#NOTEDATA:;
#CHARTNAME:;
#STEPSTYPE:dance-single;
#DESCRIPTION:;
#CHARTSTYLE:;
#DIFFICULTY:Medium;
#METER:6;
#RADARVALUES:0.481801,0.605195,0.307282,0.786941,0.000000,304.000000,41.000000,105.000000,0.000000,0.000000,0.000000,0.000000,0.000000,0.481801,0.605195,0.307282,0.786941,0.000000,304.000000,41.000000,105.000000,0.000000,0.000000,0.000000,0.000000,0.000000;
#CREDIT:Ben Speirs;
#NOTES:
0000
0000
0000
0000
,
0000
0000
0000
0000
,
0000
0000
0000
0000
,
0000
0000
0000
1001
,
1000
0000
0010
0000
0100
0000
0001
0010
,
0100
1000
0010
0100
,
0001
0000
1000
0000
0100
0000
0010
0001
,
1000
0010
0100
0001
,
2000
3000
0002
0003
,
0200
0300
0020
0030
,
2020
3030
0202
0303
,
0022
0033
2200
3300
,
1000
0100
0010
0100
1000
0000
0000
0000
,
0100
1000
0010
0010
,
0100
0001
0100
0010
1000
0000
0000
0000
,
0001
0010
0100
1000
,
0020
0030
0200
0300
,
0002
0003
2000
3000
,
2200
3300
0022
0033
,
2020
3030
0202
0303
,
1001
1000
0100
0010
,
0002
1003
0010
0100
,
0002
0013
0100
1000
,
0010
0010
0100
0100
,
0001
1000
0001
0000
1000
0000
0100
0000
,
0010
0000
0001
0000
1000
0010
0100
0001
,
1000
0000
0000
1010
,
0001
0101
1000
1100
,
0000
0000
0001
1000
0100
0000
1100
0000
,
0001
0011
1000
1010
,
0000
0000
0010
0100
0001
0000
0102
0000
,
1003
2100
3001
1001
,
0000
0000
1000
0001
0010
0000
0012
0000
,
1003
2010
3001
1001
,
0000
0000
1000
0010
0100
0000
0002
0000
,
0013
0200
1300
0020
,
0130
0000
0001
1000
0100
0010
0002
0000
,
1003
0020
0130
0002
,
1003
0000
0100
1000
0010
0000
2020
0000
,
0000
0030
3001
0000
0000
0000
1000
0100
,
1000
0000
0001
1000
0001
0000
0202
0000
,
0000
0300
1003
0000
0000
0000
0001
1000
,
0010
0000
0100
0001
1000
0000
2002
0000
,
0000
0000
0000
0000
0000
3003
0000
0110
,
1001
0000
1000
0000
0001
0000
0010
0100
,
2000
3020
0230
0301
,
1000
0000
0100
0000
0010
0001
1000
0000
,
0020
0230
0302
2003
,
3200
0300
0020
0030
,
0002
2003
3002
0003
,
0200
0300
0020
0030
,
2000
3002
2003
3000
,
0010
1000
0100
1000
0010
0000
0100
0000
,
0001
0001
1000
1000
,
0001
1000
0100
1000
0001
0000
0010
0000
,
0001
0001
0100
0100
,
0020
0030
2000
3000
,
0002
0203
0302
0003
,
2000
3000
0002
0003
,
2000
3200
2300
3000
,
0010
0000
0100
0000
0001
0010
0100
0000
,
1000
0000
0001
0000
0100
0010
1000
0000
,
0100
0000
0010
0000
0001
1000
0010
0000
,
0100
0100
0001
0001
,
1000
0100
1000
0000
0010
0000
0100
0000
,
0001
1000
0001
1000
0001
1000
0001
1000
,
0020
0000
0000
0030
,
2002
3003
0220
0330
,
2002
0000
3003
0000
1000
0100
0010
0000
,
0022
0033
2200
3300
,
0022
0000
0033
0000
0001
1000
0010
0000
,
2020
3030
0202
0303
,
2020
0000
3030
0000
1000
0001
0100
0000
,
0202
0303
2200
3300
,
0202
0000
0303
0000
0100
0001
1000
0000
,
0020
1030
0200
0310
,
0002
0000
1003
0000
0010
0100
0001
0010
,
0200
1300
0020
0130
,
0002
0000
1003
0000
0100
0010
0001
0000
,
0022
0030
1003
0001
,
0100
0010
1000
0000
0100
0010
0001
0000
,
2200
0300
3001
1000
,
0010
1000
0001
0000
0100
0001
1000
0100
,
0020
0000
0000
0000
,
0000
0000
0000
0000
,
0030
0000
0000
0000
;

//---------------dance-single - ----------------
#NOTEDATA:;
#CHARTNAME:;
#STEPSTYPE:dance-single;
#DESCRIPTION:;
#CHARTSTYLE:;
#DIFFICULTY:Easy;
#METER:3;
#RADARVALUES:0.267667,0.318524,0.217346,0.419702,0.000000,165.000000,29.000000,56.000000,0.000000,0.000000,0.000000,0.000000,0.000000,0.267667,0.318524,0.217346,0.419702,0.000000,165.000000,29.000000,56.000000,0.000000,0.000000,0.000000,0.000000,0.000000;
#CREDIT:Ben Speirs;
#NOTES:
0000
0000
0000
0000
,
0000
0000
0000
0000
,
0000
0000
0000
0000
,
0000
0000
0000
1001
,
0000
0000
0100
0000
,
0010
1000
0100
0000
,
0010
0000
0001
0000
,
1000
0001
0100
0000
,
0020
0030
0020
0030
,
0200
0300
0200
0300
,
0002
0003
0002
0003
,
2000
3000
2000
3000
,
0100
0000
0010
0000
,
0001
1000
0010
0000
,
0100
0000
0001
0000
,
1000
0100
0010
0000
,
0002
0003
0002
0003
,
2000
3000
2000
3000
,
0020
0030
0020
0030
,
0200
0300
0200
0300
,
1001
0000
0000
0000
,
1000
0100
0010
0001
,
1000
0000
0000
0000
,
0001
0100
0010
1000
,
0001
0000
0000
0000
,
1000
0000
0001
0000
,
0110
0000
0000
1001
,
0000
1001
0000
1001
,
0000
0100
0000
0110
,
0000
0110
0000
0110
,
0000
0010
0000
0002
,
0003
2000
3000
0020
,
0030
0100
0000
0002
,
0003
2000
3000
0200
,
0300
0010
0000
0110
,
0000
1001
0000
0110
,
0000
1000
0000
0110
,
0000
1001
0000
0110
,
0000
0001
0000
2000
,
0000
3000
0000
1000
,
0000
0010
0000
0200
,
0000
0300
0000
0100
,
0000
0001
0000
2002
,
0000
0000
0000
0000
0000
3003
0000
0000
,
0010
0000
0000
0000
,
1000
1000
0001
0001
,
0100
0000
0000
0000
,
0001
0001
1000
1000
,
0020
0030
0020
0030
,
0200
0300
0200
0300
,
0002
0003
2000
3000
,
0200
0300
0020
0030
,
0001
0000
1000
0000
,
0010
0100
0010
0100
,
0001
0000
1000
0000
,
0100
0010
0100
0010
,
0002
0003
0002
0003
,
2000
3000
2000
3000
,
0020
0030
0200
0300
,
0002
0003
2000
3000
,
0200
0000
0000
0300
,
0100
1000
0010
0100
,
0002
0000
0000
0003
,
0001
0100
0010
1000
,
0200
0000
0000
0300
,
1000
0000
0001
0000
,
2002
0000
0000
3003
,
0110
0000
1001
0000
,
0110
0000
1000
0000
,
0110
0000
1001
0000
,
0110
0000
0001
0000
,
2000
3000
0002
0003
,
0200
0300
0010
0000
,
2000
3000
0200
0300
,
0020
0030
0001
0000
,
0110
0000
0110
0000
,
1001
0000
0100
0000
,
1001
0000
1001
0000
,
0110
0000
1000
0000
,
0002
0000
0003
0000
,
0100
0000
0010
0000
,
2000
0000
3000
0000
,
0100
0000
1000
0001
,
0200
0000
0000
0000
,
0000
0000
0000
0000
,
0300
0000
0000
0000
;

//---------------dance-single - ----------------
#NOTEDATA:;
#CHARTNAME:;
#STEPSTYPE:dance-single;
#DESCRIPTION:;
#CHARTSTYLE:;
#DIFFICULTY:Beginner;
#METER:1;
#RADARVALUES:0.139187,0.186618,0.052463,0.000000,0.000000,123.000000,7.000000,0.000000,0.000000,0.000000,0.000000,0.000000,0.000000,0.139187,0.186618,0.052463,0.000000,0.000000,123.000000,7.000000,0.000000,0.000000,0.000000,0.000000,0.000000,0.000000;
#CREDIT:Ben Speirs;
#NOTES:
0000
0000
0000
0000
,
0000
0000
0000
0000
,
0000
0000
0000
0000
,
0000
0000
0000
1001
,
0000
0000
0000
0000
,
0100
0000
0000
0000
,
0010
0000
0000
0000
,
1000
0000
0000
0000
,
0100
0000
0100
0000
,
0010
0000
0010
0000
,
0001
0000
0001
0000
,
1000
0000
1000
0000
,
0010
0000
0000
0000
,
0100
0000
0000
0000
,
0001
0000
0000
0000
,
1000
0000
0000
0000
,
0100
0000
0100
0000
,
0010
0000
0010
0000
,
0001
0000
0001
0000
,
1000
0000
1000
0000
,
0010
0000
0000
0000
,
1000
0000
0001
0000
,
0100
0000
0000
0000
,
0001
0000
1000
0000
,
0100
0000
0000
0000
,
1000
0000
0001
0000
,
0100
0000
0000
0010
,
0000
0010
0000
0010
,
0000
0000
0000
1000
,
0000
1000
0000
1000
,
0000
0000
0000
0100
,
0000
0100
0000
0100
,
0000
0000
0000
0010
,
0000
0010
0000
0010
,
0000
0000
0000
1001
,
0000
0001
0000
0001
,
0000
0000
0000
1001
,
0000
1000
0000
1000
,
0000
0000
0000
0010
,
0000
0000
0000
0100
,
0000
0001
0000
1000
,
0000
0000
0000
0100
,
0000
0010
0000
1001
,
0000
0000
0000
0000
,
0001
0000
0000
0000
,
0100
0000
0100
0000
,
0010
0000
0000
0000
,
1000
0000
1000
0000
,
0100
0000
0100
0000
,
0010
0000
0010
0000
,
0001
0000
0001
0000
,
1000
0000
1000
0000
,
0010
0000
0000
0000
,
1000
0000
0001
0000
,
0100
0000
0000
0000
,
0001
0000
1000
0000
,
0010
0000
0010
0000
,
0010
0000
0010
0000
,
0100
0000
0100
0000
,
0100
0000
0100
0000
,
0001
0000
0000
0000
,
1000
0000
1000
0000
,
0010
0000
0000
0000
,
0100
0100
0100
0000
,
0100
0000
0000
0000
,
0001
0000
1000
0000
,
0001
0000
0000
0000
,
0010
0000
0010
0000
,
0010
0000
0000
0000
,
0001
0000
0001
0000
,
0001
0000
0000
0000
,
1000
0000
1000
0000
,
1000
0000
0000
0000
,
0100
0000
0100
0000
,
0100
0000
0000
0000
,
1000
0000
0001
0000
,
0100
0000
0000
0000
,
0010
0000
1000
0000
,
0001
0000
0000
0000
,
1001
0000
0100
0000
,
0100
0000
0000
0000
,
1001
0000
0010
0000
,
0010
0000
0000
0000
,
0110
0000
0000
0000
;
