#VERSION:0.82;
#TITLE:Mei;
#SUBTITLE:(Rockin' SWING Remix);
#ARTIST:164;
#TITLETRANSLIT:;
#SUBTITLETRANSLIT:;
#ARTISTTRANSLIT:;
#GENRE:Rockin' SWING;
#ORIGIN:;
#CREDIT:;
#BANNER:Mei (Rockin' SWING Remix).png;
#BACKGROUND:Mei (Rockin' SWING Remix)-bg.png;
#PREVIEWVID:;
#JACKET:jacket.png;
#CDIMAGE:;
#DISCIMAGE:;
#LYRICSPATH:;
#CDTITLE:;
#MUSIC:Mei (Rockin' SWING Remix).ogg;
#OFFSET:-0.356000;
#SAMPLESTART:33.962009;
#SAMPLELENGTH:12.120004;
#SELECTABLE:YES;
#BPMS:0.000=200.000,
176.000=100.000,
188.000=200.000,
289.000=192.000,
293.000=185.000,
297.000=183.000,
301.000=190.000,
305.000=144.001,
309.000=120.001,
311.000=118.001,
313.000=110.001,
314.000=100.001,
314.500=90.001,
315.000=80.001,
315.500=55.001;
#STOPS:189.000=0.075,
189.250=0.150,
189.750=0.075,
190.000=0.150,
190.500=0.075,
190.750=0.150,
191.250=0.075,
191.500=0.150;
#DELAYS:;
#WARPS:;
#TIMESIGNATURES:0.000=4=4;
#TICKCOUNTS:0.000=4;
#COMBOS:0.000=1;
#SPEEDS:0.000=1.000=0.000=0;
#SCROLLS:0.000=1.000;
#FAKES:;
#LABELS:0.000=Song Start;
#BGCHANGES:8.000=Mei.avi=1.000=0=0=1=====,
99999=-nosongbg-=1.000=0=0=0 // don't automatically add -songbackground-
;
#KEYSOUNDS:;
#ATTACKS:
;

//---------------dance-single - ----------------
#NOTEDATA:;
#CHARTNAME:;
#STEPSTYPE:dance-single;
#DESCRIPTION:;
#CHARTSTYLE:;
#DIFFICULTY:Medium;
#METER:8;
#RADARVALUES:0.619543,0.712036,0.160273,0.235696,0.018856,418.000000,17.000000,25.000000,0.000000,0.000000,0.000000,0.000000,0.000000,0.619543,0.712036,0.160273,0.235696,0.018856,418.000000,17.000000,25.000000,0.000000,0.000000,0.000000,0.000000,0.000000;
#CREDIT:Ben Speirs;
#NOTES:
0000
0000
0000
0000
,
0000
0000
0000
0000
,
0000
0000
0000
0000
,
0000
0000
0000
0000
,
0001
0010
0000
0001
0100
0000
0010
0000
,
0100
0001
0011
0000
,
1000
0100
0000
1000
0010
0000
0100
0000
,
0010
1000
1001
0000
,
0010
0100
0000
0010
0001
0000
0100
0000
,
0010
1000
1100
0000
,
0100
0010
0000
0100
1000
0000
0010
0000
,
0100
0000
0001
0000
1000
0100
0001
0000
,
1000
0100
1000
0010
1000
0001
0000
0100
,
0000
0000
0010
0100
0001
0000
0101
0000
,
0001
0010
0001
0100
0001
1000
0000
0010
,
0000
0000
0100
0010
1000
0000
1010
0000
,
0101
0000
1000
0100
0010
0001
0000
1000
,
0001
0000
0100
0000
0010
0100
0001
0000
,
1010
0000
0001
0010
0100
1000
0000
0001
,
1000
0000
0010
0000
0100
0010
1000
0000
,
0001
0100
0010
0100
1000
0100
0000
0010
,
0100
0000
0001
0000
1000
0100
0010
0000
,
0001
0010
0100
1000
0010
1000
0100
0010
,
0002
2003
3010
1001
,
1000
0010
0100
0010
0001
0010
0000
0100
,
0010
0000
1000
0000
0001
0010
0100
0000
,
1000
0100
0010
0001
0100
0001
0010
0100
,
2000
0000
0000
3001
,
0100
0010
0000
1000
0100
0000
0010
0001
,
0000
1000
0010
0000
0100
0000
0001
0000
,
1000
0100
0010
0001
1000
0010
1000
0001
,
0100
0010
1000
0100
0010
0000
1001
0000
,
0001
1000
0010
1000
0001
0100
0001
1000
,
0010
1000
0001
0100
0001
1000
0001
0000
,
1000
0100
0010
0001
0010
0100
1000
0010
,
0100
0001
0010
0100
1000
0001
0100
0000
,
0201
0310
1200
0310
,
1001
0000
0000
0010
0000
1000
0100
0010
,
0001
0000
1000
0000
0010
1000
0001
0000
,
0100
0010
0100
1000
0100
0010
1000
0001
,
0010
0000
1001
0000
1000
0100
1000
0001
,
0100
0001
1000
0100
1000
0001
0100
0000
,
0001
0010
0100
1000
0010
0100
0001
0010
,
0100
0010
0001
0100
0010
1000
0100
0010
,
0002
1000
0000
1000
0000
1000
0000
1003
,
0200
0010
0000
0010
0000
0010
0000
0310
,
2000
0001
0000
0001
0000
0001
0000
3001
,
0020
0000
0000
0000
0100
0100
0000
0001
0001
0000
1000
1000
0000
0100
0130
0000
,
1001
0000
0120
0000
0000
1030
0100
1000
,
0010
0100
0001
0010
0100
1000
0010
0100
,
0001
1000
0020
0000
0000
1030
0100
1000
,
0001
0010
0100
0010
0001
1000
0010
0100
,
0001
1000
0020
0000
0000
0000
1030
0100
,
1000
0001
0100
0010
1000
0100
0010
0001
,
1000
0000
0001
0100
1000
0001
0010
1000
,
0100
0010
1000
0001
0100
0010
0001
1000
,
0010
0000
0200
0000
0000
0301
0100
0010
,
0100
0002
0000
0000
0003
1000
0100
0010
,
0100
2000
0000
0000
3000
0001
1000
0010
,
1000
0002
0000
0000
0003
1000
0001
0010
,
0001
1000
0020
0000
0230
0000
0301
0000
,
1000
0100
0000
0010
0001
0000
1000
0001
,
0100
0000
0010
0100
0001
0010
1000
0001
,
0100
1000
0001
0100
0010
1000
0001
0000
,
0101
0000
1000
0100
0000
0001
0100
0000
,
1000
0100
0000
0001
1000
0010
0100
0001
,
1000
0000
0001
0010
0100
0010
0001
1000
,
0010
0000
0100
0001
1000
0000
0010
0000
,
1000
0100
0010
0000
0001
0000
0010
0100
,
0010
0001
0000
0001
0100
0000
0010
0100
,
0001
1000
0010
0000
1001
0000
1000
0010
,
1000
0100
0010
0001
1000
0010
0100
0001
,
1000
0020
0000
0000
,
0000
2030
0000
0000
,
0000
3002
0000
0000
,
0000
0023
0000
0000
,
0000
0230
0000
0000
,
0000
2300
0000
3001
,
1000
0000
0010
0000
1000
0100
0010
0001
,
0200
0000
0300
0000
;

//---------------dance-single - ----------------
#NOTEDATA:;
#CHARTNAME:;
#STEPSTYPE:dance-single;
#DESCRIPTION:;
#CHARTSTYLE:;
#DIFFICULTY:Hard;
#METER:10;
#RADARVALUES:0.762307,1.000000,0.226268,0.122562,0.372399,529.000000,24.000000,13.000000,0.000000,0.000000,0.000000,0.000000,0.000000,0.762307,1.000000,0.226268,0.122562,0.372399,529.000000,24.000000,13.000000,0.000000,0.000000,0.000000,0.000000,0.000000;
#CREDIT:Ben Speirs;
#NOTES:
0000
0000
0000
0000
,
0000
0000
0000
0000
,
0000
0000
0000
0000
,
0000
0000
0000
0000
,
1000
0100
0000
0100
0010
0000
0001
0000
,
1000
0010
0100
0000
1001
0000
0000
0000
,
0001
0010
0000
0010
0100
0000
1000
0000
,
0001
0100
0010
0000
1001
0000
0000
0000
,
0010
1000
0000
1000
0001
0000
0100
0000
,
0010
0100
0001
0000
1001
0000
0000
0000
,
0010
0001
0000
0001
1000
0000
0001
0000
,
1000
0100
0010
0000
0001
1000
0010
0000
,
0100
0001
0100
0010
1000
0100
0010
0001
,
1000
0000
1001
0000
0010
1000
0100
0000
,
1000
0010
0100
0001
1000
0010
0100
0001
,
1000
0000
1100
0000
0010
0001
1000
0000
,
0010
1000
0100
0010
0001
1000
0010
0100
,
0001
0000
1000
0001
1000
0000
0101
0000
,
0010
0100
0001
0010
0100
1000
0001
1000
,
0010
0000
0100
0001
1000
0000
1100
0000
,
0001
0100
0010
1000
0100
0010
0001
1000
,
0010
0100
0001
0010
0100
1000
0001
0000
,
1000
0100
1000
0010
0100
0001
0010
0100
,
0010
0001
0100
0010
1000
0001
0100
0000
,
0010
0100
0001
0010
0100
0010
0001
1000
,
0010
0100
0001
0010
0100
1000
0001
0000
,
1000
0100
0010
0001
1000
0010
0100
0001
,
2000
0000
0000
0000
,
3001
0000
0000
0100
0000
0000
0010
0000
0000
1000
0000
0000
0100
0000
0000
0010
,
0000
0000
0001
0000
0000
1000
0000
0000
0010
0000
0100
0000
0001
0000
0010
0000
,
0100
0000
0010
0001
0010
0000
0100
0000
1000
0000
0010
0000
0100
0000
0001
0000
,
1000
0100
1000
0000
0001
0100
0001
0000
1000
0000
0010
0000
0100
0000
0000
0000
,
0001
0000
1000
0100
1000
0000
0001
0000
0001
0000
1000
0100
1000
0000
0001
0000
,
0001
0000
1000
0100
1000
0000
0001
0000
0001
1000
0000
0000
0010
0000
0000
0000
,
1000
0000
0100
0010
0100
0000
0010
0000
0001
0000
1000
0000
0010
0000
0100
0000
,
0001
0010
0100
1000
0001
0100
0010
0000
,
1010
0001
0011
1000
,
1010
0000
0001
1001
0000
0100
0010
0100
,
0001
0000
1000
0100
0010
0001
1000
0010
,
1000
0100
1000
0000
0001
0100
0001
0000
1000
0000
0100
0000
0010
0000
0001
0000
,
1000
0000
0000
0000
0001
0000
0000
0000
0100
0010
0100
0000
0001
1000
0001
0000
,
0010
0100
0010
0000
0001
1000
0001
0000
0100
0010
0100
0000
0001
1000
0001
0000
,
0010
0100
0010
0001
1000
0010
0100
0001
,
0100
0010
1000
0100
0010
0001
0010
0100
1000
0010
0100
0001
,
2000
0000
0100
0000
0000
0010
0000
0000
0001
0000
0000
0010
0000
0000
0100
0000
,
0000
0000
0100
0000
0000
0010
0000
0000
0001
0000
0000
0010
0000
0000
0100
0000
,
3002
0000
0100
0000
0000
0010
0000
0000
1000
0000
0000
0100
0000
0000
1000
0000
,
0023
0000
0000
0000
0100
0100
0000
1000
1000
0000
0001
0001
0000
0100
0130
0000
,
0110
0000
0000
0000
1001
0000
1000
0000
0010
0000
0100
0001
0100
0000
0010
0000
,
1000
0000
0100
0000
0010
0000
0001
0000
1000
0000
0010
0000
0100
0010
0100
0001
,
0010
0100
1000
0001
0100
0000
0000
0000
0010
0000
1000
0100
1000
0000
0001
0000
,
0100
0000
0010
0000
1000
0000
0100
0000
0010
0000
0001
0000
1000
0010
1000
0010
,
0100
0001
0100
0001
1000
0000
0000
0000
0100
0000
0010
0001
0010
0000
0100
0000
,
1000
0010
0100
0001
1000
0010
0100
0001
,
1000
0000
0010
0000
0100
0000
0001
1000
0001
0000
0100
0000
0010
0000
1000
0000
,
0100
0000
0010
0000
0001
0000
1000
0100
1000
0000
0010
0000
0100
0000
0001
0000
,
1000
0000
0010
0000
0110
0000
0000
0000
1001
0000
0001
0100
0001
0000
1000
0100
,
1000
0000
0010
0000
0110
0000
0000
0000
1001
0000
1000
0010
1000
0000
0001
0010
,
0001
0000
0100
0000
0101
0000
0000
0000
1010
0000
1000
0100
1000
0000
0001
0010
,
0001
0000
1000
0000
1100
0000
0000
0000
0011
0000
0001
0010
0001
0000
1000
0100
,
1000
0010
0100
0000
0001
0000
1000
0100
,
0010
0001
0000
1000
0010
0000
0100
0001
,
1000
0000
0000
0000
0001
0010
0100
1000
0001
0010
0100
1000
0010
0100
0001
1000
,
0010
0100
0001
1000
0100
0010
0001
1000
0010
0100
0001
1000
0100
0000
0000
0000
,
1001
0000
0000
0000
1000
0100
1000
0100
0010
0000
0001
0100
0001
0100
0010
0000
,
1000
0100
1000
0100
0010
0000
0001
0000
1000
0000
0010
0000
0100
0000
0100
0000
,
0010
1000
0100
0010
0001
1000
0010
0100
,
0001
1000
0100
0010
0001
0000
1000
0000
,
0010
1000
0001
0000
1001
0000
1000
0010
,
0100
0000
0001
0000
0000
0000
1000
0000
0100
0000
0000
0000
0010
0000
0001
1000
,
0000
0010
1000
0100
0010
0001
1000
0010
,
0100
0000
0001
0000
1000
0000
0010
0100
0010
0000
1000
0000
0100
0000
0010
0000
,
0001
1000
0020
0000
0000
0000
0000
0000
,
0000
0230
0000
0000
,
0000
0302
0000
0000
,
0000
2003
0000
0000
,
0000
3200
0000
0000
,
0000
0320
0000
0032
,
2003
0000
3020
0000
1030
0100
0010
0001
,
1001
0000
0000
0000
;

//---------------dance-single - ----------------
#NOTEDATA:;
#CHARTNAME:;
#STEPSTYPE:dance-single;
#DESCRIPTION:;
#CHARTSTYLE:;
#DIFFICULTY:Challenge;
#METER:12;
#RADARVALUES:1.000000,1.000000,0.320546,0.122562,0.966352,704.000000,34.000000,13.000000,0.000000,0.000000,0.000000,0.000000,0.000000,1.000000,1.000000,0.320546,0.122562,0.966352,704.000000,34.000000,13.000000,0.000000,0.000000,0.000000,0.000000,0.000000;
#CREDIT:Ben Speirs;
#NOTES:
0000
0000
0000
0000
,
0000
0000
0000
0000
,
0000
0000
0000
0000
,
0000
0000
0000
0000
,
0010
1000
0001
1000
0100
1000
0010
1000
,
0001
1010
0101
0000
,
0010
0001
0100
0001
1000
0001
0100
0001
,
0010
0011
1100
0000
,
0001
0100
0010
0100
1000
0100
0010
0100
,
0001
0101
1100
0000
,
1000
0100
0010
0100
0001
0100
0010
0001
,
1000
0000
0010
0100
0010
0000
1000
0100
0010
0001
1000
0010
0100
0000
0000
0000
,
0001
0000
1000
0100
1000
0000
0010
0100
0010
0000
1000
0000
0100
0000
1100
0000
,
1000
0000
0010
0000
0100
0000
0001
1000
0001
0000
0010
0000
0100
0000
0000
0000
,
1000
0000
0001
0100
0001
0000
1000
0010
1000
0000
0100
0000
0010
0000
0011
0000
,
0100
0000
1000
0000
0010
0000
0100
0001
0100
0000
0001
0000
1000
0000
0010
0000
,
1000
0000
0001
0010
0001
0000
0100
0010
0100
0000
0001
0000
0010
0000
0011
0000
,
0001
0000
0100
0000
0010
0000
1000
0001
1000
0000
0100
0000
0010
0000
0000
0000
,
0001
0000
1000
0010
1000
0000
0001
0100
0001
0000
0010
0000
0100
0000
1100
0000
,
0010
0000
0001
0000
0100
0000
0010
1000
0010
0000
1000
0000
0001
0000
0001
0000
,
1000
0100
1000
0100
0010
0000
0001
1000
0001
0000
0100
0000
0100
0000
0110
0000
,
0010
0000
1000
0000
0001
0000
1000
0100
0010
0001
1000
0000
1001
0000
0000
0000
,
0001
0010
0001
0010
0100
0000
1000
0001
1000
0000
0010
0000
0010
0000
0110
0000
,
0100
0000
0001
0000
1000
0000
0001
0010
0100
1000
0001
0000
1001
0000
0000
0000
,
0100
0010
0100
0010
1000
0000
0001
0100
0001
0000
1000
0000
1000
0000
1100
0000
,
0100
0000
0010
0000
0001
0000
1000
0010
0100
0001
1000
0000
1001
0000
0000
0000
,
0100
0010
0100
0001
0010
0100
1000
0010
0100
0001
1000
0010
1000
0001
0010
0100
,
2000
0000
0000
0000
0000
0000
0000
0000
3001
0010
0100
1000
0001
0010
0100
1000
,
0010
0100
0010
1000
0100
1000
0001
0100
0001
1000
0100
1000
0010
0100
0010
1000
,
0100
1000
0001
0100
0001
1000
0010
1000
0001
0010
0001
1000
0010
0100
0001
1000
,
0010
0000
0100
0000
0001
0000
1000
0100
1000
0000
0010
0000
0100
0000
0001
0000
,
1000
0100
0010
0001
1000
0000
0010
0100
0010
1000
0001
0010
0100
0000
1000
0000
,
0001
0100
0001
1000
0100
1000
0001
0100
0001
1000
0100
1000
0001
0100
0001
1000
,
0010
0100
0010
1000
0001
1000
0010
0100
0010
1000
0001
1000
0010
0100
0010
1000
,
0001
0000
1000
0100
0010
0001
0100
0010
1000
0000
0001
0000
1000
0000
0100
0000
,
0010
0001
1000
0000
0010
0000
0010
0000
0100
0001
1000
0000
0100
0000
0010
0000
,
0110
0000
0001
0010
0011
0000
0100
1000
,
1100
0000
0001
1001
0000
1000
0100
0010
,
0001
0000
1000
0010
0100
0001
1000
0010
,
1000
0100
1000
0100
0010
0001
0010
0001
1000
0010
1000
0010
0100
0001
0010
0100
,
1000
0000
0000
0000
0001
0000
0000
0000
1000
0010
0100
0001
1000
0010
0100
0001
,
1000
0010
0100
0001
1000
0010
0100
0001
1000
0010
0100
0001
1000
0010
0100
0001
,
1000
0100
1000
0010
0100
0010
1000
0001
1000
0001
0010
0001
0100
0010
1000
0001
,
0010
0100
1000
0010
0100
0001
0010
0100
1000
0001
1000
0010
,
0200
0000
0001
0001
0000
0010
0010
0000
1000
1000
0000
0010
0010
0000
0001
0001
,
0000
0000
0001
0001
0000
0010
0010
0000
1000
1000
0000
0010
0010
0000
0001
0001
,
0302
0000
0010
0010
0000
1000
1000
0000
0100
0100
0000
0010
0010
0000
1000
1000
,
2003
0000
0000
0000
0100
0100
0000
0010
0010
0000
0001
0001
0000
0010
3010
0000
,
1001
0000
0000
0000
0110
0000
0100
0000
0001
0000
1000
0100
0010
0000
0001
0000
,
1000
0010
0100
0001
1000
0000
0100
0000
0010
0000
0001
0000
1000
0100
1000
0100
,
0010
0001
0010
0001
0100
0000
0000
0000
0010
0000
0100
0001
1000
0000
0010
0000
,
1000
0001
0010
0100
1000
0010
0100
0001
,
1000
0001
1001
0000
0100
0010
0010
1000
,
0100
0010
0001
1000
0010
0100
0001
1000
,
0010
0000
0000
0000
1000
0000
0001
0100
0010
1000
0100
0010
0001
1000
0100
1000
,
0010
0100
0001
0010
0100
1000
0001
1000
0010
0100
0010
1000
0100
0010
0001
1000
,
0100
1000
0010
0100
0001
0000
0000
0000
0101
0000
0100
0001
1000
0000
0100
1000
,
0001
0000
1000
0000
1001
0000
0000
0000
1100
0000
0100
1000
0001
0000
0100
0001
,
1000
0000
0001
0000
1001
0000
0000
0000
0011
0000
0010
0001
1000
0000
0010
1000
,
0001
0000
1000
0000
1001
0000
0000
0000
1010
0000
0010
1000
0001
0000
0010
0001
,
1000
0001
1001
0000
0101
0000
1000
0100
,
1000
0010
0100
0001
0010
0100
1000
0001
,
0100
0000
0000
0000
0010
0100
0010
1000
0100
0010
0001
1000
0001
0010
0100
1000
,
0010
0100
0001
1000
0100
0010
0001
1000
0010
0100
0001
1000
0100
0000
0000
0000
,
0010
0000
0000
0000
0001
0010
0100
1000
0001
0010
0100
1000
0001
0100
0010
1000
,
0001
0100
0010
1000
0100
0010
0100
0010
0001
0010
0001
0010
0001
1000
0010
0100
,
0010
1000
0100
0010
0001
0000
1000
0000
0010
0000
0100
0000
0001
0000
0001
0000
,
1000
0100
1000
0010
0100
0001
0010
0100
,
1000
0100
1001
0000
1000
0000
0010
1000
,
0100
0000
0010
0000
0001
0000
1000
0000
0010
0000
0000
0000
0100
0000
0001
0100
,
0001
1000
0100
0010
0001
1000
0010
0100
,
0001
0000
1000
0000
0100
0000
0010
0000
0001
0000
1000
0000
0010
1000
0010
1000
,
0001
0100
0001
0100
0020
0000
0000
0000
0000
0000
0000
0000
0000
0000
0000
0000
,
0000
2030
0000
0000
,
0000
3002
0000
0000
,
0000
0023
0000
0000
,
0000
0230
0000
0000
,
0000
2300
0000
3002
,
0203
0000
0320
0000
1030
0100
0010
0001
,
1001
0000
0000
0000
;

//---------------dance-single - ----------------
#NOTEDATA:;
#CHARTNAME:;
#STEPSTYPE:dance-single;
#DESCRIPTION:;
#CHARTSTYLE:;
#DIFFICULTY:Easy;
#METER:5;
#RADARVALUES:0.325933,0.521359,0.103706,0.160273,0.000000,214.000000,11.000000,17.000000,0.000000,0.000000,0.000000,0.000000,0.000000,0.325933,0.521359,0.103706,0.160273,0.000000,214.000000,11.000000,17.000000,0.000000,0.000000,0.000000,0.000000,0.000000;
#CREDIT:Ben Speirs;
#NOTES:
0000
0000
0000
0000
,
0000
0000
0000
0000
,
0000
0000
0000
0000
,
0000
0000
0000
0000
,
0001
0000
1000
0000
,
0010
1000
0001
0000
,
0010
0000
0001
0000
,
1000
0001
0100
0000
,
0010
0000
1000
0000
,
0100
1000
0001
0000
,
0100
0000
0010
0000
,
1000
0001
0010
0000
,
0100
1000
0010
0100
,
0001
0000
1000
0000
,
0001
0010
0100
0010
,
0001
0000
1000
0000
,
0001
0100
0010
1000
,
0001
0000
1000
0000
,
0010
1000
0100
1000
,
0010
0000
0100
0000
,
0010
1000
0100
0010
,
0001
1000
0010
0010
,
1000
0100
1000
0010
,
0100
0001
1000
1000
,
0100
0010
0001
1000
,
0010
1000
0001
0001
,
0010
0001
1000
0000
,
2002
0000
0000
3003
,
0010
0000
1000
0000
,
0001
0000
0100
0000
,
0001
0010
0100
1000
,
0010
0100
0001
0000
,
1000
0100
1000
0100
,
0010
0001
0010
0000
,
0001
0100
0010
0000
,
1000
0001
0100
0000
,
1001
0000
1001
0000
,
1001
0000
0010
0100
,
0010
0000
1000
0100
,
0010
0001
1000
0010
,
0100
0000
0001
1000
,
0001
1000
0001
1000
,
0010
0100
0001
0010
,
0100
1000
0010
0100
,
2002
0000
0000
0000
,
0000
0000
0000
3003
,
0220
0000
0000
0330
,
2002
0000
0000
0000
,
3003
0110
0000
0001
,
0100
0010
1000
0100
,
0010
0001
0000
1000
,
0100
1000
0010
0100
,
0001
1000
0000
0001
,
0000
0010
0000
0010
,
0000
0001
0100
0010
,
1000
0100
0010
0001
,
1000
0010
0000
1000
,
1000
0100
0000
0010
,
0010
0001
0000
0100
,
0100
0010
0000
1000
,
1000
0001
0001
0010
,
0100
1000
0010
0100
,
0000
0001
0100
0010
,
1000
0100
0010
0001
,
0000
1000
0000
1000
,
0000
0001
0000
0001
,
0000
0100
0010
0010
,
1000
0100
0010
0001
,
1000
0010
0000
1000
,
0000
0001
0000
0100
,
0010
1000
0000
0001
,
0000
1000
0100
0010
,
0000
2002
0000
0000
,
3003
0020
0000
0000
,
0030
2000
0000
0000
,
3000
0002
0000
0000
,
0003
0200
0000
0000
,
0300
0000
0020
0000
0030
0000
2000
3000
,
0002
0003
1001
0000
1000
0100
0010
0001
,
1001
0000
0000
0000
;

//---------------dance-single - ----------------
#NOTEDATA:;
#CHARTNAME:;
#STEPSTYPE:dance-single;
#DESCRIPTION:;
#CHARTSTYLE:;
#DIFFICULTY:Beginner;
#METER:3;
#RADARVALUES:0.192597,0.297919,0.084850,0.000000,0.000000,134.000000,9.000000,0.000000,0.000000,0.000000,0.000000,0.000000,0.000000,0.192597,0.297919,0.084850,0.000000,0.000000,134.000000,9.000000,0.000000,0.000000,0.000000,0.000000,0.000000,0.000000;
#CREDIT:Ben Speirs;
#NOTES:
0000
0000
0000
0000
,
0000
0000
0000
0000
,
0000
0000
0000
0000
,
0000
0000
0000
0000
,
0100
0000
0100
0000
,
0100
0000
0000
0000
,
0001
0000
0001
0000
,
0001
0000
0000
0000
,
1000
0000
1000
0000
,
1000
0000
0000
0000
,
0010
0000
0010
0000
,
0010
0000
0000
0000
,
1000
0000
0001
0000
,
0100
0000
0100
0000
,
0001
0000
1000
0000
,
0010
0000
0010
0000
,
1000
0000
0100
0000
,
0010
0000
0010
0000
,
0001
0000
1000
0000
,
0100
0000
0100
0000
,
1000
0000
0001
0000
,
1000
0000
1000
0000
,
0010
0000
1000
0000
,
0001
0000
0001
0000
,
0010
0000
0001
0000
,
0100
0000
0100
0000
,
0010
0000
1000
0000
,
1001
0000
0000
0000
,
0100
0000
0000
0000
,
1000
0000
0000
0000
,
0001
0000
0001
0000
,
1000
0000
1000
0000
,
0010
0000
0000
0000
,
0010
0000
0000
0000
,
0100
0000
0100
0000
,
0001
0000
0001
0000
,
1000
0000
1000
0000
,
1000
0000
0000
0000
,
0001
0000
0001
0000
,
0001
0000
0000
0000
,
0100
0000
0000
0000
,
0010
0000
0000
0000
,
1000
0000
0100
0000
,
0010
0000
0001
0000
,
1001
0000
0000
0000
,
0000
0000
0000
0000
,
1001
0000
0000
0000
,
0000
0000
0000
0000
,
0000
1001
0000
0100
,
0000
1000
0000
0010
,
0000
0100
0000
0100
,
0000
0001
0000
0010
,
0000
0001
0000
1000
,
0000
0001
0000
0100
,
0000
0010
0010
0010
,
0000
0100
0100
0100
,
0000
0110
0000
0001
,
0000
1000
0000
1000
,
0000
0100
0000
0010
,
0000
0001
0000
1000
,
1000
1000
0000
0010
,
0000
1000
0000
0001
,
0000
0100
0100
0100
,
0000
0001
0001
0001
,
0000
1001
0000
1000
,
0000
0010
0000
1000
,
1000
1000
0000
0001
,
0000
0100
0000
0010
,
0010
0010
0000
0100
,
0000
0001
0000
0010
,
0010
0010
0000
0100
,
0000
1000
1000
1000
,
0000
1001
0000
0000
,
0000
0100
0000
0000
,
0000
1000
0000
0000
,
0000
0001
0000
0000
,
0000
0100
0000
0000
,
0000
0010
0000
0000
,
0000
1001
0000
0000
,
0110
0000
0000
0000
;

//---------------dance-double - ----------------
#NOTEDATA:;
#CHARTNAME:;
#STEPSTYPE:dance-double;
#DESCRIPTION:;
#CHARTSTYLE:;
#DIFFICULTY:Challenge;
#METER:10;
#RADARVALUES:0.758267,0.893758,0.160273,0.103706,0.235696,535.000000,17.000000,11.000000,0.000000,0.000000,0.000000,0.000000,0.000000,0.758267,0.893758,0.160273,0.103706,0.235696,535.000000,17.000000,11.000000,0.000000,0.000000,0.000000,0.000000,0.000000;
#CREDIT:Ben Speirs;
#NOTES:
// measure 0
00000000
00000000
00000000
00000000
,  // measure 1
00000000
00000000
00000000
00000000
,  // measure 2
00000000
00000000
00000000
00000000
,  // measure 3
00000000
00000000
00000000
00000000
,  // measure 4
10000000
10000000
01000000
10000000
00100000
00100000
01000000
00010000
,  // measure 5
10000000
10100000
10010000
00100000
,  // measure 6
00010000
00010000
00100000
00001000
00001000
00100000
00001000
00010000
,  // measure 7
00000100
00010100
00001010
00000000
,  // measure 8
00000010
00000010
00000100
00000001
00001000
00001000
00000010
00001000
,  // measure 9
00000001
00000011
00001010
00000000
,  // measure 10
00000001
00000001
00000100
00000010
00000010
00000100
00000001
00000010
,  // measure 11
00000100
00001000
00000010
00000100
00001000
00010000
00000100
00000000
,  // measure 12
00010000
00010000
00001000
00100000
00010000
01000000
00000000
10010000
,  // measure 13
00000000
10000000
00100000
01000000
00010000
10000000
00100000
00000000
,  // measure 14
01000000
01000000
00010000
00100000
00001000
00010000
00000000
00011000
,  // measure 15
00000000
00010000
00000100
00001000
00000010
00000010
00000100
00000000
,  // measure 16
00000001
00000100
00001000
00000100
00000010
00001000
00000000
00001010
,  // measure 17
00000000
00001000
00000001
00000010
00000100
00000100
00000010
00000000
,  // measure 18
00000001
00000010
00000100
00001000
00000010
00000100
00000000
00000110
,  // measure 19
00000000
00000100
00000001
00001000
00000010
00000010
00001000
00000000
,  // measure 20
00000100
00010000
00001000
00100000
00010000
01000000
00100000
10000000
,  // measure 21
10000000
00100000
01000000
00010000
10000000
01000000
01100000
00000000
,  // measure 22
00100000
00010000
10000000
00100000
01000000
00010000
00100000
00001000
,  // measure 23
00001000
00100000
00010000
01000000
00100000
10000000
10100000
00000000
,  // measure 24
10000000
01000000
00010000
00001000
00001000
00010000
00001000
00000100
,  // measure 25
00000010
00001000
00000100
00000010
00000001
00000001
00001000
00000000
,  // measure 26
00000010
00000100
00000001
00000010
00000100
00001000
00000010
00000100
,  // measure 27
00000002
00000000
00000000
00000103
,  // measure 28
00000001
00000100
00000001
00000000
00001000
00000000
00000100
00001000
00000100
00000000
00001000
00000000
00000010
00000100
00000010
00000000
,  // measure 29
00000100
00000000
00000001
00000010
00000001
00000000
00000010
00000000
00000100
00000000
00001000
00000000
00000001
00000000
00000100
00000000
,  // measure 30
00001000
00010000
00001000
00100000
00010000
01000000
00100000
10000000
,  // measure 31
01000000
01000000
00100000
00010000
10000000
00100000
01000000
00010000
,  // measure 32
10000000
00000000
00100000
01000000
00100000
00000000
10000000
00000000
00010000
00000000
00100000
01000000
00100000
00000000
00010000
00000000
,  // measure 33
10000000
00000000
00100000
01000000
00100000
00000000
10000000
00000000
00010000
00000000
00100000
00000000
01000000
00000000
10000000
00000000
,  // measure 34
00100000
00000000
01000000
00010000
01000000
00000000
00100000
00000000
10000000
00000000
01000000
00000000
00100000
00000000
00010000
00000000
,  // measure 35
01000000
01000000
00010000
00100000
00001000
00010000
00000100
00001000
,  // measure 36
00001010
00000000
00000010
00000100
00000101
00000000
00000010
00001000
,  // measure 37
00001010
00000000
00000001
00000010
00000010
00000001
00000100
00000010
,  // measure 38
00001000
00000000
00000001
00000100
00001000
00010000
00001000
00010000
,  // measure 39
00001000
00100000
00010000
01000000
00100000
10000000
00010000
00100000
,  // measure 40
01000000
00000000
00000000
00000000
10000000
00000000
00000000
00000000
00010000
00100000
00010000
00000000
10000000
00100000
10000000
00000000
,  // measure 41
00010000
00100000
00010000
00000000
10000000
01000000
10000000
00000000
00010000
01000000
00010000
00000000
10000000
01000000
10000000
00000000
,  // measure 42
00010000
01000000
00100000
10000000
01000000
00100000
00010000
01000000
,  // measure 43
00100000
10000000
00100000
01000000
00010000
00100000
00001000
00100000
00001000
00010000
00000100
00001000
,  // measure 44
00000020
00000100
00000000
00000100
00000000
00000100
00000000
00000130
,  // measure 45
00000002
00000000
00000100
00000000
00000000
00000000
00000100
00000000
00000000
00000000
00000100
00000000
00000000
00000000
00000100
00000003
,  // measure 46
00002000
00000000
00000100
00000100
00000000
00000010
00000010
00000000
00000001
00000001
00000000
00000010
00000010
00000000
00003100
00001000
,  // measure 47
00000100
00000000
00000000
00000000
00010000
00010000
00000000
00001000
00001000
00000000
00100000
00100000
00000000
00010000
00010000
00000000
,  // measure 48
10010000
00000000
00000000
00000000
10000000
00000000
01000000
00000000
00100000
00000000
00010000
10000000
00010000
00000000
10000000
00000000
,  // measure 49
00100000
01000000
00010000
00010000
00100000
00001000
00010000
00000100
,  // measure 50
00000010
00000100
00000010
00000100
00001000
00000000
00000000
00000000
00000010
00000000
00001000
00000000
00000001
00000000
00000010
00000000
,  // measure 51
00000001
00000100
00000010
00001000
00000100
00000010
00000001
00000100
,  // measure 52
00000010
00001000
00000001
00000000
00000100
00000010
00000100
00000001
,  // measure 53
00001000
00000010
00000000
00001000
00000100
00000010
00000001
00000100
,  // measure 54
00001000
00000000
00000000
00000000
00000100
00000000
00001000
00010000
00001000
00000000
00100000
00001000
00100000
00000000
00010000
00100000
,  // measure 55
00010000
00000000
01000000
00010000
01000000
00000000
00100000
10000000
00100000
00000000
10000000
01000000
10000000
00000000
00100000
00000000
,  // measure 56
01000000
00000000
00010000
00000000
20000000
00000000
00000000
00000000
31000000
00000000
10000000
01000000
10000000
00000000
00100000
00000000
,  // measure 57
01000000
00000000
00010000
00000000
20000000
00000000
00000000
00000000
30100000
00000000
01000000
00010000
01000000
00000000
00100000
00000000
,  // measure 58
10000000
00000000
01000000
00000000
00200000
00000000
00000000
00000000
00310000
00000000
00100000
00001000
00100000
00000000
00010000
00000000
,  // measure 59
00100000
00000000
00001000
00000000
00020000
00000000
00000000
00000000
00030100
00000000
00001000
00000010
00001000
00000000
00000010
00000000
,  // measure 60
00000100
00000001
00001000
00000000
00000010
00000100
00000001
00000010
,  // measure 61
00000100
00001000
00001000
00000010
00000100
00000001
00001000
00000100
,  // measure 62
00000010
00000000
00000000
00000000
00000001
00000000
00000100
00000010
00000100
00000000
00000001
00000000
00000010
00000000
00000100
00000000
,  // measure 63
00001000
00000010
00000100
00000100
00001000
00010000
00000001
00000000
,  // measure 64
00010000
00000000
00000000
00000000
00001000
00010000
00001000
00000000
00100000
00000000
00010000
00100000
00010000
00000000
01000000
00000000
,  // measure 65
00100000
01000000
00100000
00000000
10000000
00000000
01000000
00000000
00100000
00000000
00010000
00000000
10000000
00000000
00100000
00000000
,  // measure 66
01000000
00010000
10000000
10000000
00100000
01000000
00010000
00100000
,  // measure 67
00001000
00000000
00100000
00001000
00010000
00000100
00000010
00000001
,  // measure 68
00001000
00000010
00000100
00000000
00000110
00000000
00000010
00000100
,  // measure 69
00000001
00000000
00001000
00000000
00000000
00000000
00001000
00000000
00000010
00000000
00000000
00000000
00000100
00000000
00000001
00001000
,  // measure 70
00000001
00000100
00000010
00001000
00000100
00010000
00001000
00001000
,  // measure 71
00100000
00000000
00001000
00000000
01000000
00000000
01000000
00000000
00100000
00000000
10000000
00000000
01000000
00100000
01000000
00000000
,  // measure 72
00100000
00010000
20000000
00000000
00000000
00000000
00000000
00000000
,  // measure 73
00000000
31000000
00000000
00000000
,  // measure 74
00000000
00020000
00000000
00000000
,  // measure 75
00000000
01030000
00000000
00000000
,  // measure 76
00000000
20000000
00000000
00000000
,  // measure 77
00000000
30100000
00000000
01000000
,  // measure 78
00010000
00000000
10000000
00000000
01000000
00100000
00010000
00000010
,  // measure 79
00001000
00000000
00000000
00000000
;
