#VERSION:0.82;
#TITLE:Raise Your Glass;
#SUBTITLE:;
#ARTIST:P!nk;
#TITLETRANSLIT:;
#SUBTITLETRANSLIT:;
#ARTISTTRANSLIT:;
#GENRE:Pop;
#ORIGIN:;
#CREDIT:;
#BANNER:Raise Your Glass.png;
#BACKGROUND:Raise Your Glass-bg.png;
#PREVIEWVID:;
#JACKET:jacket.png;
#CDIMAGE:;
#DISCIMAGE:;
#LYRICSPATH:;
#CDTITLE:cdtitle.png;
#MUSIC:Raise Your Glass.ogg;
#OFFSET:0.004000;
#SAMPLESTART:95.517418;
#SAMPLELENGTH:15.919991;
#SELECTABLE:YES;
#BPMS:0.000=122.000;
#STOPS:;
#DELAYS:;
#WARPS:;
#TIMESIGNATURES:0.000=4=4;
#TICKCOUNTS:0.000=4;
#COMBOS:0.000=1;
#SPEEDS:0.000=1.000=0.000=0;
#SCROLLS:0.000=1.000;
#FAKES:;
#LABELS:0.000=Song Start;
#BGCHANGES:8.000=Raise Your Glass.avi=1.000=0=0=1=====,
99999=-nosongbg-=1.000=0=0=0 // don't automatically add -songbackground-
;
#KEYSOUNDS:;
#ATTACKS:
;

//---------------dance-single - ----------------
#NOTEDATA:;
#CHARTNAME:;
#STEPSTYPE:dance-single;
#DESCRIPTION:;
#CHARTSTYLE:;
#DIFFICULTY:Hard;
#METER:7;
#RADARVALUES:0.430669,0.502447,0.199602,0.309728,0.079153,364.000000,29.000000,45.000000,0.000000,0.000000,0.000000,0.000000,0.000000,0.430669,0.502447,0.199602,0.309728,0.079153,364.000000,29.000000,45.000000,0.000000,0.000000,0.000000,0.000000,0.000000;
#CREDIT:Ben Speirs;
#NOTES:
// measure 0
0000
0000
0000
0000
,  // measure 1
0000
0000
0000
0000
,  // measure 2
0000
0000
0000
0000
,  // measure 3
0000
0000
0000
0000
,  // measure 4
1100
0000
1100
0000
0100
1000
0001
0000
,  // measure 5
0100
0001
1000
0000
0010
1000
0001
0000
,  // measure 6
1000
0000
0000
0100
0000
0000
0010
0000
0000
0001
0000
0000
0200
0000
0000
0000
,  // measure 7
0300
0000
0010
0000
0010
1000
0100
0000
,  // measure 8
0011
0000
0011
0000
0010
0001
1000
0000
,  // measure 9
0010
1000
0001
0000
0100
0001
1000
0000
,  // measure 10
0001
0000
0000
0010
0000
0000
0100
0000
0000
1000
0000
0000
0020
0000
0000
0000
,  // measure 11
0130
0000
0001
1000
0000
1001
0000
0000
,  // measure 12
1000
0000
0000
0100
1000
0000
0000
0000
0010
0000
1000
0000
0001
0000
0000
0100
,  // measure 13
0001
0000
0100
0001
1000
0000
0010
0000
,  // measure 14
1000
0000
0000
0001
1000
0000
0000
0000
0010
0000
1000
0000
0001
0000
0000
0100
,  // measure 15
0001
0000
1000
0001
0100
0000
0000
0000
,  // measure 16
0001
0000
0000
0100
0001
0000
0000
0000
0100
0000
0001
0000
1000
0000
0000
0100
,  // measure 17
1000
0000
0010
1000
0100
0000
0100
0000
,  // measure 18
2002
0000
0000
0000
,  // measure 19
0000
0000
0000
0000
3003
0000
0000
0000
0000
0000
0001
1000
0001
0000
1000
0000
,  // measure 20
1100
0000
0000
0100
1000
0000
0010
0000
0100
0000
0000
0000
0210
0000
0000
0000
,  // measure 21
0301
0100
0010
1000
0001
0000
1001
0000
,  // measure 22
0101
0000
0000
0100
0010
0000
1000
0000
0001
0000
0000
0000
2001
0000
0000
0000
,  // measure 23
3100
0000
1000
0001
0100
0100
0010
0010
,  // measure 24
1000
0000
0000
0010
1000
0000
0001
0000
0010
0000
0000
0000
1002
0000
0000
0000
,  // measure 25
0103
0001
1000
0100
0010
0000
0011
0000
,  // measure 26
1100
0000
0000
0100
1000
0000
0010
0000
0100
0000
0000
0000
1002
0000
0000
0000
,  // measure 27
0103
0000
0001
1000
0010
0010
0100
0100
,  // measure 28
0001
0200
0000
0301
0100
0000
0102
0000
,  // measure 29
1003
0000
0001
0000
0100
0001
1000
0000
,  // measure 30
0010
2000
0000
3010
1000
0000
1010
0000
,  // measure 31
0001
0000
1000
0000
0010
1000
0001
0000
,  // measure 32
1000
0200
0000
0310
0002
0000
0203
0000
,  // measure 33
0310
0100
0010
0000
0100
0001
1000
0000
,  // measure 34
0001
0200
0000
0310
2000
0000
3200
0000
,  // measure 35
1300
0001
1000
0000
0100
1000
0001
0000
,  // measure 36
2000
0000
0000
0010
0000
0000
0200
0000
,  // measure 37
0000
0000
0000
3300
,  // measure 38
0002
0000
0000
0010
0000
0000
0200
0000
,  // measure 39
0000
0000
0000
0303
,  // measure 40
0002
0100
1000
0100
,  // measure 41
0010
0000
0010
0000
0100
0100
0100
0000
,  // measure 42
0010
0100
1000
0100
,  // measure 43
1000
0000
1000
0000
0010
0010
0010
0000
,  // measure 44
0100
0000
1000
0000
0100
0100
0100
0000
,  // measure 45
0100
0100
0100
0000
1000
0000
0100
0000
,  // measure 46
2000
0000
0000
0000
,  // measure 47
0000
0000
3003
0000
,  // measure 48
0001
1000
0001
1000
0001
1000
0001
1000
0001
0000
0000
0000
0000
0000
0000
0000
,  // measure 49
1100
0000
0000
0100
1000
0000
0010
0000
0100
0000
0000
0000
0210
0000
0000
0000
,  // measure 50
0302
0000
0103
0001
1000
0000
1010
0000
,  // measure 51
0011
0000
0000
0010
0001
0000
1000
0000
0010
0000
0000
0000
2010
0000
0000
0000
,  // measure 52
3002
0000
0103
0000
0001
0001
1000
1000
,  // measure 53
0010
0000
0000
0100
0010
0000
1000
0000
0100
0000
0000
0000
2100
0000
0000
0000
,  // measure 54
3002
0000
0013
0001
0100
0010
1000
0000
,  // measure 55
0101
0000
0000
0100
0010
0000
1000
0000
0100
0000
0000
0000
1200
0000
0000
0000
,  // measure 56
0320
0000
0031
0000
1000
1000
0001
0001
,  // measure 57
0100
0010
0100
1000
0100
0010
2000
0000
,  // measure 58
3100
1000
0010
0100
0002
0000
2003
0000
,  // measure 59
3001
0010
0100
0010
1000
0010
0002
0000
,  // measure 60
0103
0000
0001
1000
0010
0010
0100
0100
,  // measure 61
0001
1000
0100
1000
0001
0100
0020
0000
,  // measure 62
0130
0001
1000
0100
0020
0000
0032
0000
,  // measure 63
1003
0100
0010
0100
1000
0010
0200
0000
,  // measure 64
0301
0000
1000
0001
0100
0100
0010
0010
,  // measure 65
1000
0200
0000
1300
0100
0000
2100
0000
,  // measure 66
3100
1000
0010
0000
0100
0001
1000
0000
,  // measure 67
0001
0200
0000
0301
0100
0000
0102
0000
,  // measure 68
0103
0001
1000
0000
0010
0010
0100
0100
,  // measure 69
0001
0010
0100
1000
0010
0000
1002
0000
,  // measure 70
0103
0000
0001
0000
1000
0001
0010
0000
,  // measure 71
0001
0100
1000
0100
0010
1000
0200
0000
,  // measure 72
1300
0000
0010
0000
1000
0100
0100
0000
,  // measure 73
0011
0000
0000
0000
;

//---------------dance-single - ----------------
#NOTEDATA:;
#CHARTNAME:;
#STEPSTYPE:dance-single;
#DESCRIPTION:;
#CHARTSTYLE:;
#DIFFICULTY:Challenge;
#METER:8;
#RADARVALUES:0.534894,0.602936,0.103243,0.185837,0.323493,502.000000,15.000000,27.000000,0.000000,0.000000,0.000000,0.000000,0.000000,0.534894,0.602936,0.103243,0.185837,0.323493,502.000000,15.000000,27.000000,0.000000,0.000000,0.000000,0.000000,0.000000;
#CREDIT:Ben Speirs;
#NOTES:
0000
0000
0000
0000
,
0000
0000
0000
0000
,
0000
0000
0000
0000
,
0000
0000
0000
0000
,
1100
0000
0000
0000
0101
0000
0000
0000
1000
0100
0000
0010
0001
0000
0000
0000
,
1000
0000
0001
1000
0001
0000
0100
0000
0010
0000
1000
0000
0001
0000
0000
0000
,
0100
0000
0000
0100
0000
0000
0010
0000
0000
0010
0000
0000
2000
0000
0000
0000
,
3100
1000
0010
0100
0002
0000
1003
0000
,
0101
0000
1100
0000
0001
1000
0001
0000
,
1000
0000
0001
0000
0100
0000
0010
1000
0010
0000
1000
0000
0001
0000
0000
0000
,
1000
0000
0000
0100
0000
0000
0010
0000
0000
0001
0000
0000
1000
0000
0000
0000
,
0001
0100
0010
1000
0000
1200
0000
0000
,
0310
0000
0000
0001
1000
0000
0001
0000
0100
0010
0000
0000
1000
0000
0000
0100
,
1000
0000
0010
0000
0100
0001
0000
0000
0100
0000
0000
0000
1001
0000
0000
0000
,
0001
0000
0000
0100
0001
0000
1000
0000
0010
0100
0000
0000
0010
0000
0000
1000
,
0100
0000
1000
0000
0010
0100
0000
0000
0001
0000
0000
0000
1001
0000
0000
0000
,
1000
0000
0000
0100
1000
0000
0010
0000
0100
0001
0000
0000
1000
0000
0000
0001
,
1000
0000
0010
0000
0100
0001
0000
0000
1000
0000
0000
0000
1100
0000
0000
0000
,
0102
0000
0100
0000
0010
0000
1000
2000
,
0000
0000
0000
0000
3003
0000
0000
0000
0000
0000
0001
1000
0001
0000
1000
0000
,
0010
0000
0100
0010
0000
0010
1000
0000
1000
0100
0000
0100
2000
0000
0000
0000
,
3100
1000
0010
0100
0001
1000
0001
0000
,
1000
0000
0001
0010
0000
0010
0001
0000
0001
0100
0000
0100
0020
0000
0000
0000
,
0130
0000
0001
0000
1000
0000
0000
0000
0010
1000
0001
0000
0010
0001
1000
0000
,
0001
0000
1000
0100
0000
0100
0010
0000
0010
0001
0000
0001
2000
0000
0000
0000
,
3010
1000
0001
1000
0010
0100
0001
0000
,
0100
0000
0001
0100
0000
0100
0010
0000
0010
1000
0000
1000
0002
0000
0000
0000
,
0013
0000
0001
0000
1000
0000
0000
0000
0001
1000
0010
0000
1000
0001
0010
0000
,
0001
0100
1000
0100
0010
1000
0100
0010
,
0001
0000
1000
0000
0010
0000
0100
0000
0001
0100
0001
0000
1000
0100
1000
0000
,
0001
0010
1000
0010
0001
0100
0010
1000
,
0100
0000
0010
0000
0001
0000
1000
0000
0010
1000
0010
0000
1000
0100
1000
0000
,
0001
1000
0010
0100
0001
0010
1000
0010
,
0001
0000
0100
0000
0010
0000
1000
0000
0001
0100
0001
0000
1000
0100
1000
0000
,
0001
0010
1000
0010
0001
0100
1000
0100
,
0010
1000
0100
0010
0001
0100
0100
0000
,
0002
0100
0000
0010
0010
0000
2000
0000
,
0000
0000
0000
3003
,
2000
0100
0000
0010
0010
0000
0002
0000
,
0000
0000
0000
3003
,
1000
0000
0100
1000
0001
0000
0100
0001
,
1000
0000
0010
1000
0001
0000
0010
0000
,
0001
0010
0100
1000
0001
1000
0001
0000
,
1000
0100
0010
0001
1000
0001
1000
0000
,
0001
1000
0010
0000
0100
0100
0100
0000
,
0010
0010
0010
0000
1000
0010
0100
0001
,
0020
0000
0000
0000
0000
0000
0000
0200
,
0000
0330
0000
0000
,
0001
0010
0100
1000
0001
0010
0100
1000
0001
0000
0000
0000
0000
0000
0000
0000
,
1001
0000
0001
0100
0000
0100
0010
0000
0010
1000
0000
1000
0200
0000
0000
0000
,
1300
0010
0100
0001
1000
0001
1000
0000
,
0100
0000
0100
1000
0000
1000
0010
0000
0010
0100
0000
0100
0002
0000
0000
0000
,
0103
0000
0010
0000
1000
0000
0000
0000
0001
1000
0010
0000
1000
0001
0010
0000
,
0001
0000
0001
0100
0000
0100
0010
0000
0010
1000
0000
1000
0200
0000
0000
0000
,
1300
0010
0100
0001
0010
0100
1000
0000
,
0001
0000
0001
0010
0000
0010
0100
0000
0100
1000
0000
1000
0002
0000
0000
0000
,
0103
0000
0001
0000
1000
0000
0010
0000
0100
0010
0100
0000
0001
1000
0001
1000
,
0010
0000
0100
0001
0100
0000
0010
1000
0010
0000
1000
0100
2000
0000
0000
0000
,
3100
1000
0010
0100
0001
1000
0001
0000
,
1000
0000
0100
1000
0100
0000
0010
0100
0010
0000
0001
0010
0002
0000
0000
0000
,
0103
0000
0001
0000
1000
0000
0010
0000
0100
0001
1000
0000
0010
1000
0001
0000
,
0010
0000
0001
0010
0001
0000
1000
0001
1000
0000
0100
1000
0200
0000
0000
0000
,
1300
0010
0100
0001
1000
0001
1000
0000
,
0001
0000
0100
0001
0100
0000
0010
0100
0010
0000
1000
0001
2000
0000
0000
0000
,
3001
0000
1000
0000
0010
0000
0100
0000
0001
1000
0010
0000
1000
0001
0010
0000
,
0001
0100
1000
0100
0010
1000
1200
0000
,
0310
0000
0001
0000
1000
0000
0000
0000
0001
1000
0010
0000
1000
0001
0010
0000
,
0001
0100
1000
0100
0001
0010
0012
0000
,
1003
0000
0001
0000
0100
0000
0000
0000
0001
1000
0010
0000
1000
0001
0010
0000
,
0001
0100
0010
1000
0100
0010
2001
0000
,
3010
0000
1000
0000
0100
0000
0000
0000
1000
0001
0100
0000
0001
1000
0010
0000
,
1000
0100
0010
0001
0100
0010
1002
0000
,
0103
0001
1000
0010
0100
0001
0001
0000
,
1010
0000
0000
0000
;

//---------------dance-double - ----------------
#NOTEDATA:;
#CHARTNAME:;
#STEPSTYPE:dance-double;
#DESCRIPTION:;
#CHARTSTYLE:;
#DIFFICULTY:Challenge;
#METER:8;
#RADARVALUES:0.452300,0.527569,0.158305,0.227133,0.175512,404.000000,23.000000,33.000000,0.000000,0.000000,0.000000,0.000000,0.000000,0.452300,0.527569,0.158305,0.227133,0.175512,404.000000,23.000000,33.000000,0.000000,0.000000,0.000000,0.000000,0.000000;
#CREDIT:Ben Speirs;
#NOTES:
00000000
00000000
00000000
00000000
,
00000000
00000000
00000000
00000000
,
00000000
00000000
00000000
00000000
,
00000000
00000000
00000000
00000000
,
00011000
00000000
00011000
00000000
00010000
00000100
00001000
00000000
,
00000100
00010000
00001000
00000000
00100000
00100000
00100000
00000000
,
00010000
00000000
00000000
00100000
00000000
00000000
00001000
00000000
00000000
00010000
00000000
00000000
00000200
00000000
00000000
00000000
,
00000300
00000000
00010000
00000000
00001000
00010000
00001000
00000000
,
00011000
00000000
00011000
00000000
00001000
00100000
00010000
00000000
,
00100000
00001000
00010000
00000000
00000100
00000100
00000100
00000000
,
00001000
00000000
00000000
00000100
00000000
00000000
00010000
00000000
00000000
00001000
00000000
00000000
00200000
00000000
00000000
00000000
,
00300000
00000000
00001000
00000000
00010000
00001000
00010000
00000000
,
00011000
00000000
00000000
00001000
00000000
00000000
00100000
00000000
00000000
00100000
00000000
00000000
00010000
00000000
00000000
10000000
,
00000000
00000000
00100000
00000000
00000000
00100000
00000000
00000000
10000000
00000000
00000000
00000000
00010000
00000000
00000000
00000000
,
10000000
00000000
00000000
00010000
00000000
00000000
01000000
00000000
00000000
01000000
00000000
00000000
00010000
00000000
00000000
00100000
,
00000000
00000000
00001000
00000000
00000000
00001000
00000000
00000000
00010000
00000000
00000000
00000000
00010000
00000000
00000000
00000000
,
00000100
00000000
00000000
00001000
00000000
00000000
00000010
00000000
00000000
00000010
00000000
00000000
00000100
00000000
00000000
00000001
,
00000000
00000000
00001000
00000000
00000000
00001000
00000000
00000000
00000010
00000000
00000000
00000000
00000010
00000000
00000000
00000000
,
00002002
00000000
00000000
00000000
,
00000000
00000000
00000000
00000000
00003003
00000000
00000000
00000000
00000000
00000000
00000001
00001000
00000001
00000000
00001000
00000000
,
00000010
00000000
00000000
00000100
00000010
00000000
00001000
00000000
00000100
00000000
00000000
00000000
00001200
00000000
00000000
00000000
,
00001300
00000100
00010000
00001000
00010000
00000000
00011000
00000000
,
00101000
00000000
00000000
00100000
00010000
00000000
01000000
00000000
00100000
00000000
00000000
00000000
01200000
00000000
00000000
00000000
,
10300000
00000000
00000000
00000000
00100000
00000000
10000000
00000000
01000000
10000000
01000000
00000000
10000000
01000000
10000000
00000000
,
00010000
00000000
00000000
10000000
01000000
00000000
10000000
00000000
00010000
00000000
00000000
00000000
10020000
00000000
00000000
00000000
,
00130000
00010000
01000000
00001000
00010000
00000000
00011000
00000000
,
00010100
00000000
00000000
00000100
00001000
00000000
00000010
00000000
00000100
00000000
00000000
00000000
00002010
00000000
00000000
00000000
,
00003001
00000000
00000000
00000000
00001000
00000000
00000001
00000000
00000100
00000001
00000100
00000000
00000001
00000100
00000001
00000000
,
00001000
00000100
00010000
00001000
00100000
00010000
20000000
00000000
,
31000000
00000000
00000000
00000000
10010000
00000000
00000000
00000000
00010000
01000000
00010000
00000000
10000000
01000000
10000000
00000000
,
00010000
00100000
00001000
00010000
00000100
00001000
00000002
00000000
,
00000103
00000000
00000010
00000000
00001000
00000000
00000000
00000000
00000010
00000100
00000010
00000000
00000100
00000010
00000100
00000000
,
00000001
00000100
00000010
00001000
00000100
00010000
00002000
00000000
,
00013000
00000000
00001000
00000000
00100000
00000000
00000000
00000000
00010000
00100000
00010000
00000000
10000000
00100000
10000000
00000000
,
00010000
00100000
00001000
00010000
00000100
00001000
00000002
00000000
,
00000103
00000010
00001000
00000000
00000100
00010000
00001000
00000000
,
00002000
00000000
00000000
00100000
00000000
00000000
00020000
00000000
,
00000000
00000000
00033000
00000000
,
00020000
00000000
00000000
00000100
00000000
00000000
00002000
00000000
,
00000000
00000000
00033000
00000000
,
00002000
00100000
00010000
00100000
,
00010000
00000000
00010000
00000000
01000000
01000000
01000000
00000000
,
00023000
00001000
00000100
00001000
,
00000010
00000000
00000010
00000000
00000100
00000100
00000100
00000000
,
00001000
00000000
00000000
00000000
00001000
00000000
00000000
00000000
00001000
00000000
00001000
00030000
00002000
00000000
00000000
00000000
,
00010000
00010000
00023000
00000000
00001000
00000000
00000100
00000000
,
00002000
00000000
00000000
00000000
,
00000000
00000000
00033000
00000000
,
00001000
00010000
00001000
00010000
00001000
00010000
00001000
00010000
00001000
00000000
00000000
00000000
00000000
00000000
00000000
00000000
,
00110000
00000000
10100000
00000000
00010000
10000000
00001000
00000000
,
00010000
00001000
00100000
00010000
01000000
00100000
10000000
00000000
,
01000000
00000000
00000000
10000000
00000000
00000000
00100000
00000000
00000000
01000000
00000000
00000000
00002000
00000000
00000000
00000000
,
00013000
00000000
00000000
00000000
00000100
00000000
00000000
00000000
00010000
00001000
00010000
00000000
00000100
00000000
00000000
00000000
,
00001000
00000010
00000100
00000001
00001000
00000010
00000200
00000000
,
00000301
00000100
00000010
00001000
00000100
00000000
00001100
00000000
,
00000001
00000000
00000000
00001000
00000000
00000000
00000100
00000000
00000000
00010000
00000000
00000000
00002000
00000000
00000000
00000000
,
00103000
00011000
00011000
00011000
,
00100000
00010000
01000000
00100000
10000000
01000000
00100000
00010000
,
01000000
00001000
00010000
00000010
00000200
00000000
00000302
00000000
,
00001003
00000010
00000100
00000001
00000010
00001000
00010000
00001000
,
00100000
00000000
00010000
00000000
01000000
00000000
00100000
00000000
10000000
01000000
10000000
00000000
00010000
01000000
00010000
00000000
,
10000000
01000000
00100000
00010000
01000000
00001000
00010000
00000010
,
00001000
00010000
00001000
00000010
00000200
00000000
00000302
00000000
,
00000103
00000010
00001000
00000100
00010000
00001000
00100000
00010000
,
01000000
00000000
00100000
00000000
00010000
00000000
00001000
00000000
00100000
00010000
00100000
00000000
00010000
01000000
00010000
00000000
,
10000000
01000000
10000000
00010000
10000000
00100000
10020000
00000000
,
10030000
00000000
00100000
00000000
10000000
00000000
00000000
00000000
00010000
01000000
00010000
00000000
10000000
00010000
10000000
00000000
,
00010000
01000000
00001000
00010000
00000100
00001000
00000020
00000000
,
00000130
00000000
00000010
00000000
00001000
00000000
00000000
00000000
00000001
00001000
00000001
00000000
00001000
00000001
00001000
00000000
,
00000001
00000100
00000001
00001000
00000010
00000100
00002001
00000000
,
00003010
00000000
00001000
00000000
00000100
00000000
00000000
00000000
00001000
00000001
00001000
00000000
00000001
00001000
00000001
00000000
,
00000100
00000000
00000010
00000000
00001000
00000000
00000100
00000000
00010000
00000000
00001000
00200000
00000000
00000000
00000000
00000000
,
01300000
00100000
00010000
00000000
01000000
00010000
20000000
00000000
,
30001000
00000000
00000000
00000000
;

//---------------dance-single - ----------------
#NOTEDATA:;
#CHARTNAME:;
#STEPSTYPE:dance-single;
#DESCRIPTION:;
#CHARTSTYLE:;
#DIFFICULTY:Medium;
#METER:4;
#RADARVALUES:0.226150,0.301468,0.130774,0.103243,0.000000,196.000000,19.000000,15.000000,0.000000,0.000000,0.000000,0.000000,0.000000,0.226150,0.301468,0.130774,0.103243,0.000000,196.000000,19.000000,15.000000,0.000000,0.000000,0.000000,0.000000,0.000000;
#CREDIT:Ben Speirs;
#NOTES:
0000
0000
0000
0000
,
0000
0000
0000
0000
,
0000
0000
0000
0000
,
0000
0000
0000
0000
,
1000
0000
1000
0000
0100
1000
0100
0000
,
1000
0001
0100
0100
,
0010
1000
0001
0010
,
0020
0030
0000
0000
,
0001
0000
0001
0000
0010
0001
0010
0000
,
0001
0100
0010
0010
,
1000
0001
1000
1000
,
0200
0300
0000
0000
,
1000
1100
0001
0101
,
1000
1010
0001
0000
,
0001
0011
1000
1010
,
0001
1001
0000
0000
,
1000
1100
0001
1001
,
0100
0101
1000
0000
,
0020
0000
0000
0000
,
0030
0000
0000
0000
,
1000
0100
0010
0002
,
0003
0100
0001
0001
,
0100
0001
1000
0020
,
0030
1000
0100
0100
,
1000
0001
0100
0020
,
0030
0100
0100
0001
,
1000
0010
0100
0002
,
0003
0100
0010
0010
,
1000
0000
0000
0001
0000
0000
1001
0000
,
0000
0001
0100
0100
,
0010
0000
0000
1000
0000
0000
1010
0000
,
0000
1000
0001
0001
,
0010
0000
0000
0001
0000
0000
0011
0000
,
0000
0001
1000
1000
,
0100
0000
0000
0010
0000
0000
0110
0000
,
0000
0010
0001
0100
,
0020
0000
0000
0000
,
0030
0000
0000
0000
,
0200
0000
0000
0000
,
0300
0000
0000
0000
,
0002
0000
0000
0000
,
0100
0000
0100
0000
,
1000
0000
0000
0000
,
1000
0000
1000
0000
,
0010
0000
0010
0000
,
0100
0000
0100
0000
,
2000
0000
0000
0000
,
0000
0000
3003
0000
,
0001
0100
1000
0010
0001
0000
0000
0000
,
1001
1000
0010
0100
,
0001
1000
0100
0100
,
1000
0100
0010
0001
,
0000
0100
0010
0010
,
0100
0001
1000
0100
,
0010
0001
0100
0100
,
0001
1000
0010
0100
,
0001
0000
1000
0000
,
0010
1000
0100
0200
,
0300
1000
0001
0000
,
0010
0001
0100
0200
,
0300
0001
1000
0000
,
0010
0010
1000
0002
,
0003
1000
0001
0000
,
0001
0001
0100
0200
,
0300
0001
1000
0000
,
0010
0000
0000
0010
0000
0000
1001
0000
,
0000
0000
1000
0001
,
0100
0000
0000
0100
0000
0000
1001
0000
,
0000
0001
1000
1000
,
0100
0000
0000
0010
0000
0000
0110
0000
,
0000
0010
0001
0001
,
0100
0000
0000
0010
0000
0000
0110
0000
,
0000
0010
1000
0100
,
1001
0000
0000
0000
;

//---------------dance-single - ----------------
#NOTEDATA:;
#CHARTNAME:;
#STEPSTYPE:dance-single;
#DESCRIPTION:;
#CHARTSTYLE:;
#DIFFICULTY:Easy;
#METER:3;
#RADARVALUES:0.120941,0.175856,0.061946,0.027531,0.000000,110.000000,9.000000,4.000000,0.000000,0.000000,0.000000,0.000000,0.000000,0.120941,0.175856,0.061946,0.027531,0.000000,110.000000,9.000000,4.000000,0.000000,0.000000,0.000000,0.000000,0.000000;
#CREDIT:Ben Speirs;
#NOTES:
0000
0000
0000
0000
,
0000
0000
0000
0000
,
0000
0000
0000
0000
,
0000
0000
0000
0000
,
1001
0000
0000
0000
,
0001
0000
1000
0000
,
0010
0010
0100
0100
,
0001
0000
0000
0000
,
1001
0000
0000
0000
,
1000
0000
1000
0000
,
0010
0010
1000
1000
,
0100
0000
0000
0000
,
0000
1000
0000
0001
,
0000
0100
0000
0000
,
0000
0001
0000
1000
,
0000
0010
0000
0000
,
1000
1000
0001
0001
,
1000
1000
0000
0000
,
0010
0000
0000
0000
,
0000
0000
0000
0000
,
1001
0000
0000
0001
,
0000
0100
0100
0000
,
0010
0000
0000
1000
,
0000
0000
0100
0100
,
0100
0000
0000
1000
,
0000
0001
0001
0000
,
0010
0000
0000
0001
,
0000
0000
0100
0100
,
0100
0000
0000
1001
,
0000
0000
1000
0000
,
0010
0000
0000
1001
,
0000
0000
0001
0000
,
0010
0000
0000
1001
,
0000
0000
1000
0000
,
0100
0000
0000
1001
,
0000
0000
0001
0000
,
0200
0000
0000
0000
,
0300
0000
0000
0000
,
0020
0000
0000
0000
,
0030
0000
0000
0000
,
2000
0000
0000
0000
,
0000
0000
0000
0000
,
0001
0000
0000
0000
,
0000
0000
0000
0000
,
0001
0000
0000
0000
,
0000
0000
0000
0000
,
0002
0000
0000
0000
,
0000
0000
3003
0000
,
1001
0000
0000
0000
,
0010
0010
0100
0100
,
0000
0000
0000
0000
,
0001
0001
0010
0010
,
0000
0000
0000
0000
,
0100
0100
1000
1000
,
0000
0000
0000
0000
,
0010
0010
1000
1000
,
0000
0000
0000
0000
,
0001
0001
1000
1000
,
0000
0000
0000
0000
,
1000
1000
0100
0100
,
0000
0000
0000
0000
,
0010
0010
0001
0001
,
0000
0000
0000
0000
,
1000
1000
0010
0010
,
0000
0000
0000
0000
,
0100
0000
0100
0100
,
0000
0000
0000
0000
,
0001
0000
0001
0001
,
0000
0000
0000
0000
,
1000
0000
1000
1000
,
0000
0000
0010
0000
,
0010
0000
0100
0000
,
0100
0000
0000
0000
,
1001
0000
0000
0000
;

//---------------dance-single - ----------------
#NOTEDATA:;
#CHARTNAME:;
#STEPSTYPE:dance-single;
#DESCRIPTION:;
#CHARTSTYLE:;
#DIFFICULTY:Beginner;
#METER:1;
#RADARVALUES:0.079644,0.125612,0.020648,0.000000,0.000000,78.000000,3.000000,0.000000,0.000000,0.000000,0.000000,0.000000,0.000000,0.079644,0.125612,0.020648,0.000000,0.000000,78.000000,3.000000,0.000000,0.000000,0.000000,0.000000,0.000000,0.000000;
#CREDIT:Ben Speirs;
#NOTES:
0000
0000
0000
0000
,
0000
0000
0000
0000
,
0000
0000
0000
0000
,
0000
0000
0000
0000
,
1000
0000
0000
0000
,
0001
0000
0000
0000
,
0100
0000
0100
0000
,
0100
0000
0000
0000
,
0010
0000
0000
0000
,
1000
0000
0000
0000
,
0001
0000
0001
0000
,
0001
0000
0000
0000
,
0000
1000
0000
1000
,
0000
0000
0000
0000
,
0000
0010
0000
0010
,
0000
0000
0000
0000
,
0000
0100
0000
0100
,
0000
0000
0000
0000
,
0001
0000
0000
0000
,
0000
0000
0000
0000
,
1001
0000
0000
1000
,
0000
0000
0000
0000
,
0010
0000
0000
0010
,
0000
0000
0000
0000
,
0100
0000
0000
0100
,
0000
0000
0000
0000
,
0001
0000
0000
0001
,
0000
0000
0000
0000
,
0100
0000
0000
0100
,
0000
0000
0000
0000
,
0010
0000
0000
0010
,
0000
0000
0000
0000
,
1000
0000
0000
1000
,
0000
0000
0000
0000
,
0001
0000
0000
0001
,
0000
0000
0000
0000
,
0100
0000
0000
0000
,
0000
0000
0000
0000
,
0000
0000
0000
0000
,
0000
0000
0000
0000
,
1000
0000
0000
0000
,
0010
0000
0010
0000
,
0010
0000
0000
0000
,
0100
0000
0100
0000
,
0100
0000
0000
0000
,
0001
0000
0000
0000
,
1000
0000
0000
0000
,
0000
0000
0000
0000
,
0010
0010
0010
0000
,
0110
0000
0000
0000
,
0000
1000
1000
0000
,
1000
0000
0000
0000
,
0000
0000
0001
0000
,
0001
0000
0000
0000
,
0000
0100
0100
0000
,
0100
0000
0000
0000
,
0000
0010
0010
0010
,
0010
0000
0000
0000
,
0000
1000
0000
1000
,
1000
0000
0000
0000
,
0000
0001
0000
0001
,
0001
0000
0000
0000
,
0000
0100
0000
0100
,
0100
0000
0000
0000
,
0000
0000
0010
0000
,
0010
0000
0000
0010
,
0000
0000
0000
0000
,
1000
0000
0000
1000
,
0000
0000
0000
0000
,
0001
0000
0000
0001
,
0000
0000
0000
0000
,
0100
0000
0000
0100
,
0000
0000
0000
0000
,
1001
0000
0000
0000
;
