#VERSION:0.82;
#TITLE:Ciao Adios;
#SUBTITLE:;
#ARTIST:Anne-Marie;
#TITLETRANSLIT:;
#SUBTITLETRANSLIT:;
#ARTISTTRANSLIT:;
#GENRE:Pop;
#ORIGIN:;
#CREDIT:;
#BANNER:Ciao Adios.png;
#BACKGROUND:Ciao Adios-bg.png;
#PREVIEWVID:;
#JACKET:jacket.png;
#CDIMAGE:;
#DISCIMAGE:;
#LYRICSPATH:;
#CDTITLE:;
#MUSIC:Ciao Adios.ogg;
#OFFSET:-0.070000;
#SAMPLESTART:44.384399;
#SAMPLELENGTH:13.714000;
#SELECTABLE:YES;
#BPMS:0.000=106.000;
#STOPS:;
#DELAYS:;
#WARPS:;
#TIMESIGNATURES:0.000=4=4;
#TICKCOUNTS:0.000=4;
#COMBOS:0.000=1;
#SPEEDS:0.000=1.000=0.000=0;
#SCROLLS:0.000=1.000;
#FAKES:;
#LABELS:0.000=Song Start;
#BGCHANGES:8.000=Ciao Adios.avi=1.000=0=0=1=====,
99999=-nosongbg-=1.000=0=0=0 // don't automatically add -songbackground-
;
#KEYSOUNDS:;
#ATTACKS:
;

//---------------dance-single - ----------------
#NOTEDATA:;
#CHARTNAME:;
#STEPSTYPE:dance-single;
#DESCRIPTION:;
#CHARTSTYLE:;
#DIFFICULTY:Challenge;
#METER:9;
#RADARVALUES:0.549266,0.543653,0.146192,0.000000,0.500709,506.000000,20.000000,0.000000,0.000000,0.000000,0.000000,0.000000,0.000000,0.549266,0.543653,0.146192,0.000000,0.500709,506.000000,20.000000,0.000000,0.000000,0.000000,0.000000,0.000000,0.000000;
#CREDIT:Ben Speirs;
#NOTES:
0000
0000
0000
0000
,
0000
0000
0000
0000
,
0000
0000
0000
0000
,
0000
0000
0000
0000
,
0001
0000
0000
0000
1000
0000
0010
0100
0010
0000
0100
0010
0100
0000
0010
0000
,
1000
0000
0000
0000
0001
0000
0010
0100
0010
0000
0100
0010
0100
0000
0010
0000
,
0001
0000
0000
0000
1000
0000
0001
0100
0001
0000
1000
0100
1000
0000
0001
0000
,
1000
0000
0000
0000
0001
0000
1000
0010
1000
0000
0001
0010
0001
0000
1000
0000
,
0010
0000
0000
0010
0100
0000
0001
0100
0001
0000
1000
0100
1000
0000
0001
0000
,
0010
0000
0000
0010
0001
0000
1000
0100
1000
0000
0001
0100
0001
0000
1000
0000
,
0010
0000
0000
0010
1000
0000
0000
1000
0001
0000
0000
0001
0010
0000
0100
0000
,
1000
0000
0000
0001
0100
0000
0001
0000
1000
0000
0000
1000
0100
0000
0010
0000
,
0001
0000
0100
0001
0000
0000
1000
0100
1000
0000
0001
1000
0000
0000
0001
0000
,
0100
0000
0010
0000
1000
0000
0001
0000
0010
0100
0010
0100
0010
0000
0001
0010
,
0001
0000
1000
0100
0000
0000
1000
0010
1000
0000
0001
0100
0000
0000
0001
0000
,
1000
0000
0001
0000
0100
0000
0010
0000
1000
0100
1000
0100
1000
0000
0001
0000
,
0100
0000
0100
0010
1000
0000
0001
0000
0010
0000
0010
0001
1000
0000
0010
0000
,
0100
0000
0100
0001
1000
0000
0100
0000
1000
0001
1000
0001
0100
0000
0001
1000
,
0001
0000
0100
0010
1000
0000
0001
0000
0010
0000
0100
0010
0001
0000
0100
0000
,
0010
0000
0000
0010
1000
0000
0001
1000
0001
0000
0100
0000
0010
0000
0100
0000
,
0101
0000
0100
0010
1000
0000
0100
0000
1100
0000
0100
0010
0001
0000
1000
0000
,
0010
0100
0000
0100
0001
0000
1000
0000
0010
0100
0001
0100
0001
0000
1000
0000
,
1010
0000
0010
0100
0001
0000
1000
0000
1100
0000
0100
0010
0001
0000
0100
0000
,
0001
1000
0000
1000
0010
0000
0100
0000
0001
1000
0100
1000
0100
0000
0010
0000
,
0001
0000
1000
0000
0001
0000
0100
0000
0001
0000
0100
0000
0010
0000
1000
0000
0010
0000
0100
0000
0000
0001
0000
0000
,
1000
0000
0000
0000
0100
0000
0000
0000
0010
0000
0000
0000
0001
0000
0000
0000
0000
0000
0100
0000
0000
0010
0000
0000
0100
0000
0000
0000
0000
0000
0001
0000
0000
0000
0000
0000
1000
0000
0000
0000
0000
0000
0010
0000
0000
0000
0000
0000
,
0100
0000
0000
0100
0001
0000
1000
0000
0010
0000
0000
0010
1000
0000
0001
0000
,
0010
0000
0001
1000
0001
0000
0101
0000
1100
0000
0000
0000
0001
0000
0000
0000
,
1001
0000
0000
0001
1000
0000
0010
0000
0100
0001
0000
0001
1000
0000
0010
0000
,
0100
0000
0001
1000
0001
0000
0100
0000
0010
1000
0100
1000
0100
0000
0010
0000
,
0001
0000
0000
0001
1000
0000
0010
0000
0100
0010
0000
0010
1000
0000
0001
0000
,
0100
0000
0001
1000
0001
0000
0100
0000
0010
0100
0001
0100
0001
0000
1000
0000
,
0001
0000
0100
0010
0100
0000
0001
0100
0001
0000
1000
0100
1000
0000
0001
0000
,
0010
0000
0001
0010
0001
0000
1000
0100
0010
0000
0001
0000
1000
0010
1000
0000
,
0001
0000
0000
0001
0100
0000
0010
0000
1000
0000
0000
1000
0100
0000
0010
0000
,
0001
0000
0100
0001
1000
0000
1010
0000
0011
0000
0000
0000
0000
0000
0000
0000
,
0100
0000
0000
0010
0000
0000
1000
0000
0100
0000
0000
0010
0000
0000
0001
0000
,
0100
0100
0001
1000
0010
0000
0000
0000
,
1000
0000
0000
0100
0000
0000
0010
0000
0001
0000
0000
0100
0000
0000
0001
0000
,
1000
1000
0001
0100
0010
0000
0000
0000
,
0100
0100
0001
0000
1000
1000
0010
0000
,
1000
0001
0010
0100
1000
0000
0001
0000
,
0100
0000
0001
1000
0000
0000
0010
0000
0000
0000
1000
0100
0000
0000
0010
0000
,
0000
0000
0001
0100
0000
0000
0010
0000
1000
0000
0000
0000
0001
0000
0000
0000
,
1001
0000
1000
0100
0010
0000
0001
0000
1001
0000
0001
0100
0010
0000
1000
0000
,
0001
0000
0010
0100
0010
0000
0001
0000
1000
0100
0010
0100
0010
0000
0001
0000
,
1100
0000
0100
1000
0001
0000
0100
0000
0101
0000
0001
0100
0010
0000
1000
0000
,
0001
0000
0010
0100
0010
0000
0001
0000
1000
0010
0100
0010
0100
0000
0001
0000
,
0100
0000
0010
0000
0100
0000
0001
0000
0010
0000
0001
0000
1000
0000
0010
0000
0100
0000
0001
0000
0000
1000
0000
0000
,
0010
0000
0000
0000
1000
0000
0000
0000
0010
0000
0000
0000
0100
0000
0000
0000
0000
0000
0001
0000
0000
1000
0000
0000
0100
0000
0000
0000
0000
0000
0010
0000
0000
0000
0000
0000
0001
0000
0000
0000
0000
0000
1000
0000
0000
0000
0000
0000
,
0010
0000
0100
0010
0100
0000
0001
0000
1000
0000
0010
0100
0010
0000
0100
0000
,
0101
0000
0100
0010
1000
0000
1100
0000
0101
0000
0000
0000
1000
0000
0000
0000
,
1001
0000
1000
0100
0000
0000
1000
0000
0001
0000
0100
0001
0000
0000
1000
0000
,
0010
0000
1000
0100
0010
0000
0001
0000
0100
0001
0010
0100
1000
0000
0000
0000
,
0101
0000
0100
0010
0000
0000
1000
0000
0100
0000
0100
0010
0000
0000
0001
0000
,
1000
0000
0010
0100
0001
0000
1000
0000
0001
0010
0100
1000
0001
0000
0000
0000
,
1000
0000
0001
0000
0100
0000
0001
0000
1000
0000
0010
0000
0100
0000
0001
0000
1000
0000
0100
0000
0000
0010
0000
0000
,
0001
0000
0000
0000
0100
0000
0000
0000
0010
0000
0000
0000
1000
0000
0000
0000
0000
0000
0100
0000
0000
0010
0000
0000
0001
0000
0000
0000
0000
0000
0100
0000
0000
0000
0000
0000
0010
0000
0000
1000
0000
0000
0010
0000
0000
0000
0000
0000
,
0100
0000
0001
0010
0100
0000
1000
0000
0001
0000
1000
0100
0010
0000
0001
0000
,
0100
0000
0010
1000
0010
0000
1010
0000
0101
0000
0000
0000
0000
0000
0000
0000
;

//---------------dance-single - ----------------
#NOTEDATA:;
#CHARTNAME:;
#STEPSTYPE:dance-single;
#DESCRIPTION:;
#CHARTSTYLE:;
#DIFFICULTY:Hard;
#METER:7;
#RADARVALUES:0.372791,0.369684,0.058477,0.080406,0.098680,338.000000,8.000000,11.000000,0.000000,0.000000,0.000000,0.000000,0.000000,0.372791,0.369684,0.058477,0.080406,0.098680,338.000000,8.000000,11.000000,0.000000,0.000000,0.000000,0.000000,0.000000;
#CREDIT:Ben Speirs;
#NOTES:
0000
0000
0000
0000
,
0000
0000
0000
0000
,
0000
0000
0000
0000
,
0000
0000
0000
0000
,
1000
0000
1000
0010
0100
0010
0100
0100
,
0001
0000
0001
0010
0100
0010
0100
0100
,
1000
0000
1000
0100
1000
0001
0100
0100
,
0001
0000
0001
0100
0001
1000
0100
0100
,
2000
0000
3100
1000
0010
0010
0100
0000
,
0001
1000
0001
0000
1000
0100
1000
0001
,
0010
0000
0010
0000
0001
0000
0100
0001
,
1000
0000
0010
1000
0001
0000
0010
0000
,
0001
0000
0000
0100
0000
0000
0001
0000
1000
0000
0000
0100
0000
0000
1000
0000
,
0010
0100
0010
0100
0001
0000
1000
0000
,
0001
0000
0000
0010
0000
0000
0100
0000
1000
0000
0000
0010
0000
0000
0100
0000
,
0001
1000
0001
1000
0010
0000
0100
0000
,
0010
1000
0100
0000
0010
0001
0100
0000
,
0001
1000
0001
1000
0010
0000
0100
0000
,
0020
0000
2030
0000
3200
0000
0310
0001
,
2000
0000
3100
0000
0000
1000
0001
1000
,
0010
0010
0000
0100
0001
0001
0000
1000
,
0100
0000
0000
0100
0010
0000
0001
0000
0100
0000
0000
0100
0010
0000
1000
0000
,
0100
0100
0000
1000
0001
0001
0000
0000
,
0100
0010
0000
0010
0100
0000
0001
0000
1000
0000
0000
0000
0010
0000
0000
0000
,
1000
0100
0010
0001
0100
0100
1001
0000
,
0001
0100
0010
1000
0100
0100
0010
0010
,
0001
0100
0000
0100
0010
1000
0000
0010
,
1000
0000
0001
1000
0001
0000
1000
0000
0010
0000
0000
0000
0100
0000
0000
0000
,
0001
0000
0000
0100
0000
0000
0010
0000
0000
1000
0000
0000
0001
0000
0000
0000
,
1000
0000
0100
1000
0100
0000
1000
0000
0001
0000
0000
0000
0010
0000
0001
0000
,
1000
0000
0000
0100
0000
0000
0010
0000
0000
0001
0000
0000
1000
0000
0000
0000
,
0001
0000
0100
0001
0100
0000
0001
0000
1000
0000
0000
0000
0010
0000
0000
0000
,
1000
0100
0010
0001
0100
0100
1001
0000
,
0001
0100
0010
1000
0001
0001
1000
1000
,
0010
0100
0000
0100
0001
1000
0000
0010
,
1000
0000
0100
1000
0100
0000
1000
0000
1001
0000
0000
0000
0000
0000
0000
0000
,
0002
0003
2000
3000
,
0010
0100
0020
0030
,
2000
3000
0002
0003
,
0010
0001
0200
0300
,
0001
0000
0100
0100
0000
0000
0010
0010
,
0000
0000
1000
0100
0010
0000
0001
1000
,
0010
0000
0100
0100
0000
0000
0001
0001
,
0000
0000
0100
0001
0000
1000
1000
0001
,
0010
0100
0000
0100
1000
0010
0000
0010
,
0100
0000
0001
1000
0001
0000
1000
0000
0010
0000
0000
0000
0100
0000
0001
0000
,
1000
1000
0000
0001
0100
0100
0000
0000
,
0001
1000
0000
1000
0001
0000
0100
0000
0010
0000
0000
0000
1000
0000
0000
0000
,
0100
1000
0001
0010
0100
1000
1001
0000
,
0001
1000
0010
0100
0010
0010
1000
1000
,
0001
0010
0000
0010
0001
1000
0000
1000
,
0100
0000
1000
0001
1000
0000
0010
0000
0100
0000
0000
0000
0110
0000
0000
0000
,
1001
0000
0000
0001
0000
0000
1000
0000
0000
1000
0000
0000
0010
0000
0000
0000
,
1000
0000
0010
0100
0010
0000
0100
0000
0001
0000
0000
0000
1000
0000
0000
0000
,
1100
0000
0000
0100
0000
0000
0010
0000
0000
0010
0000
0000
0001
0000
0000
0000
,
1000
0000
0010
1000
0010
0000
0100
0000
0001
0000
0000
0000
1000
0000
0000
0000
,
0001
0100
1000
0100
0010
1000
0100
0000
,
1000
0100
0001
0100
0010
0010
0001
0001
,
0100
0010
0000
0010
1000
0100
0000
0100
,
0010
0000
0001
1000
0001
0000
0100
0000
0110
0000
0000
0000
0000
0000
0000
0000
;

//---------------dance-double - ----------------
#NOTEDATA:;
#CHARTNAME:;
#STEPSTYPE:dance-double;
#DESCRIPTION:;
#CHARTSTYLE:;
#DIFFICULTY:Challenge;
#METER:9;
#RADARVALUES:0.559708,0.521907,0.095025,0.000000,0.511673,523.000000,13.000000,0.000000,0.000000,0.000000,0.000000,0.000000,0.000000,0.559708,0.521907,0.095025,0.000000,0.511673,523.000000,13.000000,0.000000,0.000000,0.000000,0.000000,0.000000,0.000000;
#CREDIT:Ben Speirs;
#NOTES:
00000000
00000000
00000000
00000000
,
00000000
00000000
00000000
00000000
,
00000000
00000000
00000000
00000000
,
00000000
00000000
00000000
00000000
,
00000001
00000000
00000000
00000000
00001000
00000000
00000010
00000100
00000010
00000000
00000100
00000010
00000100
00000000
00000001
00000000
,
00001000
00000000
00000000
00000000
00000001
00000000
00000010
00000100
00000010
00000000
00000100
00000010
00000100
00000000
00001000
00000000
,
00000001
00000000
00000000
00000000
00001000
00000000
00000100
00001000
00000100
00000000
00010000
00000100
00010000
00000000
00001000
00000000
,
00100000
00000000
00000000
00000000
00001000
00000000
00100000
00010000
00100000
00000000
00001000
00100000
00001000
00000000
00100000
00000000
,
00010000
00000000
00000000
00010000
01000000
00000000
00100000
01000000
00100000
00000000
10000000
00100000
10000000
00000000
01000000
00000000
,
10000000
00000000
00000000
10000000
01000000
00000000
00100000
01000000
00100000
00000000
00010000
00100000
00010000
00000000
01000000
00000000
,
00010000
00000000
00000000
00010000
01000000
00000000
00000000
01000000
00001000
00000000
00000000
00001000
00010000
00000000
00000100
00000000
,
00001000
00000000
00000000
00001000
00000010
00000000
00000100
00000000
00000001
00000000
00000000
00000001
00000010
00000000
00000100
00000000
,
00001000
00000000
00000010
00000100
00000000
00000000
00000010
00000100
00000010
00000000
00000100
00000001
00000000
00000000
00000100
00000000
,
00000001
00000000
00000010
00000000
00000100
00000000
00001000
00000000
00000010
00001000
00000100
00001000
00000100
00000000
00001000
00000100
,
00010000
00000000
00001000
00010000
00000000
00000000
00001000
00010000
00001000
00000000
00100000
00001000
00000000
00000000
00100000
00010000
,
00100000
00000000
00001000
00000000
00010000
00000000
00001000
00000000
00100000
00010000
01000000
00010000
01000000
00000000
00010000
10000000
,
00010000
00000000
01000000
00100000
00000000
00000000
10000000
01000000
10000000
00000000
00100000
01000000
00000000
00000000
00010000
10000000
,
00010000
00000000
01000000
00000000
00100000
00000000
10000000
00000000
01000000
00100000
00010000
00100000
00010000
00000000
01000000
00010000
,
01000000
00000000
00010000
00100000
00000000
00000000
00010000
00000000
00100000
00000000
00001000
00010000
00000000
00000000
00001000
00000000
,
00010000
00000000
00000000
00000100
00001000
00000000
00000010
00000000
00000000
00000000
00000100
00000000
00000100
00000000
00000010
00000000
,
00001010
00000000
00001000
00000100
00001000
00000000
00000001
00000000
00000101
00000000
00000100
00000001
00000100
00000000
00000010
00000000
,
00001000
00000100
00000000
00000100
00010000
00000000
00001000
00000000
00100000
00010000
01000000
00010000
01000000
00000000
00010000
00000000
,
10000000
00000000
00100000
01000000
00100000
00000000
10000000
00000000
00010000
00000000
00100000
01000000
00100000
00000000
00010000
00000000
,
10000000
01000000
00000000
01000000
00100000
00000000
00010000
00000000
01000000
00001000
01000000
00001000
01000000
00000000
00010000
00000000
,
10000000
00000000
01000000
00100000
00010000
00000000
01000000
00100000
10000000
00000000
01000000
00100000
00010000
00000000
01000000
00000000
,
00010000
00000000
00100000
00001000
00010000
00000000
00001000
00010000
00000100
00000000
00000100
00000000
00001000
00000000
00000010
00000000
,
00000100
00000000
00000100
00000010
00001000
00000000
00000001
00000000
00000010
00000000
00000010
00000001
00000100
00000000
00000010
00000000
,
00001000
00000000
00000001
00000010
00000100
00000000
00001100
00000000
00000101
00000000
00000000
00000000
00001000
00000000
00000000
00000000
,
00000001
00000000
00000100
00000010
00000000
00000010
00001000
00000000
00001000
00000100
00000000
00000100
00010000
00000000
00010000
00000000
,
00001000
00000000
00100000
00010000
00100000
00000000
00001000
00000000
00010000
00000000
00100000
00010000
00100000
00000000
10000000
00000000
,
01000000
00000000
01000000
10000000
00000000
10000000
00100000
00000000
00100000
01000000
00000000
01000000
00010000
00000000
00100000
00000000
,
00001000
00000000
00100000
00010000
00100000
00000000
00001000
00000000
00010000
00000000
00000010
00010000
00001000
00000000
00000010
00000000
,
00000001
00000000
00000010
00000001
00000100
00000000
00000001
00000100
00000010
00000000
00001000
00000100
00010000
00000000
00000010
00000000
,
00001000
00000000
00000010
00001000
00000100
00000000
00010000
00001000
00100000
00000000
00010000
00000000
01000000
00100000
01000000
00000000
,
00010000
00000000
10000000
01000000
10000000
00000000
00100000
00000000
01000000
00000000
00010000
10000000
00010000
00000000
01000000
00000000
,
00010000
00000000
00100000
00001000
00010000
00000000
00011000
00000000
00010100
00000000
00000000
00000000
00000000
00000000
00000000
00000000
,
00000100
00000000
00001000
00000100
00000000
00000000
00001000
00000000
00000001
00000000
00000100
00000001
00000000
00000000
00000100
00000000
,
00000010
00000000
00000010
00000000
00001000
00000000
00000100
00001000
00000100
00000000
00000000
00000000
00010000
00000000
00000000
00000000
,
00000100
00000000
00010000
00000100
00000000
00000000
00010000
00000000
00001000
00000000
00100000
00001000
00000000
00000000
00010000
00000000
,
00001000
00000000
01000000
00000000
00010000
00000000
10000000
01000000
10000000
00000000
00000000
00000000
00010000
00000000
00000000
00000000
,
10000000
00000000
00000000
00100000
10000000
00000000
00010000
00000000
00000000
00000000
00000000
00100000
00010000
00000000
01000000
00000000
,
00000000
00000000
00000000
00010000
10000000
00000000
00010000
00000000
00000000
00000000
00000000
10000000
01000000
00000000
00100000
00000000
,
00010000
00000000
00000000
01000000
00001000
00000000
00010000
00000000
00000100
00000000
00000000
00001000
00000010
00000000
00000100
00000000
,
00000001
00000000
00000000
00000010
00000001
00000000
00001000
00000000
00000000
00000000
00000100
00000000
00001100
00000000
00000000
00000000
,
00001001
00000000
00001000
00000100
00000010
00000000
00000001
00000000
00001001
00000000
00000001
00000100
00000010
00000000
00001000
00000000
,
00000100
00010000
00000000
00010000
00001000
00000000
00100000
00000000
00010000
01000000
00001000
01000000
00001000
00000000
01000000
00000000
,
00010000
00000000
10000000
00100000
01000000
00000000
00010000
00000000
10000000
00000000
01000000
00100000
00010000
00000000
10000000
00000000
,
00100000
01000000
00000000
01000000
00010000
00000000
00100000
00000000
00001000
00100000
00010000
00100000
00010000
00000000
01000000
00000000
,
00010000
00000000
00100000
00001000
00010000
00000000
00001000
00010000
00000010
00000000
00001000
00000010
00000100
00000000
00000001
00000000
,
00000010
00000000
00000100
00001000
00000010
00000000
00000100
00001000
00010000
00000000
00001000
00000000
00100000
00010000
01000000
00000000
,
00100000
00000000
00000000
10000000
00100000
01000000
00010000
00000000
10000000
00000000
00000000
00010000
00100000
01000000
10000000
00000000
,
00100000
00000000
01000000
00100000
01000000
00000000
01100000
00000000
10010000
00000000
00000000
00000000
10000000
00000000
00000000
00000000
,
00010000
00000000
00100000
00010000
00000000
10000000
00100000
00000000
01000000
00010000
00000000
00100000
00001000
00000000
00010000
00000000
,
00000010
00000000
00000100
00000010
00000100
00000000
00000001
00000000
00001000
00000000
00000010
00000100
00000010
00000000
00001000
00000000
,
00000001
00000000
00000010
00000100
00000000
00001000
00000100
00000000
00010000
00001000
00000000
00100000
00010000
00000000
01000000
00000000
,
00001000
00000000
01000000
00010000
01000000
00000000
00100000
00000000
10000000
00000000
00010000
00100000
00010000
00000000
10000000
00000000
,
00100000
00000000
01000000
00010000
00100000
00000000
00010000
00100000
00000010
00000000
00001000
00000010
00010000
00000000
00000100
00000000
,
00000010
00000000
00000001
00000100
00000010
00000000
00001000
00000100
00010000
00000000
00001000
00000000
00010000
00000010
00001000
00000000
,
00000010
00000000
00000100
00000010
00000100
00000000
00000001
00000000
00000010
00000000
00000100
00000010
00000100
00000000
00001000
00000000
,
00000001
00000000
00000100
00001000
00010000
00000000
00011000
00000000
00101000
00000000
00000000
00000000
00000000
00000000
00000000
00000000
;

//---------------dance-single - ----------------
#NOTEDATA:;
#CHARTNAME:;
#STEPSTYPE:dance-single;
#DESCRIPTION:;
#CHARTSTYLE:;
#DIFFICULTY:Medium;
#METER:5;
#RADARVALUES:0.308048,0.369684,0.109644,0.372791,0.000000,229.000000,15.000000,51.000000,0.000000,0.000000,0.000000,0.000000,0.000000,0.308048,0.369684,0.109644,0.372791,0.000000,229.000000,15.000000,51.000000,0.000000,0.000000,0.000000,0.000000,0.000000;
#CREDIT:Ben Speirs;
#NOTES:
0000
0000
0000
0000
,
0000
0000
0000
0000
,
0000
0000
0000
0000
,
0000
0000
0000
0000
,
0001
0000
0100
0000
0010
0100
0010
0000
,
1000
0000
0000
0000
0001
0010
0100
0000
,
1000
0000
1000
0000
0010
0100
0010
0000
,
1000
0000
0000
0000
0001
0010
0100
0000
,
2000
0000
3200
0000
0310
0001
0010
0000
,
0002
0000
0203
0000
0310
1000
0010
0000
,
2000
3002
0203
0320
,
0230
0300
0001
1000
,
0010
1000
0010
0000
0100
0001
0100
0000
,
0001
1000
0001
0000
2000
0000
3100
0000
,
1000
0100
1000
0000
0001
0010
0001
0000
,
1000
0001
1000
0000
0002
0000
0103
0000
,
0001
0100
0010
0000
1000
0100
0010
0000
,
0001
1000
0010
0010
,
1000
0100
1000
0000
0001
0010
0001
0000
,
0100
0010
0000
1001
,
2000
3100
0002
0103
,
1000
0000
0010
1000
0001
0000
0000
0000
,
2000
3010
0002
0013
,
1000
0000
0001
1000
0100
0000
0000
0000
,
2000
3100
1100
1100
,
0002
0103
0101
0101
,
2000
3010
0002
0013
,
0001
1000
0010
0100
0001
0000
0000
0000
,
2000
0100
0010
3001
,
1000
0001
1000
0001
0100
0000
0000
0000
,
0002
0010
0100
1003
,
0001
1000
0001
1000
0010
0000
0000
0000
,
2000
3020
0130
0100
,
0002
0023
0130
0100
,
2002
3003
2002
3003
,
1000
0100
0010
0001
0100
0000
0000
0000
,
0002
0003
0000
0000
,
2000
3000
0000
0000
,
0020
0030
0000
0000
,
0200
0300
0000
0000
,
0000
0000
0001
0001
0000
0000
1000
1000
,
0000
0000
0010
0010
0000
0000
0100
0100
,
0000
0000
0001
0001
0000
0000
1000
1000
,
0000
0000
0100
0100
0000
0000
1001
0000
,
2000
3010
0002
0013
,
0001
0000
0100
0010
0100
0000
0000
0000
,
0002
0103
2000
3100
,
1000
0000
0010
0100
0010
0000
0000
0000
,
2000
3010
1010
1010
,
0002
0013
0011
0011
,
0200
0300
0200
0300
,
0001
0010
0100
1000
0001
0000
0000
0000
,
2000
3002
2003
3002
,
0103
0010
0100
0010
0100
0000
0110
0000
,
0002
2003
3002
2003
,
3001
0010
0100
1000
0001
0000
0000
0000
,
2100
3001
0100
0100
,
0102
0000
1003
0000
0010
1000
0001
0000
,
0010
0010
0000
0000
0010
0010
0000
0000
,
0001
0010
0100
1000
0001
0000
0000
0000
;

//---------------dance-single - ----------------
#NOTEDATA:;
#CHARTNAME:;
#STEPSTYPE:dance-single;
#DESCRIPTION:;
#CHARTSTYLE:;
#DIFFICULTY:Easy;
#METER:3;
#RADARVALUES:0.175431,0.217461,0.029238,0.131573,0.000000,146.000000,4.000000,18.000000,0.000000,0.000000,0.000000,0.000000,0.000000,0.175431,0.217461,0.029238,0.131573,0.000000,146.000000,4.000000,18.000000,0.000000,0.000000,0.000000,0.000000,0.000000;
#CREDIT:Ben Speirs;
#NOTES:
// measure 0
0000
0000
0000
0000
,  // measure 1
0000
0000
0000
0000
,  // measure 2
0000
0000
0000
0000
,  // measure 3
0000
0000
0000
0000
,  // measure 4
1000
0000
0010
0010
,  // measure 5
0100
0000
0001
0001
,  // measure 6
0010
0000
0100
0100
,  // measure 7
1000
0000
0010
0000
,  // measure 8
1000
0000
0100
1000
,  // measure 9
0001
0000
0100
0001
,  // measure 10
1000
1000
1000
0000
,  // measure 11
0010
0000
0000
0000
,  // measure 12
1000
1000
0000
0000
,  // measure 13
0001
1000
0010
0000
,  // measure 14
0100
0100
0000
0000
,  // measure 15
0010
1000
0001
0000
,  // measure 16
0001
0001
0000
0000
,  // measure 17
0100
0001
1000
0000
,  // measure 18
0010
0010
0010
0100
,  // measure 19
0001
0000
0000
1000
,  // measure 20
0020
0030
0020
0030
,  // measure 21
1000
0100
0010
0000
,  // measure 22
0200
0300
0200
0300
,  // measure 23
1000
0001
0010
0000
,  // measure 24
0001
0001
1000
1000
,  // measure 25
0010
0010
0100
0100
,  // measure 26
0002
0003
2000
3000
,  // measure 27
0010
0010
1001
0000
,  // measure 28
1000
0100
0010
0010
,  // measure 29
0001
0000
1000
0000
,  // measure 30
0001
0100
0010
0010
,  // measure 31
1000
0000
0001
0000
,  // measure 32
1000
1000
0100
0000
,  // measure 33
0010
0010
0001
0000
,  // measure 34
0200
0300
0200
0300
,  // measure 35
0001
1000
1001
0000
,  // measure 36
0002
0000
0003
0000
,  // measure 37
2000
0000
3000
0000
,  // measure 38
0020
0000
0030
0000
,  // measure 39
0200
0000
0300
0000
,  // measure 40
0000
0001
0000
1000
,  // measure 41
0000
0010
0000
0100
,  // measure 42
0000
0001
0000
1000
,  // measure 43
0000
0010
0000
0010
,  // measure 44
1001
0000
1000
0000
,  // measure 45
0001
1000
0100
0000
,  // measure 46
0010
0000
0010
0000
,  // measure 47
0001
1000
0010
0000
,  // measure 48
2000
3000
1000
1000
,  // measure 49
0002
0003
0001
0001
,  // measure 50
0200
0300
0200
0300
,  // measure 51
0001
1000
1001
0000
,  // measure 52
1000
0010
0100
0001
,  // measure 53
0010
0010
0010
0000
,  // measure 54
0001
0010
0100
1000
,  // measure 55
0100
0100
0100
0000
,  // measure 56
1000
0001
0100
0000
,  // measure 57
0001
1000
0100
0000
,  // measure 58
2000
3000
0002
0003
,  // measure 59
0100
0010
0010
0000
;

//---------------dance-single - ----------------
#NOTEDATA:;
#CHARTNAME:;
#STEPSTYPE:dance-single;
#DESCRIPTION:;
#CHARTSTYLE:;
#DIFFICULTY:Beginner;
#METER:1;
#RADARVALUES:0.091892,0.130477,0.029238,0.000000,0.000000,84.000000,4.000000,0.000000,0.000000,0.000000,0.000000,0.000000,0.000000,0.091892,0.130477,0.029238,0.000000,0.000000,84.000000,4.000000,0.000000,0.000000,0.000000,0.000000,0.000000,0.000000;
#CREDIT:Ben Speirs;
#NOTES:
// measure 0
0000
0000
0000
0000
,  // measure 1
0000
0000
0000
0000
,  // measure 2
0000
0000
0000
0000
,  // measure 3
0000
0000
0000
0000
,  // measure 4
0001
0000
0000
0000
,  // measure 5
0100
0000
0000
0000
,  // measure 6
0010
0000
0000
0000
,  // measure 7
0100
0000
0000
0000
,  // measure 8
0001
0000
0000
0000
,  // measure 9
1000
0000
0000
0000
,  // measure 10
0010
0000
0010
0000
,  // measure 11
0010
0000
0000
0000
,  // measure 12
1001
0000
0000
0000
,  // measure 13
1000
1000
1000
0000
,  // measure 14
1000
0000
0000
0000
,  // measure 15
0010
0010
0010
0000
,  // measure 16
0010
0000
0000
0000
,  // measure 17
0100
0100
0100
0000
,  // measure 18
0100
0000
0000
0000
,  // measure 19
0001
0000
0000
1000
,  // measure 20
1000
0000
1000
0000
,  // measure 21
0001
0000
0000
0000
,  // measure 22
0001
0000
0001
0000
,  // measure 23
0100
0000
0000
0000
,  // measure 24
0010
0010
0000
0000
,  // measure 25
0010
0010
0000
0000
,  // measure 26
1000
0000
1000
0000
,  // measure 27
0001
0000
0000
0000
,  // measure 28
1001
0000
0000
0000
,  // measure 29
0010
0010
0010
0000
,  // measure 30
1000
0000
0000
0000
,  // measure 31
0001
0001
0001
0000
,  // measure 32
0100
0000
0000
0000
,  // measure 33
0010
0000
0000
0000
,  // measure 34
1000
0000
1000
0000
,  // measure 35
1000
0000
0000
0000
,  // measure 36
0001
0000
0000
0000
,  // measure 37
1000
0000
0000
0000
,  // measure 38
0100
0000
0000
0000
,  // measure 39
0010
0000
0000
0000
,  // measure 40
0000
0001
0000
0001
,  // measure 41
0000
0000
0000
0000
,  // measure 42
0000
1000
0000
1000
,  // measure 43
0000
0000
0000
0000
,  // measure 44
1001
0000
0000
0000
,  // measure 45
1000
1000
1000
0000
,  // measure 46
1000
0000
0000
0000
,  // measure 47
0010
0010
0010
0000
,  // measure 48
0010
0000
0000
0000
,  // measure 49
0100
0000
0000
0000
,  // measure 50
0001
0000
0001
0000
,  // measure 51
1000
0000
0000
0000
,  // measure 52
1001
0000
0000
0000
,  // measure 53
1000
1000
0000
0000
,  // measure 54
0010
0000
0000
0000
,  // measure 55
0100
0100
0000
0000
,  // measure 56
0001
0000
0000
0000
,  // measure 57
1000
0000
0000
0000
,  // measure 58
0010
0000
0010
0000
,  // measure 59
0100
0100
0100
0000
;
