#VERSION:0.82;
#TITLE:Advice;
#SUBTITLE:;
#ARTIST:Christina Grimmie;
#TITLETRANSLIT:;
#SUBTITLETRANSLIT:;
#ARTISTTRANSLIT:;
#GENRE:RIP Christina Grimmie;
#ORIGIN:;
#CREDIT:;
#BANNER:Advice.png;
#BACKGROUND:Advice-bg.png;
#PREVIEWVID:;
#JACKET:jacket.png;
#CDIMAGE:;
#DISCIMAGE:;
#LYRICSPATH:;
#CDTITLE:cdtitle.png;
#MUSIC:Advice.ogg;
#OFFSET:-0.240000;
#SAMPLESTART:53.753189;
#SAMPLELENGTH:17.959999;
#SELECTABLE:YES;
#BPMS:0.000=130.000;
#STOPS:;
#DELAYS:;
#WARPS:;
#TIMESIGNATURES:0.000=4=4;
#TICKCOUNTS:0.000=4;
#COMBOS:0.000=1;
#SPEEDS:0.000=1.000=0.000=0;
#SCROLLS:0.000=1.000;
#FAKES:;
#LABELS:0.000=Song Start;
#BGCHANGES:8.000=Advice.avi=1.000=0=0=1=====,
99999=-nosongbg-=1.000=0=0=0 // don't automatically add -songbackground-
;
#KEYSOUNDS:;
#ATTACKS:
;

//---------------dance-single - ----------------
#NOTEDATA:;
#CHARTNAME:;
#STEPSTYPE:dance-single;
#DESCRIPTION:;
#CHARTSTYLE:;
#DIFFICULTY:Hard;
#METER:8;
#RADARVALUES:0.542698,0.580812,0.104557,0.257906,0.132438,493.000000,15.000000,37.000000,0.000000,0.000000,0.000000,0.000000,0.000000,0.542698,0.580812,0.104557,0.257906,0.132438,493.000000,15.000000,37.000000,0.000000,0.000000,0.000000,0.000000,0.000000;
#CREDIT:Ben Speirs;
#NOTES:
// measure 0
0000
0000
0000
0000
,  // measure 1
0000
0000
0000
0000
,  // measure 2
0000
0000
0000
0000
,  // measure 3
0000
0000
0000
0000
,  // measure 4
0001
0000
0201
0000
0000
0000
0301
0010
,  // measure 5
0100
0010
0001
1000
0010
0100
0001
1000
,  // measure 6
0020
0000
1030
0000
0100
1000
0100
0000
,  // measure 7
1000
0001
1000
0010
0100
0001
1000
0001
,  // measure 8
0200
0000
0320
1030
,  // measure 9
0010
1000
0100
1000
0001
0000
0010
0001
,  // measure 10
2000
0000
3100
0000
1000
0100
0010
0001
,  // measure 11
1000
0000
0000
0010
0010
0000
0010
0000
,  // measure 12
1001
0000
1100
0000
0001
1000
0001
0000
,  // measure 13
1000
0100
0010
0001
0100
0010
1000
0000
,  // measure 14
1010
0000
1001
0000
0100
0001
1000
0000
,  // measure 15
0001
0010
0100
0010
0001
1000
0010
0000
,  // measure 16
1002
0100
2003
3100
,  // measure 17
1000
0100
1000
0001
0010
0001
1000
0010
,  // measure 18
0200
0000
0301
1000
0010
1000
0001
0010
,  // measure 19
0200
0000
0000
0000
1300
0000
0000
0010
0100
0001
0100
0000
0010
0000
1000
0100
,  // measure 20
2000
0000
0000
0000
3001
0000
0010
0000
0100
0000
0010
0000
0001
1000
0001
0000
,  // measure 21
0100
0010
1000
1000
0100
0010
0002
0000
,  // measure 22
0103
0000
0010
0000
0100
0000
0001
0000
1000
0000
0010
0000
1000
0100
1000
0000
,  // measure 23
0002
0000
0023
0000
0130
1000
0010
0000
,  // measure 24
1000
0000
0100
0000
1000
0000
0010
0000
0100
0000
0001
0000
1000
0010
1000
0000
,  // measure 25
0001
0010
0100
0010
0001
1000
0010
0000
,  // measure 26
0100
0001
0100
0010
1000
0100
0010
0001
,  // measure 27
1000
0000
0100
0000
1000
0000
0001
0000
0010
0000
0001
0000
0100
0010
0100
0010
,  // measure 28
2000
0000
0000
3000
,  // measure 29
0101
0000
2000
0000
3020
0000
1030
0100
,  // measure 30
1000
0001
0010
0001
0100
0100
0010
0000
,  // measure 31
2010
0000
3002
0000
0023
0000
0031
0100
,  // measure 32
0010
0100
0001
1000
0100
0100
0010
0000
,  // measure 33
0012
0000
2003
0000
3020
0000
0130
0001
,  // measure 34
2000
0000
0000
0000
3001
0010
0100
1000
,  // measure 35
0002
0000
0103
0010
2000
0000
3100
0010
,  // measure 36
0001
0100
0010
1000
0100
0010
0001
0000
,  // measure 37
1000
0000
0000
1000
0000
0000
0100
0000
0000
0000
1000
0000
0000
0000
0001
0000
,  // measure 38
0100
0000
0000
0100
0000
0000
0010
0000
0000
0000
1000
0000
0000
0000
0001
0000
,  // measure 39
0010
0000
0000
0010
0000
0000
0001
0000
0000
0000
1000
0000
0000
0000
0010
0000
,  // measure 40
0100
0000
0000
0100
0000
0000
0010
0000
0000
0000
1000
0000
0000
0000
1000
0000
,  // measure 41
0001
0000
0010
0100
0000
0010
0100
0000
1000
0000
0010
0000
0100
0000
0001
0000
,  // measure 42
1000
0000
0100
0010
0000
0100
0010
0000
0001
0000
1000
0000
0010
0000
0100
0000
,  // measure 43
0001
0000
1000
0100
0000
1000
0100
0000
0010
0000
0001
0000
1000
0000
0010
0000
,  // measure 44
0100
0000
0001
1000
0000
0001
1000
0000
0010
0000
0100
0000
0001
0000
0000
0000
,  // measure 45
1000
0000
0100
1000
0000
1000
0100
0000
0010
0000
0001
0000
0100
0010
0100
0000
,  // measure 46
0001
0000
1000
0010
0000
0010
0100
0000
0001
0000
1000
0000
0100
0010
0100
0000
,  // measure 47
1000
0000
0001
0100
0000
0100
0010
0000
1000
0000
0001
0000
0010
0100
0010
0000
,  // measure 48
0001
0100
0001
0100
0010
1000
0010
1000
,  // measure 49
0001
0010
0001
0000
1000
0010
1000
0000
0001
0100
0001
0000
1000
0100
1000
0000
,  // measure 50
0002
0000
0000
0003
,  // measure 51
2100
0000
0001
3100
2000
0000
3001
0010
,  // measure 52
0100
0010
0001
1000
0010
0010
0100
0001
,  // measure 53
0012
0000
1000
0013
0002
0000
1003
0100
,  // measure 54
0010
0100
1000
0001
0100
0100
0010
1000
,  // measure 55
0001
0100
0010
0100
1000
0100
0010
0100
,  // measure 56
0002
0000
2003
0000
3001
0010
0100
0000
,  // measure 57
1000
0100
0010
0100
0001
0100
0010
0100
,  // measure 58
2000
0000
3001
0000
1000
0010
0100
0000
,  // measure 59
1001
0010
1000
0010
1000
0000
1001
0010
,  // measure 60
0001
0010
0001
0000
1001
0100
1000
0000
,  // measure 61
0001
0100
0001
0100
0010
1000
0100
0010
,  // measure 62
0100
0010
0001
1000
0010
0100
0001
0000
,  // measure 63
1000
0100
1000
0100
0010
0001
0100
1000
,  // measure 64
0200
0000
0320
0000
1030
0100
1000
0000
,  // measure 65
0001
0010
0001
0000
1000
0000
0010
0000
0100
0000
0001
0000
1000
0000
0000
0000
,  // measure 66
0010
0000
1000
0100
1000
0000
0000
0001
0100
0000
0100
0000
0010
1000
0010
1000
,  // measure 67
0001
0010
0100
1000
0010
0100
0001
1000
,  // measure 68
0100
0010
0001
0100
1000
0100
0001
0010
,  // measure 69
1000
0010
0001
1000
0100
0010
0001
1000
,  // measure 70
0010
1000
0001
0010
0100
1000
0001
0100
,  // measure 71
0100
0010
1000
0010
0001
0010
0100
0001
,  // measure 72
1000
0100
0001
0100
0010
0001
1000
0010
,  // measure 73
0010
1000
0100
0010
0001
0100
0010
0100
,  // measure 74
0001
1000
0100
0010
0001
1000
0010
0010
,  // measure 75
2002
0000
0000
3003
;

//---------------dance-double - ----------------
#NOTEDATA:;
#CHARTNAME:;
#STEPSTYPE:dance-double;
#DESCRIPTION:;
#CHARTSTYLE:;
#DIFFICULTY:Challenge;
#METER:8;
#RADARVALUES:0.512825,0.528011,0.167291,0.334581,0.076675,443.000000,24.000000,48.000000,0.000000,0.000000,0.000000,0.000000,0.000000,0.512825,0.528011,0.167291,0.334581,0.076675,443.000000,24.000000,48.000000,0.000000,0.000000,0.000000,0.000000,0.000000;
#CREDIT:Ben Speirs;
#NOTES:
00000000
00000000
00000000
00000000
,
00000000
00000000
00000000
00000000
,
00000000
00000000
00000000
00000000
,
00000000
00000000
00000000
00000000
,
00020000
01030000
00200000
10300000
,
00010000
00100000
00010000
00000000
10000000
01000000
00010000
00000000
,
00002000
00000000
00010000
00103000
,
00001000
00010000
00001000
00010000
00000100
00001000
00000010
00000000
,
00000200
00000000
00000310
00001000
00000200
00000000
00000310
00000000
,
00000100
00001000
00000100
00010000
00000100
00001000
00000100
00000010
,
00000002
00000100
00001000
00001003
,
00002100
00000000
00000000
00000001
00003002
00000000
00000103
00000000
,
00001000
00000100
00001100
00000000
00000001
00000000
00001001
00000000
,
00000010
00001000
00000010
00001000
00000100
00010000
00001000
00100000
,
00020000
00000000
01030000
00100000
20000000
00000000
32000000
00000000
,
03100000
00010000
00100000
00001000
00100000
00010000
01000000
00100000
,
20000000
00000000
00000000
30010000
00020000
00000000
01000000
00000000
,
10030000
01000000
10000000
00000000
00010000
00100000
00010000
00000000
,
20000000
00000000
00100000
00000000
00010000
00000000
30100000
01000000
,
00020000
01000000
10030000
10010000
,
20000000
00000000
31000000
00100000
01000000
00000000
00100000
00010000
,
00100000
00000000
00010000
00100000
01000000
10000000
00100000
01000000
,
00010000
00000000
00100000
00010000
00100000
00001000
00010000
00001000
,
00010000
00000100
00001000
00000010
00000100
00000001
00001000
00000010
,
00000200
00000000
00000301
00001000
00000020
00000000
00002030
00000000
,
00003001
00000010
00000100
00000000
00000010
00000001
00001000
00000000
,
00000010
00001000
00000100
00010000
00000100
00001000
00000010
00000100
,
00000010
00001000
00000100
00010000
00000100
00001000
00000010
00000100
,
00000002
00000000
00000000
00000003
,
00001001
00000000
00001100
00000000
00011000
00000000
00010000
00000100
,
00001000
00000100
00000010
00000001
00000100
00000100
00000010
00000000
,
00001010
00000000
00011000
00000000
00101000
00000000
00100000
00010000
,
00100000
00001000
00010000
00100000
10000000
01000000
00100000
00000000
,
00020000
20030000
32000000
03200000
,
00320000
00000000
00000000
00000000
01030000
00100000
01000000
00100000
,
20000000
00000000
31000000
00100000
00020000
00000000
01030000
00100000
,
20000000
00000000
30020000
00000000
00130000
00001000
00010000
00000000
,
00101000
00000000
00000000
00001000
00000000
00000000
00010000
00000000
00000000
00000000
00000100
00000000
00000000
00000000
00001000
00000000
,
00000010
00000000
00000000
00000010
00000000
00000000
00000100
00000000
00000000
00000000
00000001
00000000
00000000
00000000
00001000
00000000
,
00000100
00000000
00000000
00000100
00000000
00000000
00000010
00000000
00000000
00000000
00000001
00000000
00000000
00000000
00001000
00000000
,
00000010
00000000
00000000
00000010
00000000
00000000
00010000
00000000
00000000
00000000
00001000
00000000
00000000
00000000
00100000
00000000
,
00001000
00000000
00010000
00001000
00000000
00010000
00001000
00000000
00100000
00000000
00010000
00000000
01000000
00000000
00000000
00000000
,
00100000
00000000
10000000
01000000
00000000
10000000
01000000
00000000
00100000
00000000
00010000
00000000
10000000
00000000
00000000
00000000
,
00010000
00000000
01000000
00010000
00000000
01000000
00010000
00000000
10000000
00000000
01000000
00000000
00100000
00000000
00000000
00000000
,
00110000
00101000
00021000
00030100
,
00001000
00000000
00000010
00000100
00000000
00000100
00000010
00000000
00001000
00000000
00000100
00000000
00000010
00000000
00000001
00000000
,
00001000
00000000
00000010
00000100
00000000
00000100
00000010
00000000
00001000
00000000
00000100
00000000
00000010
00000000
00000001
00000000
,
00001000
00000000
00000100
00010000
00000000
00010000
00000100
00000000
00001000
00000000
00000100
00000000
00000010
00000000
00000001
00000000
,
00000100
00000010
00001000
00000100
00010000
00001000
00100000
00010000
,
01000000
00100000
01000000
00000000
00010000
00000000
10000000
00000000
01000000
00100000
01000000
00000000
00100000
00000000
00010000
00000000
,
02000000
00000000
00000000
03000000
,
01010000
00000000
00011000
00000000
00001100
00000000
00001000
00000001
,
00000010
00000100
00001000
00000001
00000100
00000100
00000010
00000000
,
00001010
00000000
00011000
00000000
00110000
00000000
00100000
00010000
,
01000000
01000000
00100000
10000000
01000000
00100000
00010000
00000000
,
20000000
32000000
03020000
00032000
,
00003200
00000000
00000001
00000000
00000310
00000100
00000001
00000010
,
00000200
00000000
00001300
00000100
00000020
00000000
00000031
00001000
,
00000020
00000000
00000000
00000000
00000001
00000000
00000000
00000000
00001030
00000000
00000100
00000000
00001000
00000001
00001000
00000000
,
00000020
00000000
00000130
00000001
00002000
00000000
00003100
00000020
,
00000000
00000032
00000000
00000103
00000010
00001000
00000100
00000000
,
00001100
00000000
00010100
00000000
00011000
00000000
00100000
00001000
,
00010000
00001000
00100000
00010000
01000000
00100000
10000000
00000000
,
00010000
00100000
00010000
01000000
00010000
10000000
00010000
01000000
,
00020000
00000000
00130000
00000000
00010000
00100000
01000000
00000000
,
10000000
01000000
10000000
00100000
10000000
00010000
10000000
01000000
,
00100000
00000000
00100000
00000000
00010000
00000000
00000000
01000000
00100000
00000000
10000000
00000000
00010000
00100000
00010000
00100000
,
02000000
00000000
13000000
00100000
01000000
00010000
10000000
01000000
,
00010000
00001000
00000100
00000001
00000010
00000100
00001000
00000001
,
00000200
00000000
00000310
00001000
00000100
00000010
00000001
00001000
,
00000010
00000100
00000010
00001000
00000100
00000010
00000001
00000000
,
00001000
00000100
00010000
00000100
00001000
00000001
00000010
00000001
,
00001000
00000100
00010000
00000100
00001000
00000001
00000010
00000001
,
00000100
00000010
00001000
00000100
00010000
00001000
00100000
00010000
,
01000000
01000000
00100000
10000000
01000000
00100000
00010000
01000000
,
02002000
00000000
00000000
03003000
;

//---------------dance-single - ----------------
#NOTEDATA:;
#CHARTNAME:;
#STEPSTYPE:dance-single;
#DESCRIPTION:;
#CHARTSTYLE:;
#DIFFICULTY:Medium;
#METER:5;
#RADARVALUES:0.345535,0.369608,0.181231,0.292758,0.000000,279.000000,26.000000,42.000000,0.000000,0.000000,0.000000,0.000000,0.000000,0.345535,0.369608,0.181231,0.292758,0.000000,279.000000,26.000000,42.000000,0.000000,0.000000,0.000000,0.000000,0.000000;
#CREDIT:Ben Speirs;
#NOTES:
0000
0000
0000
0000
,
0000
0000
0000
0000
,
0000
0000
0000
0000
,
0000
0000
0000
0000
,
2000
3010
0000
0010
,
1000
0000
0001
0000
1000
0100
0010
0000
,
0002
0103
0000
0100
,
0001
0000
1000
0000
0010
1000
0001
0000
,
2000
0000
3002
0000
,
0103
0000
0010
0000
1000
0100
1000
0000
,
0002
0003
1000
0010
,
0200
0000
0300
0010
0010
0000
0010
0000
,
2010
3000
0001
1000
,
0001
0100
0001
0000
1000
0100
1000
0000
,
0102
0003
1000
0001
,
0100
0010
0100
0000
0010
0000
1000
0000
,
0200
0000
0320
0000
,
0031
0000
0010
0000
0001
1000
0001
0000
,
2000
0000
3000
0000
0100
0000
0010
0001
,
2000
0000
3001
1000
,
0001
0000
0100
0001
0100
0000
0010
0000
,
1000
1000
0200
0300
,
1000
0000
0010
1000
0010
0000
0100
0000
,
0001
0001
2000
3000
,
0001
0000
0010
0100
0010
0000
0001
0000
,
0100
0100
0020
0030
,
1000
0100
1000
0001
,
0010
0000
0001
0100
0100
0000
0010
0000
,
2002
0000
0000
3003
,
1000
0000
1100
0000
1001
0000
0000
0001
,
0000
1000
0000
0000
0010
1000
0001
0000
,
0001
0000
0011
0000
1001
0000
0000
1000
,
0000
0001
0000
0000
1000
0010
0100
0000
,
0002
0023
0230
2300
,
0002
0000
3003
1001
,
1000
0000
0100
0010
0100
0000
0000
0000
,
1000
0000
0100
0010
0100
0000
1000
0000
,
0002
0000
0103
0100
,
0020
0000
1030
1000
,
0200
0000
0310
0010
,
0001
1000
0010
0010
,
1000
0000
0001
0100
0000
0000
1001
0000
,
0000
0000
1000
0100
0000
0000
1001
0000
,
0000
0000
0001
0010
0000
0000
1001
0000
,
2000
3002
0203
0300
,
0001
0010
0001
0010
0001
0000
0100
0000
,
0010
1000
0001
0000
,
1000
0010
1000
0010
1000
0000
0001
0000
,
0100
0100
0010
0010
,
1000
0100
0010
0001
0100
0010
1000
0001
,
0000
0000
0000
0000
,
1001
0000
0110
0000
1001
0000
0000
1000
,
0000
0001
0000
0000
0100
0000
0100
0000
,
1001
0000
0110
0000
1001
0000
0000
0100
,
0000
0100
0000
0000
0010
0000
1000
0000
,
0002
0023
0230
2300
,
0002
0000
3003
1001
,
0001
0000
0100
0010
0100
0000
0001
0000
,
1000
0000
0100
0010
0100
0000
0000
0000
,
1100
0000
0110
0000
0011
0000
0000
1000
,
0000
0001
0000
0000
1000
0001
1000
0000
,
0101
0000
0110
0000
1010
0000
0000
0001
,
0000
1000
0000
0000
0001
1000
0001
0000
,
2000
3200
0320
0032
,
2000
0000
3003
1001
,
0001
0100
0001
0100
0001
0000
0000
0000
,
1000
0100
1000
0100
1000
0000
0000
0000
,
0001
1000
0010
0010
,
0100
0000
0001
0000
1000
0100
0100
0000
,
1000
0000
0000
0000
0001
1000
0001
0000
,
0100
0100
0100
0000
0010
1000
0010
0100
,
0200
0000
0300
0000
0000
0010
1000
0010
,
0200
0000
0300
0000
0000
0010
1000
0010
,
0100
0001
1000
1000
,
0001
0010
0001
0000
1000
0100
0010
0000
,
2002
0000
0000
3003
;

//---------------dance-single - ----------------
#NOTEDATA:;
#CHARTNAME:;
#STEPSTYPE:dance-single;
#DESCRIPTION:;
#CHARTSTYLE:;
#DIFFICULTY:Easy;
#METER:3;
#RADARVALUES:0.215088,0.264005,0.104557,0.167291,0.000000,177.000000,15.000000,24.000000,0.000000,0.000000,0.000000,0.000000,0.000000,0.215088,0.264005,0.104557,0.167291,0.000000,177.000000,15.000000,24.000000,0.000000,0.000000,0.000000,0.000000,0.000000;
#CREDIT:Ben Speirs;
#NOTES:
0000
0000
0000
0000
,
0000
0000
0000
0000
,
0000
0000
0000
0000
,
0000
0000
0000
0000
,
0100
0000
0100
0000
,
0010
1000
0100
0100
,
0010
0000
0010
0000
,
0001
0010
0001
0001
,
2000
3000
0001
0000
,
0100
0100
0010
0000
,
0200
0300
0001
0000
,
1000
0000
0000
0000
,
2002
3003
0000
0000
,
0010
0010
1000
0100
,
0200
0300
0000
0000
,
0010
0010
0001
1000
,
2000
3000
0002
0003
,
0100
0100
0010
0000
,
2000
3000
0010
0000
,
0200
0300
0001
0000
,
0000
1000
0100
0000
,
1000
0100
0010
0000
,
0000
0001
0100
0000
,
0001
0100
0010
0000
,
0000
1000
0001
0000
,
0100
0100
0100
0000
,
0002
0003
2000
3000
,
0020
0000
0000
0030
,
2002
0000
0000
3003
,
1000
0100
1000
0000
,
0001
0000
0100
0000
,
0001
0010
0001
0000
,
1000
0000
0010
0000
,
0100
0100
0001
1000
,
0200
0300
0000
0000
,
1000
0100
1000
0000
,
0001
0100
0001
0000
,
2000
3000
0000
1000
,
0002
0003
0000
0001
,
0200
0300
0000
0100
,
0020
0030
2000
3000
,
0001
0100
0000
0100
,
0010
1000
0000
1000
,
0000
0001
0000
0001
,
0010
0010
0010
0000
,
0001
0100
0001
0000
,
1000
0010
1000
0000
,
0001
0010
0001
0000
,
0100
0100
0010
0010
,
1000
0100
0010
0001
,
0000
0000
0000
0000
,
1001
1001
1001
0000
,
1000
0000
0001
0000
,
1001
1001
1001
0000
,
0001
0000
1000
0000
,
0010
0100
0010
0010
,
2000
3000
0000
0000
,
0001
0001
1000
0000
,
1000
1000
0001
0000
,
1001
1001
1001
0000
,
0010
0000
0010
0000
,
1001
1001
1001
0000
,
0100
0000
0100
0000
,
0001
0001
1000
0100
,
0200
0300
0000
0000
,
1000
0100
0000
0000
,
0001
0100
0000
0000
,
0001
0000
1000
0000
,
0010
0000
1000
0100
,
0100
0000
0010
0000
,
0001
0000
0100
0010
,
0010
0000
0100
0010
,
0010
0000
0100
0010
,
0010
0000
1000
0000
,
0001
0010
0100
0000
,
2002
0000
0000
3003
;

//---------------dance-single - ----------------
#NOTEDATA:;
#CHARTNAME:;
#STEPSTYPE:dance-single;
#DESCRIPTION:;
#CHARTSTYLE:;
#DIFFICULTY:Beginner;
#METER:1;
#RADARVALUES:0.109535,0.130696,0.041823,0.000000,0.000000,104.000000,6.000000,0.000000,0.000000,0.000000,0.000000,0.000000,0.000000,0.109535,0.130696,0.041823,0.000000,0.000000,104.000000,6.000000,0.000000,0.000000,0.000000,0.000000,0.000000,0.000000;
#CREDIT:Ben Speirs;
#NOTES:
0000
0000
0000
0000
,
0000
0000
0000
0000
,
0000
0000
0000
0000
,
0000
0000
0000
0000
,
0100
0000
0000
0000
,
0100
0000
0001
0000
,
1000
0000
0000
0000
,
1000
0000
0001
0000
,
0010
0000
0000
0000
,
0010
0000
0001
0000
,
1000
0000
0000
0000
,
0010
0000
0000
0000
,
1000
0000
0000
0000
,
0001
0001
0000
0000
,
0100
0000
0000
0000
,
0010
0010
0000
0000
,
1000
0000
0000
0000
,
0100
0100
0000
0000
,
0010
0000
0000
0000
,
0010
0000
0000
0000
,
1001
0000
0000
0000
,
1000
1000
1000
0000
,
0000
0000
0000
0000
,
0010
0010
0010
0000
,
0000
0000
0000
0000
,
0100
0100
0100
0000
,
0000
0000
0000
0000
,
0001
0000
0000
0000
,
1001
0000
0000
0000
,
0001
0001
0001
0000
,
0000
0000
0100
0000
,
0010
0010
0010
0000
,
0000
0000
1000
0000
,
0100
0000
0100
0000
,
0010
0000
0000
0000
,
0100
0000
0100
0000
,
0010
0000
0010
0000
,
0001
0000
0000
0000
,
1000
0000
0000
0000
,
0010
0000
0000
0000
,
0010
0000
0000
0000
,
0000
1000
0000
1000
,
0000
0000
0000
0000
,
0000
0001
0000
0001
,
0000
0000
0000
0000
,
0100
0100
0000
0000
,
0010
0010
0000
0000
,
1000
1000
0000
0000
,
0001
0000
0001
0000
,
1000
0000
1000
0000
,
0000
0000
0000
0000
,
1001
0000
0000
0000
,
1000
0000
0001
0000
,
0100
0100
0100
0000
,
0000
0000
0010
0000
,
1000
0000
0000
0000
,
0001
0000
0000
0000
,
0010
0000
0010
0000
,
0010
0000
0000
0000
,
1001
0000
0000
0000
,
0001
0000
0001
0000
,
1000
0000
0000
0000
,
1000
0000
0000
0000
,
0100
0100
0000
0000
,
0100
0000
0000
0000
,
0010
0010
0000
0000
,
0010
0000
0000
0000
,
0110
0000
0000
0000
,
0010
0000
0010
0000
,
0001
0000
0000
0000
,
1000
0000
0000
0010
,
0010
0000
0000
0010
,
0010
0000
0000
0010
,
0010
0000
0000
0000
,
1000
0000
1000
0000
,
1001
0000
0000
0000
;
