#TITLE:Knights of the Round Table (Camelot Song);
#ARTIST:Monty Python;
#FILE:Knights of the Round Table (Camelot Song).mp3;
#BPM:143.700;
#GAP:-100;
#SAMPLESTART:41.754;
#SAMPLELENGTH:12.000;
#CDTITLE:!veroTitle.png;
#CHANGEBPM:25.333=138.700,46.000=153.700,65.333=143.700,74.667=153.700,88.000=143.700,306.000=153.700,322.000=143.700,406.000=71.360,407.000=153.700,428.000=143.700,440.000=133.700,464.000=143.700,513.333=72.000,520.000=76.000,522.667=81.800,528.000=61.800,532.000=56.800,542.000=153.700;
#SINGLE:MANIAC:9:
(0000400280606000)
[B002008!800860806!60602002!200]
[200040600000600800200400]
[000000A00600020000208000]
[60800020402000806000A000]
[900000800020600800200400]
(208!808090A010A09B)
0A024242
42!22686!666
46082828
(208!808060802A402!20)
`200000000000000000000000900000000000000000000000200000000000000000000000000000004000000000000000000000000000200000000000800000000000600000000000000000000000000000000000000000006000000000000000'
[800000200800009000800200]
(0010608024A!2000<83>0)
[000A00040200800600020800]
[600800060200800600200800]
[400000802!2600A00600804!4600]
[700600806!6200B02!200020208!80]
02020202
020A6262
62!2246468!8
(<81>03!60009!8804208060)
(60600042!224004082!2)
(A0800002!2000902!20)
(8!80<83>8686!6008080802)
`0000000000008!800000000000000000000000800000000000000000000000000000000000<38!8>0000000000080000000000000000000000000004!4000000000000000000000000000000000000000000000001!20000000000000000000000000000000'
[00A!8000009!6000009!8000A!202000]
[8!808000009000402!200000A!8000]
`00000000000000009!6000000000000000000000000000000000000000000000009!800000000000000000000000000000000000000000000000A!20000000000000001!4000000000000000100000000000800000000000600000000000800000000000'
2!21!4148286
(8020402860802080)
`200000000000000040000000000000000000000000000000000000000000000000000000200000000000800000000000600000000000000000000000800000000000000000000000600000000000000000000000800000000000000000000000'
[208000004000200080006000]
[600060802!2000000000208400]
A4A4A49A
19AB!684<83>0
;
