#VERSION:0.82;
#TITLE:You Know We Can't Go Back;
#SUBTITLE:;
#ARTIST:Noel Gallagher's High Flying Birds;
#TITLETRANSLIT:;
#SUBTITLETRANSLIT:;
#ARTISTTRANSLIT:;
#GENRE:..about Oasis?;
#ORIGIN:;
#CREDIT:;
#BANNER:You Know We Can't Go Back.png;
#BACKGROUND:You Know We Can't Go Back-bg.png;
#PREVIEWVID:;
#JACKET:jacket.png;
#CDIMAGE:;
#DISCIMAGE:;
#LYRICSPATH:;
#CDTITLE:cdtitle.png;
#MUSIC:You Know We Can't Go Back.ogg;
#OFFSET:-0.240000;
#SAMPLESTART:60.393085;
#SAMPLELENGTH:17.959999;
#SELECTABLE:YES;
#DISPLAYBPM:146;
#BPMS:0.000=146.000,
176.000=148.500,
177.000=146.000;
#STOPS:;
#DELAYS:;
#WARPS:;
#TIMESIGNATURES:0.000=4=4;
#TICKCOUNTS:0.000=4;
#COMBOS:0.000=1;
#SPEEDS:0.000=1.000=0.000=0;
#SCROLLS:0.000=1.000;
#FAKES:;
#LABELS:0.000=Song Start;
#BGCHANGES:8.000=You Know We Can't Go Back.avi=1.000=0=0=1=====,
99999=-nosongbg-=1.000=0=0=0 // don't automatically add -songbackground-
;
#KEYSOUNDS:;
#ATTACKS:
;

//---------------dance-single - ----------------
#NOTEDATA:;
#CHARTNAME:;
#STEPSTYPE:dance-single;
#DESCRIPTION:;
#CHARTSTYLE:;
#DIFFICULTY:Hard;
#METER:8;
#RADARVALUES:0.564132,0.585026,0.314452,0.219385,0.000000,467.000000,43.000000,30.000000,0.000000,0.000000,0.000000,0.000000,0.000000,0.564132,0.585026,0.314452,0.219385,0.000000,467.000000,43.000000,30.000000,0.000000,0.000000,0.000000,0.000000,0.000000;
#CREDIT:Ben Speirs;
#NOTES:
0000
0000
0000
0000
,
0000
0000
0000
0000
,
0000
0000
0000
0000
,
0000
0000
0000
0000
,
0001
1000
0010
0100
0001
1000
0100
0000
,
0010
0001
0010
0000
0001
1000
0001
0000
,
1000
0010
0100
0001
1000
0001
0100
0000
,
0010
1000
0010
0000
1000
0100
1000
0000
,
0001
0010
0100
1000
0010
0100
0010
1000
,
0100
0010
0001
1000
0010
0010
0010
0000
,
0100
0000
0001
0000
1000
0100
1000
0000
,
0010
0000
0100
0000
0001
1000
0001
0000
,
0100
0010
0100
0010
0000
0010
1000
0100
,
2000
0000
3001
0000
0010
0001
1000
0010
,
0200
0000
0301
0000
1000
0100
1000
0000
,
0001
0010
0001
0000
1000
0010
1000
0000
,
0010
0100
0010
0100
0000
0100
0001
0010
,
0002
0000
1003
0000
0100
1000
0001
0100
,
0020
0000
1030
0000
0001
0010
0001
0000
,
1000
0100
1000
0000
0001
0100
0001
0000
,
1000
0100
0010
0001
1000
0000
0010
0100
,
0010
0100
0001
0000
1000
0100
1000
0000
,
0012
1003
1010
0001
,
1000
0000
0010
0100
0000
0100
0001
0010
,
0100
1000
0001
0100
0010
0000
1000
0100
,
1000
0001
1000
0010
1000
0001
1000
0010
,
0200
0000
0301
0000
1000
0100
0010
0000
,
0001
1000
0010
0100
0001
1000
0010
0000
,
1010
0000
1001
0000
0100
0001
1000
0100
,
0020
0000
0031
0000
1000
0010
1000
0000
,
0101
0000
1001
0000
0010
1000
0100
0010
,
0002
0000
0103
0000
0010
0100
0001
0000
,
1010
0000
0001
0000
0010
0001
1000
0020
,
0000
0230
0000
0302
0000
1003
0100
2000
,
0000
3002
0000
0023
0000
0032
0000
1003
,
0020
0100
0100
0100
,
0100
0000
0100
0000
0130
0010
0100
0010
,
0110
0000
0101
0000
0110
0100
0010
1000
,
1100
0000
0110
0000
1100
0100
0010
0001
,
1000
0010
1000
0001
0010
0001
1000
0010
,
0200
0000
0301
0000
1000
0010
0100
0000
,
0101
0000
0110
0000
0101
0100
0010
1000
,
1100
0000
0110
0000
1100
0100
0010
0100
,
1000
0001
0100
0010
1000
0100
0010
0001
,
0200
0000
0010
0010
,
0302
0000
1000
1000
,
0023
0000
0100
0100
,
0032
0000
0103
0000
0001
0100
1000
0100
,
0020
0000
1030
0000
0100
1000
0010
0100
,
0002
0000
1003
0000
0001
0010
1000
0010
,
0200
0000
1300
0000
0010
1000
0100
0010
,
0002
0000
0103
0000
0010
1000
0010
1000
,
0002
0000
0013
0000
0100
1000
0100
1000
,
0020
0000
0130
0000
0001
0010
0100
1000
,
0010
0100
0010
1000
0100
0010
0001
0000
,
1100
0101
1100
0101
,
1001
0000
1001
0000
1001
1000
0100
0010
,
1001
0000
1001
0000
1001
0001
0010
0100
,
1100
0000
0101
0000
0010
0001
0100
0000
,
1010
0000
0011
0000
1000
0001
0100
0000
,
1001
0000
1001
0000
1001
0001
0100
0010
,
1001
0000
1001
0000
1001
1000
0010
0100
,
0001
0010
0100
0010
0100
1000
0001
0100
,
0010
0100
0010
1000
0100
0010
0001
0000
,
1000
0010
1000
0001
1000
0010
0100
0100
,
0001
1000
0001
0100
0001
1000
0010
0010
,
0100
0001
0010
0100
1000
0010
0100
0001
,
1000
0100
1000
0100
0010
0001
1000
0000
,
0001
0100
0001
0100
0010
0010
1000
0100
,
0010
0001
0010
0001
1000
1000
0010
0100
,
0001
1000
0100
1000
0010
0100
0001
1000
,
0020
0000
0130
0000
0001
0010
0100
1000
,
0011
0000
1001
1000
0010
0100
0001
0100
,
1010
0000
1001
0001
0010
0100
1000
0001
,
0100
0100
0010
1000
0100
1000
0001
0010
,
0100
0100
0010
0001
1000
0010
0100
0000
,
0001
1000
0001
1000
0010
0100
0001
1000
,
0100
0010
0100
0010
0001
1000
0010
0100
,
0001
1000
0100
0010
0001
1000
0010
0200
,
0002
0000
0000
0000
,
0303
0000
0000
0000
;

//---------------dance-double - ----------------
#NOTEDATA:;
#CHARTNAME:;
#STEPSTYPE:dance-double;
#DESCRIPTION:;
#CHARTSTYLE:;
#DIFFICULTY:Challenge;
#METER:8;
#RADARVALUES:0.564132,0.585026,0.424144,0.212072,0.000000,453.000000,58.000000,29.000000,0.000000,0.000000,0.000000,0.000000,0.000000,0.564132,0.585026,0.424144,0.212072,0.000000,453.000000,58.000000,29.000000,0.000000,0.000000,0.000000,0.000000,0.000000;
#CREDIT:Ben Speirs;
#NOTES:
00000000
00000000
00000000
00000000
,
00000000
00000000
00000000
00000000
,
00000000
00000000
00000000
00000000
,
00000000
00000000
00000000
00000000
,
10000000
00000000
00010000
00000000
01000000
00100000
01000000
00000000
,
00010000
00000000
10000000
00000000
01000000
00100000
01000000
00000000
,
10000000
01000000
10000000
01000000
00010000
01000000
00010000
01000000
,
00010000
00001000
00010000
00001000
00000100
00001000
00000100
00000001
,
00002000
00000000
00003100
00000000
00000010
00000001
00000010
00000000
,
00000002
00000000
00000103
00000000
00000010
00001000
00000010
00000000
,
00001000
00000100
00001000
00000100
00000010
00000001
00000010
00000000
,
00000001
00000100
00000001
00000100
00000010
00001000
00000010
00000000
,
00001000
00000100
00001000
00000100
00000000
00000100
00010000
00000100
,
00010000
00001000
00100000
00001000
00010000
00001000
00100000
00010000
,
02000000
03100000
20020000
30030000
,
10000000
01000000
00100000
00000000
00010000
00100000
00001000
00000000
,
00100000
00001000
00010000
00001000
00000000
00001000
00100000
00010000
,
00100000
00001000
00010000
00000100
00000100
00010000
00001000
00010000
,
00000200
00000000
00001300
00000000
00000010
00001000
00000001
00000000
,
00000010
00000001
00001000
00000000
00000010
00000000
00001001
00000000
,
00000100
00000100
00000010
00002000
00000000
00003100
00000010
00000001
,
00000100
00000010
00000100
00000010
00001000
00000100
00010000
00001000
,
00200000
00000000
00000000
00000000
00310000
10000000
00010000
00000000
,
10000000
00000000
00100000
01000000
00000000
01000000
00010000
10000000
,
00010000
10000000
01000000
00100000
00010000
00000000
10000000
01000000
,
10000000
01000000
00100000
00010000
10000000
00010000
10000000
00100000
,
02000000
00000000
03010000
00000000
10000000
00100000
10000000
00000000
,
00020000
00000000
00130000
00000000
01000000
00100000
00010000
00000000
,
00110000
00101000
00010100
00001000
,
00001100
00010100
00101000
00010000
,
00110000
00101000
00010100
00001000
,
00001100
00000000
00010100
00000000
00101000
00100000
00010000
01000000
,
00100000
10000000
00100000
10000000
01000000
00000000
00100000
00010000
,
00100000
00010000
10000000
00010000
10000000
00100000
10000000
01000000
,
00100000
00010000
00100000
00010000
10000000
00100000
10000000
00010000
,
02000000
00100000
00100000
00100000
,
00100000
00000000
00100000
00000000
03100000
01000000
00010000
00100000
,
00110000
00000000
00110000
00000000
00110000
00100000
00001000
00100000
,
00011000
00000000
00011000
00000000
00011000
00010000
00000100
00010000
,
00001010
00000000
00001010
00000000
00000001
00000010
00000100
00001000
,
00000020
00000000
00000130
00000000
00000001
00001000
00000001
00000000
,
00000101
00000000
00001100
00000000
00000101
00000100
00000010
00001000
,
00001100
00000000
00000011
00000000
00001010
00001000
00000100
00000010
,
00000001
00000100
00001000
00010000
01000000
10000000
00100000
01000000
,
00020000
00000000
01000000
01000000
,
20030000
00000000
01000000
01000000
,
30020000
00000000
00100000
00130000
,
00101000
00000000
00101000
00000000
00100000
00001000
00010000
00000100
,
00002000
00000000
00003010
00000000
00000100
00000010
00001000
00000100
,
00000020
00000000
00000031
00000000
00001000
00000100
00001000
00000001
,
00000200
00000000
00000310
00000000
00001000
00000100
00001000
00000100
,
00020000
00000000
00031000
00000000
00100000
00001000
00010000
00001000
,
00200000
00000000
00310000
00000000
01000000
00010000
00100000
01000000
,
20000000
00000000
30020000
00000000
01030000
00100000
01000000
00010000
,
20000000
00000000
32000000
00000000
03100000
00010000
00100000
00000000
,
00110000
00101000
00011000
00010100
,
00011000
00000000
00011000
00000000
00011000
00010000
00001000
00100000
,
00011000
00000000
00011000
00000000
00011000
00010000
00000100
00010000
,
00000010
00000010
00000100
00000010
00001000
00000100
00000010
00000001
,
00000200
00000000
00000310
00000000
00001000
00000100
00010000
00000000
,
00011000
00000000
00011000
00000000
00011000
00100000
00001000
00010000
,
00011000
00000000
00011000
00000000
00011000
00000100
00010000
00000010
,
00000100
00000100
00000001
00000010
00000100
00001000
00000010
00000010
,
00001000
00000100
00010000
00001000
00100000
00010000
01000000
00000000
,
01010000
10100000
11000000
00110000
,
10000000
01000000
00010000
00000000
00001000
00000100
00000001
00000000
,
00001010
00000000
00000011
00000000
00001000
00000100
00001000
00000010
,
00000200
00000000
00000301
00000000
00001000
00000100
00010000
00000000
,
00010100
00011000
00101000
00010000
,
00101000
00011000
00010100
00001000
,
00000010
00001000
00000100
00010000
00001000
00100000
00010000
01000000
,
00200000
00000000
00000000
00000000
10300000
01000000
10000000
00000000
,
00010000
01000000
00100000
10000000
01000000
00100000
00010000
01000000
,
00100000
01000000
00010000
00100000
00001000
00010000
00001000
00100000
,
00010000
10000000
01000000
00010000
00001000
00000100
00000001
00000010
,
00000100
00000010
00000001
00001000
00000100
00010000
00001000
00010000
,
00000100
00001000
00000010
00000100
00000010
00001000
00000100
00010000
,
00001000
00010000
00100000
10000000
01000000
00100000
00010000
01000000
,
00010000
01000000
00001000
00100000
00001000
00010000
00000100
00002000
,
00000020
00000000
00000000
00000000
,
00003030
00000000
00000000
00000000
;

//---------------dance-single - ----------------
#NOTEDATA:;
#CHARTNAME:;
#STEPSTYPE:dance-single;
#DESCRIPTION:;
#CHARTSTYLE:;
#DIFFICULTY:Challenge;
#METER:8;
#RADARVALUES:0.619501,0.643529,1.000000,0.212072,0.000000,425.000000,139.000000,29.000000,0.000000,0.000000,0.000000,0.000000,0.000000,0.619501,0.643529,1.000000,0.212072,0.000000,425.000000,139.000000,29.000000,0.000000,0.000000,0.000000,0.000000,0.000000;
#CREDIT:Ben Speirs;
#NOTES:
0000
0000
0000
0000
,
0000
0000
0000
0000
,
0000
0000
0000
0000
,
0000
0000
0000
0000
,
1000
0000
1100
0000
1001
0001
0100
0000
,
0010
1000
0010
0000
1010
1000
0001
0000
,
0010
0000
0011
0000
1001
1000
0100
0000
,
1000
0001
1000
0000
1010
0010
0100
0000
,
0101
0100
0010
0100
0010
0100
0101
0000
,
1001
1000
0100
0000
0010
0001
0010
0000
,
1100
0100
0010
0100
0010
0100
1100
0000
,
1001
0001
1000
0000
0010
1000
1001
0000
,
1100
1000
0010
0100
0001
0000
0010
0100
,
0010
0001
1000
0000
0001
1000
0010
0000
,
2010
3001
0102
1003
,
0010
1000
0001
0010
0100
0010
0001
0000
,
1000
0100
1000
0001
0010
0000
0001
0100
,
0001
1000
0010
0000
1000
0100
0010
0000
,
0012
1003
2010
3001
,
0102
1003
2100
3001
,
1010
1000
0001
0010
0100
0000
0011
0010
,
0100
0010
0001
0000
1010
1000
0001
0010
,
0200
0000
1300
0010
0200
0000
0301
0000
,
1000
0000
0010
1000
0100
0010
0001
0000
,
0011
0010
0001
1000
0001
0000
1100
1000
,
0001
1000
0001
1000
0001
0100
0010
1000
,
0200
0000
0310
0000
0001
0010
0100
0000
,
1100
0000
0011
0000
0001
1000
0001
0000
,
1100
0000
0011
0000
1010
1000
0010
0100
,
0101
0000
1010
0000
1001
0001
0010
0100
,
1100
0000
0110
0000
0011
0001
1000
0010
,
1010
0000
1001
0000
0101
0100
0010
1000
,
2010
0000
3001
0000
0010
0001
1000
0100
,
0010
0100
0010
0001
1000
0000
0001
0100
,
0010
0100
0010
1000
0100
0010
0001
0000
,
1100
0101
1100
0101
,
1100
0000
0101
0000
1001
0001
1000
0000
,
0110
0000
0110
0000
0110
0010
1000
0000
,
1100
0000
1100
0000
1100
0100
0010
0000
,
0011
0000
0011
0000
0011
0001
1000
0000
,
1001
0000
1001
0000
1001
1000
0010
0000
,
0110
0000
0110
0000
0110
0100
0001
0000
,
0011
0000
0011
0000
0011
0010
0001
0000
,
1001
0000
1001
0000
1001
1000
0100
0000
,
2002
3003
0010
0010
,
0202
0303
0010
0010
,
2200
3300
0010
0010
,
2002
0000
3003
0000
0001
0100
0010
1000
,
2010
0000
3001
0000
1000
0100
0010
0000
,
2002
0000
3003
0000
1000
0100
0010
0001
,
0012
0000
1003
0000
0001
1000
0010
0000
,
0102
0000
1003
0000
0001
0100
0010
1000
,
1200
0000
0310
0000
0100
1000
0010
0100
,
0120
0000
1030
0000
0010
1000
0001
0010
,
0012
0000
1003
0000
0001
1000
0010
0000
,
1010
0101
0011
1100
,
1001
0000
1001
0000
1001
0001
0010
0000
,
0011
0000
0011
0000
0011
0001
1000
0000
,
1100
0000
1100
0000
1100
0100
1000
0000
,
1010
0000
1010
0000
1010
1000
0100
0010
,
0011
0000
1001
0000
1100
0100
1000
0000
,
1010
0000
0110
0000
0101
0100
0010
0000
,
1010
1001
0011
1100
,
0102
0000
1003
0000
0010
1000
0001
0000
,
1100
0000
1100
0100
0010
0001
1000
0000
,
1010
0000
1010
0010
0100
0001
1000
0000
,
0101
0000
0101
0100
0010
1000
0100
0000
,
0110
0000
0110
0010
0001
1000
0010
0000
,
0101
0100
0010
1000
0100
0010
0110
0000
,
0011
0001
1000
0010
0100
0001
0101
0000
,
1010
1000
0100
0010
0001
1000
1001
0000
,
1010
1000
0001
0000
0011
0001
1000
0000
,
1100
0000
0110
0000
0011
0001
1000
0010
,
1010
0000
0110
0000
0101
0100
0010
1000
,
1001
0000
1100
0000
1001
0001
0010
0100
,
1100
0000
0011
0000
1010
1000
0010
0100
,
0101
0100
0010
1000
0100
0010
0001
0000
,
1010
1000
0001
0010
0100
1000
0001
0000
,
1010
1000
0001
0100
0101
0100
0010
1000
,
2002
0000
0000
0000
,
3003
0000
0000
0000
;

//---------------dance-single - ----------------
#NOTEDATA:;
#CHARTNAME:;
#STEPSTYPE:dance-single;
#DESCRIPTION:;
#CHARTSTYLE:;
#DIFFICULTY:Medium;
#METER:5;
#RADARVALUES:0.385491,0.526524,0.387580,0.358329,0.000000,267.000000,53.000000,49.000000,0.000000,0.000000,0.000000,0.000000,0.000000,0.385491,0.526524,0.387580,0.358329,0.000000,267.000000,53.000000,49.000000,0.000000,0.000000,0.000000,0.000000,0.000000;
#CREDIT:Ben Speirs;
#NOTES:
0000
0000
0000
0000
,
0000
0000
0000
0000
,
0000
0000
0000
0000
,
0000
0000
0000
0000
,
0001
0100
0001
0001
,
2000
3000
0002
0003
,
1000
0100
1000
1000
,
0002
0003
2000
3000
,
0010
0010
1000
1000
,
0010
1000
0001
0000
,
0010
0010
0001
0001
,
0010
0001
1000
0000
,
0010
0000
0100
0100
,
0001
0000
0000
0000
1000
0100
1000
0000
,
0002
0003
2000
3000
,
0010
1000
0001
0000
,
0100
0000
0001
0000
,
1000
0100
1000
0000
0001
0000
0010
0000
,
0200
0300
1000
0000
,
0010
0010
1000
0000
,
0001
0100
0001
0100
0000
0000
0000
0000
,
0010
0010
1000
0100
,
0020
0030
0020
0030
,
0001
1000
0001
0000
,
1000
1000
0100
1000
,
0010
0010
0100
0010
,
1000
0000
0001
0000
,
1000
0100
0010
0000
,
1001
1001
1001
0000
,
1010
1010
1010
0000
,
0011
0011
0011
0000
,
0101
0101
0101
0000
,
1001
1000
0010
0100
,
0001
0001
1000
0000
,
0010
0010
1000
1000
,
2002
0000
0000
0000
,
0000
0000
3003
0000
,
0010
0000
0010
0000
1000
0100
1000
0000
,
0010
0000
0010
0000
1000
0100
1000
0000
,
0002
0023
0230
2300
,
3002
0000
0000
0000
1003
0100
1000
0000
,
0001
0000
0001
0000
0100
0010
0100
0000
,
0001
0000
0001
0000
0100
0010
0100
0000
,
0002
0023
0230
1300
,
2002
0000
0000
3003
,
0020
0000
0000
0030
,
0200
0000
0000
0300
,
2002
0000
3003
0000
0100
1000
0100
0000
,
1000
0000
0001
0000
0010
0001
0010
0000
,
2002
0000
3003
0000
0001
0100
0001
0000
,
0010
0000
0001
0000
1000
0100
1000
0000
,
2020
3030
0001
1000
,
0202
0303
1000
0001
,
2200
3300
0010
1000
,
0001
0001
1000
1000
,
0010
0100
0010
0100
0010
0100
0010
0000
,
0101
0101
0101
0010
,
1100
1100
1100
0000
,
0001
1000
0001
0000
1000
0100
1000
0000
,
0020
0030
0100
0100
,
1010
1010
1010
0100
,
0011
0011
0011
0000
,
1000
0100
1000
0000
0001
1000
0001
0000
,
0200
0000
0300
0000
0010
1000
0010
0000
,
1001
1001
1001
0100
,
1001
1001
1001
0010
,
1001
1001
1001
0100
,
2002
0000
3003
0000
0010
1000
0001
0000
,
0011
0011
0011
1000
,
1010
1010
1010
0001
,
0101
0101
0101
1000
,
2002
0000
3003
0000
1000
0100
1000
0000
,
0020
0000
0030
0000
0100
0001
0100
0000
,
0020
0000
0030
0000
1000
0100
1000
0000
,
0002
0000
0003
0000
0010
0100
0010
0000
,
0002
0000
0003
0000
0100
0010
0100
0000
,
0002
0103
0100
0010
,
2000
3100
0100
0010
,
0002
1003
0020
0130
,
2002
0000
0000
0000
,
3003
0000
0000
0000
;

//---------------dance-single - ----------------
#NOTEDATA:;
#CHARTNAME:;
#STEPSTYPE:dance-single;
#DESCRIPTION:;
#CHARTSTYLE:;
#DIFFICULTY:Easy;
#METER:3;
#RADARVALUES:0.223564,0.263262,0.007313,0.146257,0.000000,193.000000,1.000000,20.000000,0.000000,0.000000,0.000000,0.000000,0.000000,0.223564,0.263262,0.007313,0.146257,0.000000,193.000000,1.000000,20.000000,0.000000,0.000000,0.000000,0.000000,0.000000;
#CREDIT:Ben Speirs;
#NOTES:
// measure 0
0000
0000
0000
0000
,  // measure 1
0000
0000
0000
0000
,  // measure 2
0000
0000
0000
0000
,  // measure 3
0000
0000
0000
0000
,  // measure 4
1000
0000
0001
0000
,  // measure 5
0100
0100
0001
0000
,  // measure 6
1000
1000
0100
0000
,  // measure 7
0010
0010
0001
0000
,  // measure 8
0100
0000
0001
0000
,  // measure 9
1000
1000
0010
0000
,  // measure 10
0100
0100
0001
0000
,  // measure 11
1000
1000
0100
0000
,  // measure 12
1000
0000
1000
0000
,  // measure 13
0001
0000
0001
0000
,  // measure 14
0100
0100
0010
0000
,  // measure 15
0100
0100
0010
0000
,  // measure 16
1000
0000
1000
0000
,  // measure 17
0001
0000
0001
0000
,  // measure 18
0010
0010
0100
0000
,  // measure 19
0010
0010
0100
0000
,  // measure 20
1000
0000
0100
0000
,  // measure 21
0010
0000
0001
0000
,  // measure 22
0100
0010
0100
0000
,  // measure 23
0001
0000
1000
0000
,  // measure 24
0100
0100
0010
0000
,  // measure 25
0001
1000
0001
0000
,  // measure 26
0100
0000
0010
0000
,  // measure 27
1000
0000
0100
0000
,  // measure 28
1000
1000
1000
0000
,  // measure 29
0001
0001
0001
0000
,  // measure 30
0100
0010
0100
0000
,  // measure 31
0001
1000
0001
0000
,  // measure 32
0010
0000
0010
0000
,  // measure 33
0001
1000
0001
0000
,  // measure 34
1000
0100
1000
0000
,  // measure 35
0020
0000
0000
0000
,  // measure 36
0000
0000
0030
0000
,  // measure 37
1000
0100
1000
0000
,  // measure 38
0001
0100
0001
0000
,  // measure 39
1000
0100
0010
0001
,  // measure 40
0200
0300
0010
0000
,  // measure 41
1000
0010
1000
0000
,  // measure 42
0001
0010
0001
0000
,  // measure 43
1000
0100
0010
0001
,  // measure 44
0200
0000
0000
0300
,  // measure 45
0020
0000
0000
0030
,  // measure 46
2000
0000
0000
3000
,  // measure 47
0002
0003
0001
0000
,  // measure 48
2000
3000
1000
0000
,  // measure 49
0020
0030
0010
0000
,  // measure 50
0200
0300
0100
0000
,  // measure 51
0001
0001
1000
0000
,  // measure 52
0100
0100
0010
0010
,  // measure 53
0001
0001
0100
0000
,  // measure 54
0010
0000
1000
0000
,  // measure 55
0100
0100
0100
0000
,  // measure 56
1000
0001
1000
0000
,  // measure 57
0001
1000
0001
0000
,  // measure 58
0100
0000
0100
0100
,  // measure 59
0010
0000
0010
0010
,  // measure 60
1000
0001
1000
0000
,  // measure 61
0001
1000
0001
0000
,  // measure 62
0010
0000
0010
0010
,  // measure 63
0100
0000
0100
0100
,  // measure 64
2000
3000
0100
0000
,  // measure 65
0020
0030
0001
0000
,  // measure 66
1000
0001
1000
0001
,  // measure 67
1000
0000
0010
0000
,  // measure 68
0200
0300
0100
0000
,  // measure 69
0002
0003
0001
0000
,  // measure 70
1000
0001
1000
0001
,  // measure 71
2000
0000
3000
0000
,  // measure 72
0020
0030
1000
1000
,  // measure 73
0200
0300
0010
0000
,  // measure 74
0002
0003
1000
1000
,  // measure 75
0020
0030
0100
0000
,  // measure 76
0001
0001
0100
0100
,  // measure 77
0010
0000
1000
0000
,  // measure 78
0100
0100
0010
0000
,  // measure 79
2002
0000
0000
0000
,  // measure 80
3003
0000
0000
0000
;

//---------------dance-single - ----------------
#NOTEDATA:;
#CHARTNAME:;
#STEPSTYPE:dance-single;
#DESCRIPTION:;
#CHARTSTYLE:;
#DIFFICULTY:Beginner;
#METER:2;
#RADARVALUES:0.127452,0.173314,0.117005,0.000000,0.000000,106.000000,16.000000,0.000000,0.000000,0.000000,0.000000,0.000000,0.000000,0.127452,0.173314,0.117005,0.000000,0.000000,106.000000,16.000000,0.000000,0.000000,0.000000,0.000000,0.000000,0.000000;
#CREDIT:Ben Speirs;
#NOTES:
// measure 0
0000
0000
0000
0000
,  // measure 1
0000
0000
0000
0000
,  // measure 2
0000
0000
0000
0000
,  // measure 3
0000
0000
0000
0000
,  // measure 4
0100
0000
0000
0000
,  // measure 5
0010
0000
0000
0000
,  // measure 6
1000
0000
0000
0000
,  // measure 7
0001
0000
0000
0000
,  // measure 8
1000
0000
0000
0000
,  // measure 9
0100
0000
0000
0000
,  // measure 10
0010
0000
0000
0000
,  // measure 11
0010
0000
0000
0000
,  // measure 12
0001
0000
0001
0000
,  // measure 13
0100
0000
0000
0000
,  // measure 14
0010
0000
0000
0000
,  // measure 15
0010
0000
0000
0000
,  // measure 16
1000
0000
1000
0000
,  // measure 17
0100
0000
0100
0000
,  // measure 18
0010
0000
0000
0000
,  // measure 19
0001
0000
0000
0000
,  // measure 20
1000
0000
1000
0000
,  // measure 21
0010
0000
0000
0000
,  // measure 22
0100
0000
0000
0000
,  // measure 23
0001
0000
0000
0000
,  // measure 24
1000
1000
0000
0000
,  // measure 25
0001
0001
0000
0000
,  // measure 26
0100
0000
0000
0000
,  // measure 27
0010
0000
0000
0000
,  // measure 28
1001
0000
0000
0000
,  // measure 29
0100
0100
0000
0000
,  // measure 30
1001
0000
0000
0000
,  // measure 31
0100
0100
0000
0000
,  // measure 32
1001
0000
0000
0000
,  // measure 33
1000
0000
0000
0000
,  // measure 34
0010
0000
0010
0000
,  // measure 35
0100
0000
0000
0000
,  // measure 36
0000
0000
0000
0000
,  // measure 37
1001
0000
0000
0000
,  // measure 38
1001
0000
0000
0000
,  // measure 39
0010
0000
0010
0000
,  // measure 40
1000
0000
1000
0000
,  // measure 41
1001
0000
0000
0000
,  // measure 42
1001
0000
0000
0000
,  // measure 43
0001
0000
0001
0000
,  // measure 44
0100
0000
0000
0000
,  // measure 45
0010
0000
0000
0000
,  // measure 46
1000
0000
0000
0000
,  // measure 47
0100
0000
0100
0100
,  // measure 48
0100
0000
0000
0000
,  // measure 49
0010
0000
0010
0010
,  // measure 50
0010
0000
0000
0000
,  // measure 51
0001
0000
0001
0001
,  // measure 52
0001
0000
0000
0000
,  // measure 53
1000
0000
1000
1000
,  // measure 54
1000
0000
0000
0000
,  // measure 55
0010
0000
0010
0000
,  // measure 56
1001
0000
0000
0000
,  // measure 57
1001
0000
0000
0000
,  // measure 58
1000
0000
1000
0000
,  // measure 59
0001
0000
0100
0000
,  // measure 60
1001
0000
0000
0000
,  // measure 61
1001
0000
0000
0000
,  // measure 62
0001
0000
0001
0000
,  // measure 63
1000
0000
0100
0000
,  // measure 64
0110
0000
0000
0000
,  // measure 65
0110
0000
0000
0000
,  // measure 66
0010
0000
0010
0000
,  // measure 67
0001
0000
0000
0000
,  // measure 68
0110
0000
0000
0000
,  // measure 69
0110
0000
0000
0000
,  // measure 70
0010
0000
0100
0000
,  // measure 71
1000
0000
0000
0000
,  // measure 72
0001
0000
0000
0100
,  // measure 73
0100
0000
0000
0000
,  // measure 74
0010
0000
0000
1000
,  // measure 75
1000
0000
0000
0000
,  // measure 76
0100
0000
0100
0000
,  // measure 77
0010
0000
0010
0000
,  // measure 78
0001
0000
0000
0000
,  // measure 79
1001
0000
0000
0000
;
