#TITLE:Waterline -Ireland 2012-;
#ARTIST:Jedward;
#FILE:Waterline.mp3;
#BPM:144.000;
#GAP:40;
#SAMPLESTART:26.650;
#SAMPLELENGTH:16.320;
#CHANGEBPM:672.000=72.000,720.000=144.000;
#SINGLE:BEGINNER:3:
00000000
00000000
80800000
80800000
20200000
20200000
60600000
60600000
40400000
40400000
B0000000
20002000
20000000
40004000
40000000
80808080
80008000
80008000
20002000
20002000
60006000
60006000
40004000
40004000
80808080
80808080
20202020
20202020
20000000
60000000
40000000
00000000
20200000
00000000
A0000000
40004000
40000000
60000000
A0000000
60006000
60000000
80000000
B0000000
20202020
40404040
B0000000
80808080
80000000
20002000
20000000
60000000
40000000
80800000
A0000000
60606060
60606060
60000000
40004000
20002000
80008000
00000000
20200000
;
#SINGLE:ANOTHER:10:
00000000
00000000
206!60B!4040
204!407!8080
20842042
80604060
802!201!4040
804!40B!6060
20682086
00040000
80208420
4!40108!80A0
80428020
4!40106!6030
82828282
62626260
70602080
20604020
806!600B!400
7!802040A0
80402860
40602840
24204082
80402080
A0604080
20208040
608!8009!600
3!206080A0
60482060
82408040
70602082
00000000
A0B00000
200400A0
28208040
20420240
82804020
80602080
42408020
60860620
82804024
00620082
88884444
66668888
(2040602080402820)
B01!1013!303
7!707B!B0BA!A0
A03!3031!101
9!60802030
A0642460
40826280
40208060
A0A00000
701!1013!303
A!A0A3!303B!B0
B01!101A!A0A
1!40208070
26262626
46464646
48484842
00000060
30100000
;
#SINGLE:MANIAC:12:
00000000
00000000
882!203!6060
46204008
22604080
20604260
446!609!8080
64204008
22604028
06260070
A0642040
8!80A6!60090
90246040
8!8072!20162!2
80806080
38246B00
30A04620
A0428640
80703010
B!40702640
20448280
40668280
62402084
20406240
10A06480
A0682460
20307090
B!60308460
80662080
44208060
2840648A
00000000
66200842
406202A0
66800040
10030002
84200042
86280264
22400080
70030002
6240028A
000B00A0
(60606060404042!240)
A8886666
(28282828464642B0)
A03!60B1!407
A!8071!40B3!60
B21!407A!807
(6480206040804000)
A0662820
60442820
48608026
80604860
907!4011!407
A!8071!40B3!60
90A!8093!60B
(2840802060406000)
82826262
84842828
6868246B
02842862
A8B00000
;
#SINGLE:BASIC:6:
00000000
00000000
80202000
60404000
20408020
60802020
80606000
20606000
20604080
40204040
A0004060
20604000
10004020
80602000
80208020
60406000
40200400
80040060
00800600
400080A0
40208060
20802060
40802080
40208000
60400800
40020080
00600400
800020B0
20408020
80406040
80206022
00000000
80800000
20200000
60200000
80402000
40200000
40802000
80200000
60402000
40200009
00010000
80402080
66448822
84286280
20A00A00
A00A00A0
00B00B00
B0000000
20408080
40602020
60402080
60400000
60300300
30030030
00100100
10000000
40802060
40608020
40802064
00000000
B0B00000
;
