#TITLE:IT'S MY TURN NOW;
#ARTIST:JUMP IN;
#FILE:IT'S MY TURN NOW.mp3;
#BPM:123.000;
#GAP:44;
#SAMPLESTART:54.392;
#SAMPLELENGTH:15.000;
#CDTITLE:./CDTITLES/Dance Dance Revolution Disney Channel Edition.png;
#SINGLE:BEGINNER:1:
00000000
00000000
00000000
00000000
80000000
20000000
60000000
40002000
80000000
60000000
40000000
20002000
80000000
40000000
60000000
80004000
20000000
60000000
20000000
40008000
20000000
60000000
40000000
80008000
20000000
40000000
60000000
00000000
A0000000
40000000
60000000
20000000
B0000000
80000000
20004000
40006000
80000000
40000000
00000000
00000080
80000000
40000000
60000000
20002000
40000000
60000000
20000000
80004000
20000000
60000000
40000000
80008000
60000000
40000000
80000000
20006000
40000000
;
#SINGLE:BASIC:3:
00000000
00000000
00000000
80004000
20400000
20600000
80200000
A000B000
60200000
80400000
20800000
60606000
60002000
80204000
20006000
40802000
60004000
80206000
60004000
2080A000
60004000
80002060
80004000
80802000
40006000
20008040
20006000
A!A00000A0
60404000
80002000
40606000
20008000
20608000
2000B000
80402000
60004000
A0000000
20600000
B!B0000000
000000B0
40606000
20008000
60404000
80002000
80402000
8000B000
20608000
40006000
60402000
60002000
40604000
2000B000
20608000
20008000
40206000
20004000
B0000000
;
#SINGLE:ANOTHER:5:
00000000
00000000
00000000
20008046
2080B000
80409000
20801000
60408260
B0006280
B0004280
A0006460
60802040
80002000
80004620
80004000
20008620
20008000
20006480
20006000
80002480
4!40007260
8!8000A460
2!2000A460
80406020
6!60003840
2!2000A640
8!8000A640
20604080
4060B000
8020A000
3!30307!7070
40802680
6040B000
2080A000
7!70703!3030
60208420
2080B000
80409000
1!10000000
10408260
6040B000
2080A000
7!70703!3030
60208420
4060B000
8020A000
3!30307!7070
40802680
4060B000
8020A000
3!30307!7070
40802680
6040B000
2080A000
7!70703!3030
60208460
B0000000
;
#SINGLE:MANIAC:6:
00000000
00000000
00000000
80002064
8020B000
20601000
80209000
40602840
803!6000B8
207!400018
60A!800076
20308010
20802460
20802640
20702090
1!40702680
20704260
20906240
80104820
20906280
3!20A04280
1!20A06280
40602880
2!203!609!807!40
7!80A06820
9!80A04820
60408220
B!B00000B0
20804640
20806460
7!70703!3030
60204260
80102860
80302840
60904070
203070B0
8020B000
20601000
9!90000000
90602840
80206460
80204640
3!30307!7070
40806840
20908240
20708260
40106030
807030B0
8!80A06460
8!80A04640
3!30307!7070
4!40706840
2!20A08240
2!20A08260
40106030
807030B0
A0000000
;
#DOUBLE:BASIC:3:
00000000
00000000
00000000
80002000
40800000
40200000
60000000
60000000
00000000
00000000
00600000
80202000
60002000
40208000
20006000
00000000
00000000
60804000
20006000
00000000
00000000
60008040
20008000
60008000
00006000
00000000
00000000
6!60000060
60204000
80002000
60802000
60000000
00000000
00006000
80402000
B0008000
A0000000
20600000
60000000
00000000
00006000
00608000
20004000
20006000
20006000
00000000
00000000
00006000
80402000
60000000
00000000
00000000
00000000
00006000
20408000
20000000
60000000
:
00000000
00000000
00000000
00000000
00000000
00000000
00400000
40002000
80400000
60200000
40000000
00000000
00000000
00000000
00000000
40206000
80004000
00000000
00000000
4080B000
80004000
00000000
00000000
00000000
40000000
20004060
20004000
4!40000040
00000000
00000000
00000000
00004000
20608000
40000000
00000000
00000000
00000000
00004000
00004000
20608000
80400000
40000000
00000000
00000000
00400000
8000B000
20608000
40000000
00000000
00004000
20008000
2000B000
80202000
40000000
00000000
00004000
40000000
;
#DOUBLE:ANOTHER:5:
00000000
00000000
00000000
00000000
00606000
8020A000
4060B000
20600000
00000000
00006020
30008420
80206000
00000000
00000000
00000000
00000680
40006000
80002600
00000000
00000600
6!60006280
4!40001460
8!8000A420
60000000
00000000
00000620
4!40007260
40608020
60006000
00000000
00000000
00000000
00606000
2060B000
3!30307!7070
20408460
80006000
00000000
00000000
00000620
4080B000
40209000
6!60600000
00000000
60807000
80401000
3!30306!6060
00000000
00606000
2080B000
3!30307!7070
20406820
60000000
00000000
00000000
60208640
B0000000
:
00000000
00000000
00000000
80002064
20004000
00000000
00000000
00004280
B0008240
10000400
00000000
00000040
80002000
40006820
40008000
20004000
00000000
00000040
20006000
80002040
00004000
00000000
00000000
00402060
8!8000A460
2!20001000
00000000
00000000
00404000
2080B000
3!30307!7070
20608240
20004000
00000000
00000000
00000000
00404000
8020B000
8!80000000
90204000
00000000
00000000
4!40407!7070
60208240
00000000
00000000
00004!4040
20608240
80004000
00000000
00000000
00000000
00401000
8020B000
A!A0A01!1010
00000000
00000000
;
#DOUBLE:MANIAC:7:
00000000
00000000
00000000
80002064
80401000
20606000
00000000
00006840
20A!200012
60600060
00000000
00000000
00600600
60002060
80102090
1!40702680
20600600
00000000
60602480
20900600
00000000
00000060
A!80702880
2!203!606000
00000000
00006840
20408220
B!B00000B0
80602420
60202600
6!60600000
00000680
40108240
80A02600
00000000
00603070
4020B000
80600600
6!60000000
60000000
00000000
00006060
3!3030A!A0A0
40202600
60600000
00000000
60902010
807030B0
8!80A02640
2!20300600
00000000
00000680
4!40108240
2!20300620
60600000
00000000
00000000
:
00000000
00000000
00000000
00000000
00000000
00004000
80603000
20400000
00000000
004!400044
209!8000A4
60A04030
80004020
00400400
00000000
00000000
00004020
40906240
00400000
00004080
3!20A04280
9!60302400
00000000
00004!407!80
90204280
A!20100000
00000000
00000000
00000000
00000040
4!40407!7070
60204000
00000000
00000040
80304070
20400000
00000000
00004040
4!40000000
40408024
80206860
80200400
00000000
00000040
00404860
20902010
00000000
00000000
00000000
00004040
1!1010B!B0B0
8!80A04000
00000000
00004000
004020A0
60702030
B0000000
;
