#TITLE:WE'RE ALL IN THIS TOGETHER;
#ARTIST:HIGH SCHOOL MUSICAL;
#FILE:WE'RE ALL IN THIS TOGETHER.mp3;
#BPM:116.000;
#GAP:191;
#SAMPLESTART:58.296;
#SAMPLELENGTH:15.000;
#CDTITLE:./CDTITLES/Dance Dance Revolution Disney Channel Edition.png;
#DISPLAYBPM:115..116;
#SINGLE:BEGINNER:1:
00000000
00000000
00000000
00400060
00800080
00808080
00200020
00202020
00400060
00404040
00800060
00202020
00800000
00400000
00600000
00B00000
00400000
00800000
00600000
00200020
20200000
00800000
00400060
00400040
40400080
00600080
00400020
00800000
00600000
00400000
00800020
00800020
00400000
00600000
00200080
00600040
00800000
00200000
00400060
00200040
00800000
00200000
00600080
00202020
00400000
00600000
00800020
00800000
A0000000
;
#SINGLE:BASIC:3:
00000000
00000000
00600040
00202080
80600040
20400080
20600040
20400080
20400060
20600040
80200060
00800020
40606020
00802080
40208020
60004060
40802060
B0002000
80402040
60200020
20802060
40002040
80600020
40600040
60402080
A0004000
60208040
20600040
00606040
20004000
60008000
20402080
60404020
60008000
20008000
40206020
40808020
80004000
20006000
40802060
80202040
60002000
80004000
60204080
20606040
00202080
00606020
40402060
60000000
;
#SINGLE:ANOTHER:4:
00000000
00000000
00000000
00B000A0
B0208040
00604082
80402060
00406024
20804060
00802086
80408020
00604064
60B02480
A0608020
40602680
A0406046
40802040
B0428020
40604020
80604028
60406020
A0406080
20408040
208!808020
80406080
A0604080
20804064
208!800080
0040406!60
00B0604!40
10204080
20604!40B0
0060604!40
00B0406!60
30206040
20806!60B0
004!40706!60
30804020
80642080
80204082
8040406!60
00B0604!40
10802086
80204082
80B02084
8020608!80
A0406040
22806020
82000000
;
#SINGLE:MANIAC:7:
00000000
00000000
00000000
06600442
80042406
26082864
60048406
26086824
24B28208
48062688
24B26202
82084822
642!204182
60B02808
42B02482
6!60803026
82B08420
A0B04202
46A08682
(4!4000800010406046)
0820464!40
70A06404
(2800B08060802040)
602!204080
A2B08628
40A04606
(2600A08040208020)
462!20A!807!40
B4B!6038!800
7248280B!6
0B024802
68024286
228!8076!600
B286280B!4
07026402
46028468
22B!4072!200
3862820B!4
0B086208
42086824
882!2034!400
B824820B!6
03084608
64082642
(8080B000A0008004)
(2000602080408046)
00284282
46284628
46000000
;
#DOUBLE:BASIC:3:
00000000
00000000
00000000
00000000
00000060
00600000
20800040
60400080
60200000
60000060
00000000
00000000
00000000
00000000
00000000
60000060
00806020
A0004000
60802080
00600000
00000000
00000000
00000000
00600000
60008020
A0006000
40802060
80000060
00000000
00000000
00000000
60208040
20404060
20000000
60000000
00000000
00000000
00000000
00006000
20408040
60808020
60008000
00006000
00000000
00000000
00000000
00606000
80806020
20000000
:
00000000
00000000
00400020
00606020
20800000
40000040
00000000
00000000
00000040
00400000
20800060
00800020
40808020
00608060
20802040
00004000
40000000
00000000
00000000
40000020
20408020
60004020
80600040
20000040
00400000
00000000
00000000
00400000
00202080
60004000
80002000
00000000
00000000
00004000
00008000
20804020
60202080
60008000
40000000
00000000
00000000
00000000
40000000
20406040
80202060
00404020
00000040
00000000
00000000
;
#DOUBLE:ANOTHER:4:
00000000
00000000
00000000
00000060
00000000
00600028
20602040
00208042
40208060
00000000
00000000
00000000
00006060
60002080
20608240
B0208006
00000000
00000000
00000000
60008064
20408020
30800060
00000000
00000000
00000000
00000000
60006028
602!200020
0080804!40
0010806!60
30200060
00600000
00000000
00000000
00000000
00006!6090
004!40B04!40
10806020
00806000
00000000
00000000
00000000
60006028
20408026
20900060
60000000
00000000
00000000
60000000
:
00000000
00000000
00000000
00100040
10008020
00004000
00000000
00000000
00000000
00402086
80204080
00206042
40100400
40400000
00000000
00000040
40208020
A0428060
40804020
00400000
00000000
00004000
40208040
208!808060
40602080
A0602080
00400000
00000000
00000000
00000000
00004000
20004!4010
0080804!40
00B0802!20
10802060
20400000
00000000
00000000
40040020
20806042
4080802!20
00A0402!20
20400000
00000000
00004004
0020802!20
10604080
22608020
04000000
;
#DOUBLE:MANIAC:7:
00000000
00000000
00000000
00000000
00060000
62086824
80026208
08006000
00000000
00060600
00662602
82048466
806!600600
00000000
00000602
8!80207048
26A04260
60000000
00000068
(4!4000600070206028)
0420806!60
60600000
(0000000000000000)
00000060
62A08462
80B02606
(8000600000000000)
00000000
00000000
0068240B!6
09024606
82028060
00000000
0000620A!2
03042806
28026806
006006!600
66000000
00000000
00006082
448!80A6!600
B8268006!6
03000000
00000600
(0000000000000000)
(0000000000602046)
00862426
80000000
00000000
:
00000000
00000000
00000000
02200884
20004204
00000000
00000000
40040428
26B82802
42004044
24400000
00000000
04004428
40B08202
48B02040
00000000
00000000
40A06202
68B02400
(0000000000000000)
00000400
40404202
(8400702060806020)
804!408000
40000000
00000000
(0400002080602060)
862!20A!807!40
B4B!6038!800
A4000000
00000000
00000404
224!4072!200
32840000
00000000
00000040
444!401000
4042820B!6
03084208
62080400
00000000
00000404
00042804
62082042
(8080B000A0008006)
(4000602040000000)
00000000
04284286
46000000
;
