#VERSION:0.82;
#TITLE:Blow Me;
#SUBTITLE:(One Last Kiss);
#ARTIST:P!nk;
#TITLETRANSLIT:;
#SUBTITLETRANSLIT:;
#ARTISTTRANSLIT:;
#GENRE:Pop;
#ORIGIN:;
#CREDIT:;
#BANNER:Blow Me (One Last Kiss).png;
#BACKGROUND:Blow Me (One Last Kiss)-bg.png;
#PREVIEWVID:;
#JACKET:jacket.png;
#CDIMAGE:;
#DISCIMAGE:;
#LYRICSPATH:;
#CDTITLE:cdtitle.png;
#MUSIC:Blow Me (One Last Kiss).ogg;
#OFFSET:0.000000;
#SAMPLESTART:42.093178;
#SAMPLELENGTH:15.919991;
#SELECTABLE:YES;
#BPMS:0.000=114.000;
#STOPS:;
#DELAYS:;
#WARPS:;
#TIMESIGNATURES:0.000=4=4;
#TICKCOUNTS:0.000=4;
#COMBOS:0.000=1;
#SPEEDS:0.000=1.000=0.000=0;
#SCROLLS:0.000=1.000;
#FAKES:;
#LABELS:0.000=Song Start;
#BGCHANGES:4.000=Blow Me (One Last Kiss).avi=1.000=0=0=1=====,
99999=-nosongbg-=1.000=0=0=0 // don't automatically add -songbackground-
;
#KEYSOUNDS:;
#ATTACKS:
;

//---------------dance-single - ----------------
#NOTEDATA:;
#CHARTNAME:;
#STEPSTYPE:dance-single;
#DESCRIPTION:;
#CHARTSTYLE:;
#DIFFICULTY:Hard;
#METER:7;
#RADARVALUES:0.411383,0.424718,0.158451,0.206676,0.075781,365.000000,23.000000,30.000000,0.000000,0.000000,0.000000,0.000000,0.000000,0.411383,0.424718,0.158451,0.206676,0.075781,365.000000,23.000000,30.000000,0.000000,0.000000,0.000000,0.000000,0.000000;
#CREDIT:Ben Speirs;
#NOTES:
0000
0000
0000
0000
,
0000
0000
0000
0000
,
1000
0100
1000
0000
0100
1000
0010
0010
,
0100
0001
0100
0000
0001
1000
0010
0000
,
1002
0000
0100
0000
2003
0000
3100
0010
,
0002
0100
0010
1003
,
0001
0010
0100
1000
0001
1000
0001
0000
,
1000
0100
0010
0001
1000
0001
1000
0000
,
2000
0000
0100
0000
3002
0000
0013
0001
,
2000
0010
0100
3001
,
1000
0100
0010
0001
0010
0001
0100
0000
,
0001
0100
0010
1000
0010
1000
0100
0000
,
1000
0001
0100
0001
0000
1000
0100
1000
,
0000
0001
0010
0001
0000
0100
0000
0010
,
0000
1000
0010
1000
0000
0001
1000
0001
,
0000
0100
0001
0100
0000
0001
0000
1000
,
0000
0001
0010
0100
0000
1000
0010
0100
,
0000
0010
1000
0100
0000
1000
0000
0001
,
0000
0010
0001
0100
0000
0010
1000
0100
,
0000
1000
0001
0000
1001
0000
0000
0000
,
0001
0000
0100
0000
0001
0000
0100
0000
0010
0000
0000
0010
0000
0000
0010
0000
,
1000
0000
0100
0000
1000
0000
0100
0000
0010
0000
0000
0010
0000
0000
0010
0000
,
0001
0000
1000
0000
0001
0000
1000
0000
0010
0000
0000
0010
0000
0000
0010
0000
,
0200
0000
0301
2000
0000
3200
0000
0310
,
0001
0000
1000
0000
0001
0000
1000
0000
0010
0000
0000
0100
0000
0000
0010
0000
,
1000
0001
1000
0001
0010
0001
0100
0000
,
0001
0100
0010
0000
1000
0100
0010
0000
,
2100
0000
3001
0200
0000
0320
0000
1030
,
0002
0000
2003
0000
3010
0100
0010
1000
,
0000
0000
0001
0000
1000
0000
0000
0100
0000
0000
1001
0000
0000
0000
0000
0000
,
0000
0000
1000
0000
0001
0000
0000
0100
0000
0000
1001
0000
0000
0000
0000
0000
,
0000
0000
0001
0000
1000
0000
0000
0010
0000
0000
1001
0000
0000
0000
0000
0000
,
1000
0000
0100
0000
1000
0000
0010
0000
1000
0000
0000
1000
0000
0000
1000
0000
,
0001
0000
0100
0000
0001
0000
0010
0000
0001
0000
0000
0001
0000
0000
0001
0000
,
0100
0010
1000
0000
0010
0100
0001
0000
,
2001
0000
3001
0020
0000
0032
0000
1003
,
0200
0010
1000
1300
,
0001
1000
0001
0000
1000
0100
1000
0000
,
0002
0100
0010
0013
,
0001
0100
0001
0000
1000
0010
1000
0000
,
0101
0000
1100
0000
0000
0001
0000
1000
,
0000
0010
0000
0100
0010
0100
0001
0000
,
1010
0000
0011
0000
0000
1000
0000
0001
,
0100
0000
0010
0000
0000
1000
0000
0000
0001
0000
0000
0000
1000
0001
0000
0000
,
0100
0001
0100
0010
0000
1000
0010
1000
,
0000
0001
0010
0001
0000
0100
0000
1001
,
0000
1000
0010
0100
0000
0001
1000
0100
,
0000
0010
0001
0100
0000
0010
0000
0110
,
0000
1000
0010
1000
0000
0001
1000
0001
,
0000
0100
0001
0100
0000
0101
0000
1100
,
0000
0001
1000
0001
0000
1000
0100
1000
,
0000
0100
1000
0001
0010
0000
0000
0000
,
1001
0000
0000
0000
1000
0000
0000
0000
0010
0000
0000
0100
0000
0000
0001
0000
,
1000
0000
0000
0000
0001
0000
0000
0000
0010
0000
0000
0001
0000
0000
0100
0000
,
0010
0000
0000
0000
1000
0000
0000
0000
0001
0000
0000
0010
0000
0000
0001
0000
,
2000
0000
3100
0020
0000
0032
0000
1003
,
0020
0000
0000
0000
0130
0000
0000
0000
0110
0000
0000
0100
0000
0000
0001
0000
,
1000
0000
0000
0000
1100
0000
0000
0000
0100
0000
0000
1000
0000
0000
0000
0000
,
0001
0000
0101
0000
1000
0001
1000
0000
,
0001
0100
0010
1000
0100
0010
0001
0000
,
2100
0000
3020
0000
0130
0010
0100
0001
,
1000
0000
0000
0000
0010
0000
0000
0100
0000
0000
1001
0000
0000
0000
0000
0000
,
0000
0000
0010
0000
0100
0000
0000
0010
0000
0000
1001
0000
0000
0000
0000
0000
,
0000
0000
0100
0000
0010
0000
0000
0100
0000
0000
1001
0000
0000
0000
0000
0000
,
0001
0000
0100
0000
0001
0000
0100
0000
0010
0000
0000
1000
0000
0000
0001
0000
,
1000
0000
0100
0000
1000
0000
0100
0000
0010
0000
0000
0001
0000
0000
1000
0000
,
0001
0000
0100
0000
0001
0000
0100
0000
0010
0000
0000
1000
0000
0000
0001
0000
,
0020
0000
0031
0200
0000
0320
0000
2030
,
0200
0000
3300
0000
;

//---------------dance-single - ----------------
#NOTEDATA:;
#CHARTNAME:;
#STEPSTYPE:dance-single;
#DESCRIPTION:;
#CHARTSTYLE:;
#DIFFICULTY:Challenge;
#METER:9;
#RADARVALUES:0.599359,0.637078,0.261789,0.165340,0.303124,547.000000,38.000000,24.000000,0.000000,0.000000,0.000000,0.000000,0.000000,0.599359,0.637078,0.261789,0.165340,0.303124,547.000000,38.000000,24.000000,0.000000,0.000000,0.000000,0.000000,0.000000;
#CREDIT:Ben Speirs;
#NOTES:
// measure 0
0000
0000
0000
0000
,  // measure 1
0000
0000
0000
0000
,  // measure 2
0001
0000
0100
0000
0001
0000
0010
0000
0001
0000
0100
0010
0000
0010
1000
0000
,  // measure 3
0100
0000
1000
0000
0010
0000
0100
0000
0001
0000
1000
0010
0000
1000
0100
1000
,  // measure 4
0200
0000
0310
0002
0100
0000
1003
0001
,  // measure 5
2000
0100
0001
3010
,  // measure 6
1000
0010
0001
0010
1000
0001
0010
0000
,  // measure 7
0001
0100
1000
0100
0001
1000
0001
0000
,  // measure 8
0002
0000
0013
0200
1000
0000
0310
0001
,  // measure 9
0200
1000
0010
0301
,  // measure 10
0100
0001
0100
1000
0100
0010
1000
0000
,  // measure 11
0010
1000
0010
0001
0010
0100
0110
0000
,  // measure 12
0001
0100
0101
1000
0000
0100
1100
0001
,  // measure 13
0000
0000
0010
0000
0011
0000
1000
0000
0000
0000
0001
0000
1000
0000
0010
0100
,  // measure 14
0000
0001
0101
1000
0000
0010
1010
0001
,  // measure 15
0000
0000
1000
0000
1100
0000
0001
0000
0000
0000
0010
0000
0001
0000
1000
0010
,  // measure 16
0000
0000
1000
0100
1000
0000
0001
0000
0000
0000
0001
0010
0001
0000
0100
0000
,  // measure 17
0000
0000
0001
1000
0001
0000
1000
0000
0000
0000
0001
0000
0100
0000
0010
0000
,  // measure 18
1000
0100
1100
0100
0010
0001
0101
0100
,  // measure 19
0010
1000
0001
2002
0000
0000
3003
0000
,  // measure 20
0101
0000
0100
0000
0010
0000
1000
0000
0100
1000
0100
0010
0100
0010
0100
0000
,  // measure 21
0010
0000
0001
0000
1000
0000
0010
0000
0100
0010
0100
0010
1000
0010
1000
0000
,  // measure 22
0010
0000
1000
0000
0100
0000
0010
0000
0001
0010
0001
0010
0001
1000
0001
0000
,  // measure 23
0200
0000
0301
1000
0010
0100
0001
0000
,  // measure 24
1000
0000
0010
0000
0100
0000
0001
0000
1000
0100
1000
0100
0010
0100
0010
0000
,  // measure 25
0001
0000
1000
0000
0010
0000
0100
0000
0001
0100
0001
0100
0020
0000
0000
0000
,  // measure 26
0130
0001
1000
0010
1000
0100
0110
0000
,  // measure 27
0012
0000
0103
0001
1000
0010
0100
0000
,  // measure 28
0001
1000
0001
1000
0001
0100
1000
0100
,  // measure 29
0010
0000
1000
0000
0100
1000
0100
1000
0100
0000
0010
0000
0001
0000
0000
0000
,  // measure 30
0100
0000
0001
0000
1000
0010
1000
0010
1000
0000
0001
0000
0100
0000
0000
0000
,  // measure 31
0001
0000
1000
0000
0001
0010
0001
0010
0001
0000
0100
0000
0010
0000
0000
0000
,  // measure 32
0100
0000
0001
0000
0010
0000
0100
0000
1000
0100
1000
0100
0010
0100
0010
0000
,  // measure 33
0001
0000
1000
0000
0010
0000
0100
0000
0001
0100
0001
0100
0010
0100
0010
0000
,  // measure 34
1000
0000
0001
0000
0010
0000
0100
0000
0010
0001
0100
0010
1000
0001
0100
0000
,  // measure 35
0020
0000
1030
0100
0010
0001
0200
0000
,  // measure 36
0301
0000
1000
0000
0001
0000
1000
0000
0001
0000
0100
0010
0000
1000
0001
0000
,  // measure 37
1000
0000
0001
0000
1000
0000
0001
0000
1000
0000
0100
0010
0000
0001
1000
0000
,  // measure 38
0001
0000
0100
0000
1000
0000
0100
0000
0001
0000
0100
0010
0000
1000
0010
0000
,  // measure 39
1000
0000
0100
0000
0010
0000
0001
0000
1000
0000
0010
0100
0000
0001
1000
0000
,  // measure 40
0010
0000
0100
0001
0100
0000
0010
0000
1000
0000
0100
1000
0100
0000
0010
0000
,  // measure 41
0001
0000
0100
0001
1000
0000
0010
0000
1000
0000
0100
1000
0001
0000
0010
0000
,  // measure 42
0001
0000
1000
0100
1000
0000
0010
0000
0100
0000
0001
0100
0001
0000
1000
0000
,  // measure 43
0010
0000
0100
0000
0001
1000
0000
0000
1001
0000
0000
0000
1000
0100
0010
0001
,  // measure 44
1000
0010
0110
0100
0001
1000
1100
0100
,  // measure 45
0010
0000
0001
0000
0011
0000
0001
0000
1000
0000
0010
0000
0100
0000
0001
1000
,  // measure 46
0010
0100
0101
0100
0010
1000
1100
0100
,  // measure 47
0010
0000
0001
0000
0011
0000
0001
0000
1000
0000
0010
0000
0100
0000
0010
1000
,  // measure 48
0100
1000
1100
1002
0000
0103
0101
2001
,  // measure 49
0000
0000
3010
0000
1010
0000
1002
0000
0000
0000
0013
0000
0001
0000
1000
0001
,  // measure 50
1000
0000
0010
1000
0100
0000
1000
0000
0010
0000
0100
0001
0010
0000
0001
0000
,  // measure 51
1000
0100
0010
0002
0000
0000
0003
0000
,  // measure 52
1100
0000
0100
0000
1000
0000
0010
0000
0100
0001
0100
0010
0100
0010
1000
0000
,  // measure 53
0001
0000
0010
0000
0100
0000
1000
0000
0010
1000
0010
0100
0010
0100
0001
0000
,  // measure 54
1000
0000
0010
0000
0100
0000
0001
0000
1000
0100
1000
0100
0010
0001
0010
0000
,  // measure 55
0002
0000
0103
0001
1000
0010
0100
0000
,  // measure 56
0101
0000
0100
0000
0010
0000
1000
0000
0001
1000
0001
1000
0100
1000
0001
0000
,  // measure 57
0100
0000
0010
0000
1000
0000
0001
0000
1000
0100
0010
0001
0200
0000
0000
0000
,  // measure 58
0301
0100
0010
1000
0001
0010
0011
0000
,  // measure 59
2100
0000
3001
1000
0010
0100
0001
0000
,  // measure 60
1001
0100
1002
0000
1003
0100
0010
0001
,  // measure 61
0100
0000
0010
0000
1000
0010
1000
0010
0100
0000
0001
0000
1000
0000
0000
0000
,  // measure 62
0001
0000
0010
0000
0001
0100
0001
0100
0010
0000
1000
0000
0001
0000
0000
0000
,  // measure 63
1000
0000
0100
0000
1000
0100
0010
0001
1000
0000
0010
0000
0100
0000
0000
0000
,  // measure 64
0001
0000
0101
0000
1001
0000
0010
0000
1000
0000
0001
0010
0100
1000
0001
0000
,  // measure 65
1000
0000
1100
0000
1001
0000
1000
0000
0010
0100
0010
0100
0001
1000
0010
0000
,  // measure 66
0100
0000
0101
0000
1100
0000
0001
0000
1000
0000
0100
0010
0000
0010
0001
0000
,  // measure 67
2000
0000
3100
1000
0010
0100
0002
2000
,  // measure 68
0000
0000
3003
0000
;

//---------------dance-double - ----------------
#NOTEDATA:;
#CHARTNAME:;
#STEPSTYPE:dance-double;
#DESCRIPTION:;
#CHARTSTYLE:;
#DIFFICULTY:Challenge;
#METER:8;
#RADARVALUES:0.501927,0.519100,0.248011,0.192897,0.127450,446.000000,36.000000,28.000000,0.000000,0.000000,0.000000,0.000000,0.000000,0.501927,0.519100,0.248011,0.192897,0.127450,446.000000,36.000000,28.000000,0.000000,0.000000,0.000000,0.000000,0.000000;
#CREDIT:Ben Speirs;
#NOTES:
00000000
00000000
00000000
00000000
,
00000000
00000000
00000000
00000000
,
00001000
00000000
00010000
00000000
00001000
00000000
00100000
00000000
00010000
00000000
00000000
00100000
00000000
00000000
00001000
00000000
,
00010000
00000100
00001000
00000000
00000010
00001000
00000001
00000000
,
00002001
00000000
00000000
00000000
00000010
00000000
00000000
00003000
00000200
00000000
00000000
00000000
00000310
00000000
00000001
00000000
,
00000200
00000010
00001000
00000310
,
00000100
00000010
00001000
00000100
00010000
00010000
00000100
00000000
,
00010000
00001000
00100000
00010000
01000000
01000000
00100000
00000000
,
20100000
00000000
00010000
00000000
32000000
00000000
03100000
00010000
,
02000000
00100000
00010000
03010000
,
01000000
00100000
01000000
00010000
00100000
00100000
00001000
00000000
,
00100000
00001000
00010000
00000100
00001000
00000000
00001001
00000000
,
00000010
00001000
00001100
00000100
00000000
00010000
00010100
00010000
,
00000000
00001000
00101000
00100000
00000000
00010000
10000000
00100000
,
00000000
10000000
11000000
00010000
00000000
01000000
01010000
10000000
,
00000000
00100000
10100000
00010000
00000000
10000000
01000000
00100000
,
00000000
00010000
00100000
00001000
00000000
00010000
00000100
00001000
,
00000000
00000010
00010000
00001000
00000000
00100000
00001000
01000000
,
00000000
00010000
01000000
00100000
00000000
10000000
01000000
00100000
,
00010000
10000000
00100000
02000000
00000000
00000000
03000000
00000000
,
01010000
00000000
01000000
00000000
00100000
00000000
10000000
00000000
01000000
00000000
00100000
00010000
00000000
00010000
01000000
00000000
,
00010000
00000000
00100000
00000000
00001000
00000000
00010000
00000000
00000100
00000000
00001000
00000010
00000000
00000010
00000100
00000000
,
00000001
00000000
00001000
00000000
00000100
00000000
00000010
00000000
00000001
00000000
00001000
00000010
00000000
00000010
00000100
00000000
,
00000002
00000000
00000103
00002000
00000000
00023000
00000000
00130000
,
10000000
00000000
01000000
00000000
10000000
00000000
00100000
00000000
01000000
00000000
00010000
00100000
00000000
00100000
01000000
00000000
,
10000000
00000000
00100000
00000000
01000000
00000000
00010000
00000000
10000000
00000000
00100000
01000000
00100000
00000000
00000000
00000000
,
10000000
00100000
01000000
00010000
00100000
01000000
11000000
00000000
,
00020000
00000000
00130000
00001000
00010000
00000100
00001000
00000010
,
00000210
00000000
00000302
00000000
00000103
00000010
00001000
00000100
,
00000000
00000000
00010000
00000000
00000100
00000000
00000000
00010000
00000000
00000000
00011000
00000000
00000000
00000000
00000000
00000000
,
00000000
00000000
00001000
00000000
00100000
00000000
00000000
00001000
00000000
00000000
00011000
00000000
00000000
00000000
00000000
00000000
,
00000000
00000000
00010000
00000000
00000100
00000000
00000000
00010000
00000000
00000000
00011000
00000000
00000000
00000000
00000000
00000000
,
00100000
00000000
00100000
00000000
00010000
00000000
00100000
00000000
00001000
00000000
00001000
00010000
00000000
00010000
00001000
00000000
,
00010000
00000000
00000100
00000000
00000100
00000000
00001000
00000000
00000010
00000000
00000100
00000010
00000000
00000010
00000100
00000000
,
00000010
00001000
00000100
00010000
00001000
00100000
00010000
00000000
,
00102000
00000000
00013000
00000100
00001000
00000010
00000100
00000000
,
00001001
00000000
00001010
00000000
00000001
00000100
00000010
00001000
,
00000200
00000000
00010300
00000000
00001000
00010000
00000100
00000000
,
00010100
00000000
00011000
00000000
00010000
00001000
00100000
00010000
,
02000000
00000000
03100000
10000000
00100000
01000000
00010000
00000000
,
01010000
00000000
11000000
00000000
00000000
00010000
00010000
10000000
,
10000000
00000000
10100000
00000000
00100000
01000000
00010000
00000000
,
00110000
00000000
00101000
00000000
00000000
00010000
00010000
00000100
,
00000100
00000000
00001000
00000000
00000000
00000001
00000000
00000000
00000100
00000000
00000000
00000000
00000001
00001000
00000000
00000000
,
00000001
00000100
00000010
00001000
00000100
00010000
00001000
00100000
,
00010000
00000000
01000000
00000000
00100000
00000000
20000000
00000000
00000000
00000000
31000000
00000000
10000000
00000000
00100000
01000000
,
00100000
10000000
01000000
00100000
00010000
01000000
00100000
00010000
,
00001000
00000000
00000010
00000000
00000001
00000000
00002000
00000000
00000000
00000000
00003010
00000000
00001000
00000000
00000001
00000100
,
00000001
00000100
00000110
00000010
00001000
00000100
00001100
00000100
,
00010000
00000000
00001000
00000000
00011000
00000000
00001000
00000000
00100000
00000000
00010000
00000000
01000000
00000000
00100000
10000000
,
01000000
10000000
11000000
01000000
00100000
00010000
01010000
01000000
,
00001000
00100000
00000100
00002000
00000000
00000000
00003000
00000000
,
00001001
00000000
00000001
00000000
00000100
00000000
00000010
00000000
00001000
00000000
00001000
00000100
00000000
00000100
00010000
00000000
,
00001000
00000000
00100000
00000000
00010000
00000000
01000000
00000000
00100000
00000000
00100000
10000000
00000000
10000000
01000000
00000000
,
10000000
00000000
00100000
00000000
01000000
00000000
00010000
00000000
00100000
00000000
00010000
01000000
00000000
01000000
00100000
00000000
,
20000000
00000000
31000000
00010000
00001000
00000010
00000001
00000100
,
00000010
00000000
00001000
00000000
00000010
00000000
00000100
00000000
00000001
00000000
00000001
00000100
00000000
00000100
00000010
00000000
,
00001000
00000000
00000100
00000000
00010000
00000000
00001000
00000000
00010000
00000000
00000010
00001000
00000020
00000000
00000000
00000000
,
00001030
00000100
00010000
00001000
00100000
00010000
02000000
00000000
,
03100000
10000000
01000000
00100000
00010000
01000000
00001000
00010000
,
00011000
00000000
00101000
00000000
00100000
00010000
01000000
00100000
,
10000000
01000000
00100000
00010000
01000000
20010000
00000000
00000000
,
30100000
10000000
01000000
00100000
00010000
20010000
00000000
00000000
,
30100000
00000000
10000000
00000000
01000000
00000000
00100000
00000000
00010000
00000000
10020000
00000000
00000000
00000000
00000000
00030000
,
01000000
00000000
00010000
00000000
00100000
00000000
00001000
00000000
00010000
00000000
00000100
00010000
00000000
00000010
00001000
00000000
,
00000001
00000000
00000100
00000000
00000010
00000000
00001000
00000000
00000100
00000000
00010000
00000100
00000000
00100000
00001000
00000000
,
00100000
00000000
00010000
00000000
01000000
00000000
00100000
00000000
10000000
00000000
01000000
00100000
00000000
00010000
01000000
00000000
,
00002000
00000000
00013000
00000100
00000010
00000001
00000200
00002000
,
00000000
00000000
00003300
00000000
;

//---------------dance-single - ----------------
#NOTEDATA:;
#CHARTNAME:;
#STEPSTYPE:dance-single;
#DESCRIPTION:;
#CHARTSTYLE:;
#DIFFICULTY:Medium;
#METER:5;
#RADARVALUES:0.292298,0.306741,0.186008,0.103338,0.055113,255.000000,27.000000,15.000000,0.000000,0.000000,0.000000,0.000000,0.000000,0.292298,0.306741,0.186008,0.103338,0.055113,255.000000,27.000000,15.000000,0.000000,0.000000,0.000000,0.000000,0.000000;
#CREDIT:Ben Speirs;
#NOTES:
0000
0000
0000
0000
,
0000
0000
0000
0000
,
0001
0000
0000
0000
0100
0000
0000
0000
0010
0000
0000
0010
0000
0000
0000
0000
,
1000
0000
0000
0000
0001
0000
0000
0000
1000
0000
0000
1000
0000
0000
0000
0000
,
2100
0100
0001
0001
,
0020
3030
0010
0010
,
1000
0100
1000
0000
0001
0100
0001
0000
,
1000
0100
0010
0001
,
0012
0000
0100
0100
,
2000
0000
0000
3003
,
0001
0100
0001
0000
1000
0000
0001
0000
,
1000
0100
1000
0100
0000
0000
1001
0000
,
0000
1100
0000
1001
,
0000
0000
0101
0000
1000
0000
0010
1000
,
0000
1010
0000
0011
,
0000
0000
1001
0000
0001
0000
0100
0001
,
0000
1100
0000
0101
,
0000
0000
1001
0000
1000
0000
0010
0100
,
0000
0001
0100
0001
0000
1000
0100
1000
,
0000
0001
0000
0100
0000
0000
0000
0000
,
0001
0000
0000
0000
1000
0000
0000
0000
0010
0000
0000
0010
0000
0000
0010
0000
,
0100
0000
0000
0000
0001
0000
0000
0000
1000
0000
0000
1000
0000
0000
1000
0000
,
0100
0000
0000
0000
0010
0000
0000
0000
0001
0000
0000
0001
0000
0000
0001
0000
,
0100
0010
0110
1001
,
1000
0000
0000
0000
0100
0000
0000
0000
1000
0000
0000
1000
0000
0000
1000
0000
,
0001
0000
0000
0000
1000
0000
0000
0000
0001
0000
0000
0001
0000
0000
0000
0000
,
0100
0001
1000
1000
,
0010
0010
0010
0000
,
1001
1001
1000
0100
,
0010
0000
0000
0000
0001
0000
0000
0000
0100
0000
0020
0000
0000
0000
0000
0030
,
1000
0000
0100
0000
0010
0002
0000
0000
,
0103
0000
0001
0000
1000
0020
0000
0000
,
0130
0000
0000
0000
0001
0000
0000
0000
1000
0000
0000
1000
0000
0000
1000
0000
,
0100
0000
0000
0000
1000
0000
0000
0000
0001
0000
0000
0001
0000
0000
0001
0000
,
0100
0001
0010
0010
,
0110
0000
0010
0000
0001
1000
0001
0000
,
2000
3100
0000
1000
,
0001
0100
0010
0010
,
0200
0301
0000
0001
,
0100
0010
1000
0001
,
0100
0000
0100
0000
0000
0010
0000
1000
,
1000
0000
0100
0000
0000
1000
0000
0001
,
0001
0000
0100
0000
0000
0001
0000
0010
,
0010
0001
0100
1001
,
1000
0100
1000
0100
,
0010
0001
1000
0000
0010
1000
0001
0000
,
0100
0001
0100
0001
,
0020
0000
0030
0000
0001
0010
0001
0000
,
1000
1100
0000
1001
,
0000
0101
0000
1001
,
0000
0000
0010
1000
0000
0000
0001
0010
,
0000
0000
0000
0000
,
1001
0000
0000
0000
0000
0000
0000
0000
1000
0000
0000
0100
0000
0000
0010
0000
,
0001
0000
0000
0000
0000
0000
0000
0000
0001
0000
0000
0100
0000
0000
0010
0000
,
1000
0000
0000
0000
0000
0000
0000
0000
0001
0000
0000
1000
0000
0000
0001
0000
,
0100
0010
1000
0000
,
1100
0000
0000
0000
0000
0000
0000
0000
1000
0000
0000
0100
0000
0000
1000
0000
,
0001
0000
0000
0000
0000
0000
0000
0000
0001
0000
0000
0100
0000
0000
0000
0000
,
0001
0000
0000
0000
0100
0100
0100
0000
,
0010
1000
0001
0000
,
1001
1001
1000
0001
,
0100
0000
0010
0000
1000
0200
0000
0000
,
1300
0000
0010
0000
1000
0002
0000
0000
,
0103
0000
0001
0000
1000
0020
0000
0000
,
0130
0000
0000
0000
0000
0000
0000
0000
0001
0000
0000
0100
0000
0000
0010
0000
,
0010
0000
0000
0000
0000
0000
0000
0000
1000
0000
0000
0100
0000
0000
0010
0000
,
0010
0000
0000
0000
0001
1000
0001
0000
,
1000
0000
0001
0000
0100
0010
0100
0000
,
2002
0000
3003
0000
;

//---------------dance-single - ----------------
#NOTEDATA:;
#CHARTNAME:;
#STEPSTYPE:dance-single;
#DESCRIPTION:;
#CHARTSTYLE:;
#DIFFICULTY:Easy;
#METER:3;
#RADARVALUES:0.169277,0.210034,0.068892,0.041335,0.000000,156.000000,10.000000,6.000000,0.000000,0.000000,0.000000,0.000000,0.000000,0.169277,0.210034,0.068892,0.041335,0.000000,156.000000,10.000000,6.000000,0.000000,0.000000,0.000000,0.000000,0.000000;
#CREDIT:Ben Speirs;
#NOTES:
0000
0000
0000
0000
,
0000
0000
0000
0000
,
0100
0100
0010
0000
,
1000
1000
0100
0000
,
2000
3000
0002
0003
,
0200
0000
0300
0000
,
0010
0010
0000
0000
,
1000
1000
0000
0000
,
0002
0003
2000
3000
,
0200
0000
0300
0000
,
1000
1000
0000
0000
,
0001
0001
0000
0000
,
0000
1000
0000
0001
,
0000
0100
0010
1000
,
0000
0001
0000
1000
,
0000
0100
0100
0000
,
0000
1000
0000
0001
,
0000
0010
0001
1000
,
0000
0010
0000
0010
,
0000
0100
0000
0000
,
1001
0000
0001
0001
,
0100
0000
1000
1000
,
0100
0000
0001
0000
,
1000
0001
1000
0000
,
1001
0000
1000
1000
,
0010
0000
0001
0001
,
0010
0000
0001
0000
,
1000
0001
1000
0000
,
0001
0100
0001
0100
,
0010
0000
0010
0000
,
1000
0000
1000
0000
,
0100
0000
0100
0000
,
1000
0000
0100
0100
,
0010
0000
0010
0010
,
0001
0000
1000
0000
,
0010
0100
0010
0000
,
0110
0000
0000
0000
,
0100
0001
0000
0000
,
1000
0100
0000
0000
,
0001
1000
0001
0000
,
1000
0010
0000
0000
,
0100
0001
0000
0000
,
1000
0100
0000
0000
,
0010
0010
0001
0000
,
0000
1001
0000
1001
,
0000
0100
0010
0100
,
0000
1001
0000
1001
,
0000
0010
0100
0010
,
0000
1000
0000
1000
,
0000
0001
0000
0001
,
0000
0100
0000
0010
,
0000
0000
0000
0000
,
1001
0000
1000
0001
,
1000
0000
0001
1000
,
0001
0000
1000
0001
,
0100
0000
0100
0000
,
1001
0000
0001
1000
,
0001
0000
1000
0001
,
1000
0000
0001
1000
,
0010
0000
0010
0000
,
1000
1000
0100
0000
,
0000
0010
0001
0000
,
0000
1000
0010
0000
,
0000
0100
0001
0000
,
1001
0000
0001
0100
,
0001
0000
1000
0100
,
1000
0000
0001
0000
,
0100
0100
0010
0010
;

//---------------dance-single - ----------------
#NOTEDATA:;
#CHARTNAME:;
#STEPSTYPE:dance-single;
#DESCRIPTION:;
#CHARTSTYLE:;
#DIFFICULTY:Beginner;
#METER:1;
#RADARVALUES:0.090544,0.139506,0.013778,0.000000,0.000000,90.000000,2.000000,0.000000,0.000000,0.000000,0.000000,0.000000,0.000000,0.090544,0.139506,0.013778,0.000000,0.000000,90.000000,2.000000,0.000000,0.000000,0.000000,0.000000,0.000000,0.000000;
#CREDIT:Ben Speirs;
#NOTES:
0000
0000
0000
0000
,
0000
0000
0000
0000
,
1000
0000
0000
0000
,
0001
0000
0000
0000
,
0100
0000
0100
0000
,
0100
0000
0000
0000
,
0010
0000
0000
0000
,
1000
0000
0000
0000
,
0001
0000
0001
0000
,
0001
0000
0000
0000
,
1000
0000
0000
0000
,
0100
0000
0000
0000
,
0000
1000
0000
1000
,
0000
0000
0000
0000
,
0000
0010
0000
0010
,
0000
0000
0000
0000
,
0000
0100
0000
0100
,
0000
0000
0000
0000
,
0000
0001
0000
0001
,
0000
0001
0000
0000
,
1001
0000
0000
0000
,
0100
0000
0000
0000
,
0010
0000
0000
0000
,
1000
0000
1000
0000
,
1000
0000
0000
0000
,
0100
0000
0000
0000
,
1000
0000
0000
0000
,
0001
0000
0001
0000
,
0001
0000
0000
0000
,
0000
0100
0100
0000
,
0000
0100
0100
0000
,
0000
0100
0100
0000
,
0100
0000
0000
0001
,
0001
0000
0000
1000
,
1000
0000
0000
0000
,
0010
0010
0010
0010
,
0010
0000
0000
0000
,
1000
0000
0000
0000
,
0001
0000
0000
0000
,
0100
0000
0100
0000
,
0100
0000
0000
0000
,
0001
0000
0000
0000
,
1000
0000
0000
0000
,
0010
0000
0000
0000
,
0000
1000
0000
1000
,
0000
0000
0000
0000
,
0000
0001
0000
0001
,
0000
0000
0000
0000
,
0000
0100
0000
0100
,
0000
0000
0000
0000
,
0000
0010
0000
0010
,
0000
0000
0000
0000
,
1001
0000
0000
0000
,
0001
0000
0000
0000
,
1000
0000
0000
0000
,
0010
0010
0010
0000
,
0010
0000
0000
0000
,
1000
0000
0000
0000
,
0001
0000
0000
0000
,
0100
0100
0100
0000
,
0100
0000
0000
0000
,
0000
0001
0001
0000
,
0000
0001
0001
0000
,
0000
0001
0001
0000
,
0000
0000
1000
1000
,
0000
0000
0010
0010
,
0000
0000
0100
0000
,
0100
0000
0100
0000
;
