#TITLE:My Sweet Darlin';
#ARTIST:Hitomi Yaida;
#FILE:My Sweet Darlin.mp3;
#BPM:157.100;
#GAP:80;
#SAMPLESTART:94.040;
#SAMPLELENGTH:14.260;
#FREEZE:810.000=770.000;
#CHANGEBPM:636.000=148.240,640.000=78.540,812.000=157.100;
#SINGLE:BEGINNER:1:
00000000
;
#SINGLE:MANIAC:13:
00000000
00000000
00000000
00000000
82640242
04640828
42860262
08480262
88442288
A000062B
08208260
46208424
62802646!6
02!20300A0
42620424
06260028
4!40B!609!80A4
02602480
B284!40482
62804062
30301010
64246282
602!20A4!400
20202210
B0308070
B0204628
26426248
22208264
(804060002082804!40)
(00B!60000680602080)
26402484
62804286
(2080200060282060)
46208426
24804826
28406424
B!B00B2826
46208424
68208628
26402460
82308410
627462B2
86186272
(6042B02080421060)
(208230802064A060)
(4240802080424060)
(8680208060281000)
(8480206040246020)
(8420424082602620)
(8420464082602820)
(64648000B2B08020)
(60484020806!6000B!40)
07284246
80682864
80426248
(20646040802!2000A!80)
0A628424
60868246
20426248
(2068208060408040)
68248684
24826428
62846428
(6042806020802060)
84864248
26426248
262842B0
(2080280046002080)
(4060420064008040)
(6020820068002040)
(8020680024008020)
(6040240082006020)
(8040280068002040)
(8020640024008020)
(6080240062007!7000)
00000070
;
#SINGLE:ANOTHER:8:
00000000
00000000
00000000
00000000
60208040
20480840
60802040
80260620
B0204080
26282642
00402080
60208040
80A04010
60408020
60802040
80406020
80A04010
40604280
68602080
20604000
10103030
B0804286
40808000
20604242
80604080
20608000
60408020
846!602030
70002640
80804280
60608240
60604286
40008480
20604020
80802420
80806482
60002080
70702040
60802860
20208040
B!40208010
24804826
86208042
88604064
24822842
04286824
82802062
44204080
B0204080
42862840
6!62824B70
00246020
20804060
60802040
408020B0
00248420
80604080
80406080
80282800
00686040
80208020
20804060
00424200
00482080
20608040
80604020
40800020
80A0A040
80707020
80A0A040
20608020
20A0A060
60909020
20A0A080
6020407!70
00000070
;
#SINGLE:BASIC:4:
00000000
00000000
40008020
60008000
60008020
40008000
40006020
80002000
60406040
10000000
80004000
20004000
60806040
20200000
40008000
20008000
40608020
40400000
B0002000
80802000
60604040
60004000
20408000
00202060
80200080
20008000
60004000
A0A00000
40002000
80006000
20008000
40006060
40008000
20008000
40006000
80002020
40008040
20204060
80006020
80004000
B0002000
40804060
80800000
60408020
60402000
40204060
20802000
60600000
40204060
80204080
20604460
00200080
00400020
40808040
602020A0
00600040
00200040
60802080
80602080
00208040
00802060
00802040
00604060
00402080
00202020
00404040
00800040
80400080
20800020
00200060
004000A0
00400080
00200060
20808040
208080B!B0
0000B000
;
