#VERSION:0.82;
#TITLE:Keeping Your Head Up;
#SUBTITLE:(Don Diablo Remix);
#ARTIST:Birdy;
#TITLETRANSLIT:;
#SUBTITLETRANSLIT:;
#ARTISTTRANSLIT:;
#GENRE:EDM;
#ORIGIN:;
#CREDIT:;
#BANNER:Keeping Your Head Up (Don Diabo Remix).png;
#BACKGROUND:Keeping Your Head Up (Don Diabo Remix)-bg.png;
#PREVIEWVID:;
#JACKET:jacket.png;
#CDIMAGE:;
#DISCIMAGE:;
#LYRICSPATH:;
#CDTITLE:;
#MUSIC:Keeping Your Head Up (Don Diablo Remix).ogg;
#OFFSET:-2.204000;
#SAMPLESTART:78.414528;
#SAMPLELENGTH:12.000000;
#SELECTABLE:YES;
#BPMS:0.000=63.000,
32.000=126.000,
128.000=252.000,
129.000=126.000;
#STOPS:128.000=0.238;
#DELAYS:;
#WARPS:;
#TIMESIGNATURES:0.000=4=4;
#TICKCOUNTS:0.000=4;
#COMBOS:0.000=1;
#SPEEDS:0.000=1.000=0.000=0;
#SCROLLS:0.000=1.000;
#FAKES:;
#LABELS:0.000=Song Start;
#BGCHANGES:0.000=Keeping Your Head Up (Don Diablo Remix).avi=1.000=0=0=1=====,
99999=-nosongbg-=1.000=0=0=0 // don't automatically add -songbackground-
;
#KEYSOUNDS:;
#ATTACKS:
;

//---------------dance-single - ----------------
#NOTEDATA:;
#CHARTNAME:;
#STEPSTYPE:dance-single;
#DESCRIPTION:;
#CHARTSTYLE:;
#DIFFICULTY:Hard;
#METER:8;
#RADARVALUES:0.491835,0.533775,0.257991,0.071170,0.298024,350.000000,29.000000,8.000000,0.000000,0.000000,0.000000,0.000000,0.000000,0.491835,0.533775,0.257991,0.071170,0.298024,350.000000,29.000000,8.000000,0.000000,0.000000,0.000000,0.000000,0.000000;
#CREDIT:Ben Speirs;
#NOTES:
0000
0000
0000
0000
,
0000
0000
0000
0000
,
0001
0000
0000
0000
1000
0000
0000
0000
0010
0000
0000
0010
0000
0000
0100
0000
,
0001
0000
1000
1000
0100
0000
0000
0000
,
1001
1000
0010
0100
0001
0001
1000
0000
,
0001
0000
0100
0000
0010
0000
0010
0000
1000
0000
0100
0010
0100
0010
0001
0000
,
1000
0001
0100
0100
0010
1000
0001
0000
,
1000
0000
0001
0000
0100
0000
0100
0000
0010
0000
1000
0100
1000
0100
0010
0001
,
1000
0100
2000
0000
3001
0200
0000
0310
,
2000
0000
3001
0020
0000
0031
1000
0000
,
0001
0100
0010
1000
0010
1000
0001
0000
,
1000
0100
0010
0001
0010
0001
1000
0000
,
0001
0100
0020
0000
1030
0200
0000
0310
,
0002
0000
1003
0020
0000
0130
0001
0000
,
1000
0010
1000
0010
0100
0001
1000
0000
,
0001
0100
0001
0100
0010
1000
0001
0000
,
0101
0000
0000
0000
1100
0000
0000
0001
0000
0001
0000
0000
1000
0000
0010
0100
,
0010
0000
0000
0000
1010
0000
0000
1000
0000
1000
0000
0000
0001
0000
1000
0100
,
1000
0000
0000
0000
1100
0000
0000
0001
0000
0001
0000
0000
0100
0000
0001
0100
,
0001
0000
0000
0000
0101
0000
0000
1000
0000
1000
0000
0000
0001
0000
1000
0100
,
1000
0000
0100
0010
0001
0000
1000
0000
0001
0000
0100
0010
1000
0000
0001
0000
,
0010
0000
0100
1000
0001
0000
0100
0001
1000
0000
0100
1000
0001
0000
0010
0001
,
1000
0000
0100
0000
0010
0000
0001
0000
0100
0010
0100
0010
0100
0010
0100
0010
,
1000
0000
0000
1001
,
0101
0000
0000
0000
1000
0000
0000
0010
0000
0010
0000
0000
1000
0000
0001
0000
,
0100
0000
0000
0001
0000
0000
1000
0000
0000
0000
1100
0000
0100
0000
0010
0000
,
0001
0000
0000
0000
1001
0000
0000
1000
0000
1000
0000
0000
0010
0000
1000
0000
,
0001
0000
0000
0100
0000
0000
0101
0000
0000
0001
1000
0000
0100
0000
0010
0000
,
1001
0000
0000
0000
1010
0000
0000
0001
0000
0001
0000
0000
0100
0000
0001
0000
,
1000
0000
0000
1100
0000
0000
0101
0000
0000
0000
1000
0000
0001
0000
0100
0000
,
1001
0000
0000
0000
1010
0000
0000
0001
0000
0001
0000
0000
0010
0000
0001
0000
,
1000
0000
1000
0100
0000
0000
1001
0000
0000
0000
0010
0000
1000
0000
0001
0000
,
0100
0000
0000
0000
0101
0000
0100
0010
0100
0010
1000
0000
0100
0000
0010
0000
,
0001
0000
0001
1000
0000
1000
0010
0000
0100
0000
0101
0000
0010
0000
1000
0000
,
1100
0000
0001
0000
1000
0000
0010
0100
0010
0100
0001
0000
1000
0000
0100
0000
,
0010
0000
0001
1000
0000
0010
0100
0000
0001
0000
1000
0001
1000
0000
0001
0000
,
0101
0000
0100
0000
0010
0000
1000
0100
1000
0100
1000
0000
0010
0000
0100
0000
,
0001
0000
1000
0100
1000
0000
0010
0000
0100
0001
0100
0000
0010
0000
1000
0000
,
0001
0000
0000
0000
0101
0000
1000
0100
0000
0100
0010
0000
0001
0000
1000
0000
,
0010
0000
0100
0001
0100
0000
0010
0000
0000
0000
0000
0000
0001
0000
1001
0000
,
1000
0000
0010
0100
0010
0000
1000
0000
0100
0010
0100
0000
1000
0000
0010
0100
,
0010
0000
1000
0000
0100
0010
0100
0000
1000
0000
0010
0100
0001
0000
0000
0000
,
1000
0100
0010
0001
1000
0010
1001
0000
,
0001
0010
0100
1000
0010
0100
1001
0000
,
0001
0000
0100
0010
0100
0000
0001
0000
0010
0100
0010
0000
0001
0000
0100
0010
,
0100
0000
0001
0000
0010
0100
0010
0000
0001
0000
0100
0010
1000
0000
0000
0000
,
0001
0010
0100
1000
0001
0100
1001
0000
,
1000
0100
0010
0001
0100
0010
1001
0000
,
1100
0000
0000
0000
;

//---------------dance-single - ----------------
#NOTEDATA:;
#CHARTNAME:;
#STEPSTYPE:dance-single;
#DESCRIPTION:;
#CHARTSTYLE:;
#DIFFICULTY:Challenge;
#METER:10;
#RADARVALUES:0.604945,0.640530,0.195717,0.026689,0.649426,451.000000,22.000000,3.000000,0.000000,0.000000,0.000000,0.000000,0.000000,0.604945,0.640530,0.195717,0.026689,0.649426,451.000000,22.000000,3.000000,0.000000,0.000000,0.000000,0.000000,0.000000;
#CREDIT:Ben Speirs;
#NOTES:
0000
0000
0000
0000
,
0000
0000
0000
0000
,
1000
0000
0001
0000
0100
0000
0100
0000
0010
0000
0000
1000
0000
0000
0001
0000
,
0010
0000
0010
0000
0001
1000
0001
0000
2000
0000
0000
0000
3000
0000
0000
0000
,
1100
0000
0100
0000
1000
0000
0010
0000
0100
0000
0001
1000
0001
0000
1000
0100
,
1000
0000
0001
0000
0100
0000
0010
0000
1000
0000
0001
0010
0100
1000
0010
0100
,
0001
0000
0100
0000
0010
0000
1000
0000
0100
0000
1000
0000
0010
1000
0010
0000
,
1000
0100
1000
0000
0001
0100
0001
0000
1000
0000
0001
0010
0100
1000
0010
0000
,
0100
0000
0001
0100
0001
0000
0000
0000
1000
0100
1000
0000
0000
0000
0001
0010
,
0001
0000
0000
0000
1000
0010
1000
0000
0000
0000
0001
0000
1001
0000
0000
0000
,
1000
0000
0001
0000
0100
0010
0100
0010
0100
0000
0010
0000
1000
0000
0000
0000
,
0001
0000
1000
0000
0100
0010
0100
0010
0100
0000
0010
0000
0001
0000
0100
0000
,
0010
0000
1000
0010
1000
0000
0000
0000
0001
0010
0001
0000
0000
0000
1000
0100
,
1000
0000
0000
0000
0001
0100
0001
0000
0000
0000
1000
0000
1001
0000
0000
0000
,
0001
0000
1000
0000
0010
0100
0010
0100
0010
0000
0100
0000
0001
0000
0000
0000
,
1000
0000
0001
0000
0010
0100
0010
0100
0010
0000
0100
0000
1000
0000
0000
0000
,
0011
0000
0001
1000
0001
0000
0100
0010
0000
0010
0000
1000
0001
0000
1000
0100
,
1000
0000
0001
0100
0001
0000
1000
0100
0000
0100
0000
0010
0001
0000
1000
0010
,
1000
0000
0001
0100
0001
0000
1000
0010
0000
0010
0000
0100
0001
0000
1000
0100
,
1000
0000
0001
0100
0001
0000
1000
0010
0000
0010
0000
0100
0001
0000
1000
0100
,
1000
0000
0001
0100
0001
0000
1000
0010
1000
0000
0001
0010
0001
0000
1000
0100
,
0010
0000
0001
0100
0010
0000
1000
0100
0010
0000
0001
0100
0010
0000
1000
0100
,
0010
0001
0100
0010
1000
0100
0010
0001
0100
0010
1000
0100
0010
0001
0100
0010
,
2000
0000
0000
0000
0000
0000
0000
0000
0000
0000
0000
0000
3000
0000
0001
0100
0000
0001
0100
0000
0000
0010
0000
0000
,
1010
0000
0000
0000
1001
0000
0000
0100
0000
0100
0000
0000
0001
0000
1000
0000
,
0010
0000
0010
0100
0000
0000
0001
0000
0000
0000
1001
0000
1000
0000
0100
0000
,
0010
0000
0000
0000
1100
0000
0000
0001
0000
1000
0000
0000
0010
0000
1000
0000
,
0001
0000
0000
0000
0000
0000
0001
0000
0000
1000
0000
0000
0000
0000
0000
1000
0000
0000
0010
0000
0000
0000
0000
0000
0000
0000
0000
0000
1000
0000
0010
0000
0000
0000
1000
0000
0001
0000
0000
0010
0000
0000
0100
0000
0000
1000
0000
0000
,
0001
0000
0000
0000
1100
0000
0000
0001
0100
0001
0000
0000
1000
0000
0001
0000
,
0100
0000
0100
0010
0000
0000
0110
0000
0000
0000
1001
0000
1000
0000
0001
0000
,
0100
0000
0000
0000
1010
0000
0000
0001
1000
0001
0000
0000
0100
0000
0001
0000
,
1000
0000
0010
1000
0010
1000
0010
1000
0100
0010
0001
0000
1000
0000
0000
0000
,
1001
0000
0000
0000
0101
0000
1000
0010
0100
0001
1000
0000
0001
0010
0100
1000
,
0010
0000
0010
0100
0000
0100
0001
0000
1000
0100
1000
0000
0001
0010
0100
1000
,
0001
0000
0100
0000
1010
0000
0010
1000
0100
1000
0001
0000
0100
0010
0100
0001
,
1000
0000
0000
0000
0000
0000
0100
0000
0000
0010
0000
0000
0000
0000
0000
0010
0000
0000
0001
0000
0000
0000
0000
0000
1000
0000
0000
0000
0010
0000
0100
0000
0000
0000
0001
0000
1000
0000
0000
0000
0000
0000
0001
0000
0000
0000
0000
0000
,
1001
0000
0000
0000
1010
0000
0001
0100
0010
1000
0001
0000
1000
0100
0010
0001
,
0100
0000
0100
0010
0000
0010
1000
0000
0001
0010
0001
0000
1000
0100
0010
0001
,
1000
0000
0010
0000
0101
0000
0100
0001
0010
0001
1000
0000
0010
0100
0010
1000
,
0001
0000
1000
0010
0000
0100
0002
0000
0000
0000
0003
0000
1000
0100
1000
0100
,
0010
0000
0001
0100
0010
0000
1000
0000
0100
0010
0001
0000
0100
0000
0010
1000
,
0100
0000
0010
0000
0001
1000
0010
0000
0100
0000
0001
1000
0010
0000
0000
0000
,
1000
0000
0010
0100
0010
0100
0010
0100
0001
0000
1000
0000
0100
0000
0010
0000
,
0001
0000
1000
0010
1000
0010
0100
0001
1000
0000
0100
0000
1100
0000
0000
0000
,
0001
0010
0100
1000
0001
0000
1000
0100
0010
0001
1000
0000
0001
0010
0100
1000
,
0001
0000
1000
0100
0010
0001
1000
0000
0001
0010
0100
1000
0001
0000
0000
0000
,
1000
0000
0001
0100
0001
0100
0001
0100
0010
0000
1000
0000
0100
0000
0010
0000
,
0001
0000
1000
0100
1000
0000
0010
0100
0000
0000
0101
0000
1100
0000
0000
0000
,
1001
0000
0000
0000
;

//---------------dance-double - ----------------
#NOTEDATA:;
#CHARTNAME:;
#STEPSTYPE:dance-double;
#DESCRIPTION:;
#CHARTSTYLE:;
#DIFFICULTY:Challenge;
#METER:10;
#RADARVALUES:0.547754,0.619179,0.257991,0.017792,0.480397,400.000000,29.000000,2.000000,0.000000,0.000000,0.000000,0.000000,0.000000,0.547754,0.619179,0.257991,0.017792,0.480397,400.000000,29.000000,2.000000,0.000000,0.000000,0.000000,0.000000,0.000000;
#CREDIT:Ben Speirs;
#NOTES:
// measure 0
00000000
00000000
00000000
00000000
,  // measure 1
00000000
00000000
00000000
00000000
,  // measure 2
00000001
00000000
00000000
00000000
00000100
00000000
00000100
00000000
00000010
00000000
00000000
00001000
00000000
00000000
00000100
00000000
,  // measure 3
00010000
00000000
00000000
00000000
00001000
00010000
00001000
00000000
00200000
00000000
00000000
00000000
00300000
00000000
00000000
00000000
,  // measure 4
00101000
00000000
00100000
00000000
00010000
00000000
10000000
00000000
00100000
00000000
01000000
00010000
10000000
00000000
00100000
10000000
,  // measure 5
00010000
00000000
10000000
00000000
01000000
00000000
00100000
00000000
00010000
00000000
10000000
01000000
00010000
00001000
00000100
00000001
,  // measure 6
00001000
00000000
00000010
00000000
00000100
00000000
00000001
00000000
00001000
00000000
00000010
00001000
00000100
00000000
00001000
00000100
,  // measure 7
00000010
00000000
00000001
00000000
00000100
00000000
00000010
00000000
00001000
00000000
00000001
00000010
00001000
00010000
00100000
10000000
,  // measure 8
00010000
00000000
01000000
00010000
01000000
00000000
00000000
00000000
10000000
01000000
10000000
00000000
00000000
00000000
00010000
00100000
,  // measure 9
00010000
00000000
00000000
00000000
10000000
00100000
10000000
00000000
00000000
00000000
00010000
00000000
10010000
00000000
00000000
00000000
,  // measure 10
10000000
01000000
00010000
00001000
00010000
00000000
00011000
00000000
,  // measure 11
00010000
00001000
00000100
00000001
00001000
00000000
00001001
00000000
,  // measure 12
00001000
00000000
00000010
00001000
00000010
00000000
00000000
00000000
00000001
00000010
00000001
00000000
00000000
00000000
00001000
00000100
,  // measure 13
00001000
00000000
00000000
00000000
00000001
00000100
00000001
00000000
00000000
00000000
00001000
00000000
00001001
00000000
00000000
00000000
,  // measure 14
00000001
00000010
00001000
00010000
00001000
00000000
00011000
00000000
,  // measure 15
00001000
00010000
00100000
10000000
00010000
00000000
00110000
00000000
,  // measure 16
10010000
00000000
00000000
00000000
10000000
00000000
00000000
00100000
00000000
00100000
00000000
00000000
01000000
00000000
00010000
10000000
,  // measure 17
00010000
00000000
00000000
00000000
00100000
00000000
00000000
00010000
00000000
00010000
00000000
01000000
00100000
00000000
01000000
00010000
,  // measure 18
01000000
00000000
00000000
00000000
00001000
00000000
00000000
00010000
00000000
00010000
00000000
00000000
00001000
00000000
00100000
00001000
,  // measure 19
00100000
00000000
00000000
00000000
00001000
00000000
00010000
00000100
00000000
00000100
00000000
00010000
00000010
00000000
00001000
00000010
,  // measure 20
00001000
00000000
00000001
00000100
00000001
00000000
00001000
00000100
00001000
00000000
00000001
00000010
00000001
00000000
00000100
00000010
,  // measure 21
00001000
00000000
00000100
00010000
00001000
00000000
00010000
00001000
00100000
00000000
00001000
00100000
00010000
00000000
10000000
00010000
,  // measure 22
01000000
00100000
01000000
00100000
01000000
00100000
01000000
00100000
10000000
00010000
10000000
00010000
10000000
01000000
00100000
00010000
,  // measure 23
10000000
00000000
00000000
00000000
00000000
00000000
00000000
00000000
00000000
00000000
00000000
00000000
00000000
00000000
00010000
00100000
00000000
00010000
10000000
00000000
00000000
00100000
00000000
00000000
,  // measure 24
10010000
00000000
00000000
00000000
00011000
00000000
00000000
00010000
00000000
00001000
00000000
00000000
00010000
00000000
00001000
00000000
,  // measure 25
00000100
00000000
00000100
00000010
00000000
00000000
00001000
00000000
00000000
00000000
00001010
00000000
00000010
00000000
00000100
00000000
,  // measure 26
00000001
00000000
00000000
00000000
00001001
00000000
00000000
00001000
00000100
00001000
00000000
00000000
00000001
00000000
00000010
00000000
,  // measure 27
00000100
00000000
00000000
00000000
00000000
00000000
00000100
00000000
00000000
00001000
00000000
00000000
00000000
00000000
00000000
00000000
00000000
00000000
00000010
00000000
00000000
00000000
00000000
00000000
00000000
00000000
00000000
00000000
00001000
00000000
00000001
00000000
00000000
00000000
00001000
00000000
00000010
00000000
00000000
00000000
00000000
00000000
00000100
00000000
00000000
00000000
00000000
00000000
,  // measure 28
00001001
00000000
00000000
00000000
00011000
00000000
00000000
00001000
00000000
00010000
00000000
00000000
00001000
00000000
00010000
00000000
,  // measure 29
00100000
00000000
00100000
01000000
00000000
00000000
00010000
00000000
00000000
00000000
01010000
00000000
01000000
00000000
00100000
00000000
,  // measure 30
10000000
00000000
00000000
00000000
10010000
00000000
00000000
00010000
00100000
00010000
00000000
00000000
10000000
00000000
01000000
00000000
,  // measure 31
00100000
00000000
00010000
10000000
00010000
10000000
00010000
10000000
00100000
00000000
01000000
00000000
01010000
00000000
00000000
00000000
,  // measure 32
10100000
00000000
00000000
00000000
10010000
00000000
10000000
01000000
00010000
01000000
10000000
00000000
00100000
00000000
01000000
00000000
,  // measure 33
00010000
00000000
00010000
00100000
00000000
00100000
00001000
00000000
00010000
00000000
00011000
00000000
00010000
00000000
00000010
00000000
,  // measure 34
00000100
00000000
00000001
00000000
00000101
00000000
00000100
00000010
00001000
00000010
00001000
00000000
00000100
00000000
00000010
00000000
,  // measure 35
00000001
00000000
00000000
00000000
00000000
00000000
00000001
00000000
00000000
00001000
00000000
00000000
00000000
00000000
00000000
00001000
00000000
00000000
00000100
00000000
00000000
00000000
00000000
00000000
00001000
00000000
00000000
00000000
00000010
00000000
00000100
00000000
00000000
00000000
00000001
00000000
00001000
00000000
00000000
00000000
00000000
00000000
00000010
00000000
00000000
00000000
00000000
00000000
,  // measure 36
00000101
00000000
00000000
00000000
00001001
00000000
00000001
00000010
00001000
00000010
00000001
00000000
00000100
00000000
00000010
00000000
,  // measure 37
00001000
00000000
00001000
00000100
00000000
00000100
00010000
00000000
00001000
00000000
00011000
00000000
00001000
00000000
01000000
00000000
,  // measure 38
00100000
00000000
10000000
00000000
10100000
00000000
00100000
01000000
00010000
01000000
00010000
00000000
00100000
00000000
01000000
00000000
,  // measure 39
10000000
00000000
10000000
00010000
00000000
00010000
02000000
00000000
00000000
00000000
03000000
00000000
00100000
01000000
00100000
01000000
,  // measure 40
00010000
00000000
10000000
01000000
00100000
00000000
01000000
00000000
00100000
00001000
00010000
00000000
00001000
00000000
00010000
00001000
,  // measure 41
00000010
00000000
00001000
00000000
00000010
00000001
00000100
00000000
00000010
00000000
00001000
00000000
00001001
00000000
00000000
00000000
,  // measure 42
00000001
00000000
00000100
00000010
00000100
00000010
00000100
00000010
00001000
00000000
00000100
00000000
00000010
00000000
00000001
00000000
,  // measure 43
00001000
00000000
00000010
00000100
00000010
00000100
00000010
00000100
00000001
00000000
00001000
00000000
00001001
00000000
00000000
00000000
,  // measure 44
00001000
00000000
00000001
00000010
00000100
00000000
00000010
00000000
00000100
00010000
00001000
00000000
00010000
00000000
00001000
00010000
,  // measure 45
01000000
00000000
00010000
00000000
01000000
10000000
00100000
00000000
01000000
00000000
00010000
00000000
10010000
00000000
00000000
00000000
,  // measure 46
10000000
00000000
00100000
01000000
00100000
01000000
00100000
01000000
00010000
00000000
00100000
00000000
01000000
00000000
10000000
00000000
,  // measure 47
00010000
00000000
01000000
00100000
01000000
00100000
01000000
00100000
10000000
00000000
00010000
00000000
10010000
00000000
00000000
00000000
,  // measure 48
00001000
00000000
00000000
00000000
;

//---------------dance-single - ----------------
#NOTEDATA:;
#CHARTNAME:;
#STEPSTYPE:dance-single;
#DESCRIPTION:;
#CHARTSTYLE:;
#DIFFICULTY:Medium;
#METER:5;
#RADARVALUES:0.302472,0.320265,0.177925,0.008896,0.000000,217.000000,20.000000,1.000000,0.000000,0.000000,0.000000,0.000000,0.000000,0.302472,0.320265,0.177925,0.008896,0.000000,217.000000,20.000000,1.000000,0.000000,0.000000,0.000000,0.000000,0.000000;
#CREDIT:Ben Speirs;
#NOTES:
0000
0000
0000
0000
,
0000
0000
0000
0000
,
1000
0000
0000
0000
0010
0000
0010
0010
,
0100
0000
0001
0001
1000
0000
0000
0000
,
1001
0000
0001
0000
0100
0100
0010
0010
,
1000
0000
0001
0000
1000
0100
0010
0001
,
2000
0000
3100
0000
1000
1000
0001
0001
,
0100
0000
0010
0000
0100
0001
1000
0000
,
0000
0001
0001
0000
1000
1000
0000
0010
,
0010
0000
0100
0100
0000
0001
1000
0000
,
0010
0010
1000
0001
,
0100
0100
0001
0000
,
0000
1000
1000
0000
0001
0001
0000
0010
,
0010
0000
0100
0100
0000
0010
0001
0000
,
1000
1000
0100
0000
,
1000
0001
0100
0000
,
1001
0000
0001
0000
0100
0000
0010
1000
,
0010
0100
0001
0000
,
1000
0000
0001
0000
0010
0000
0001
0100
,
0001
1000
0100
0000
,
1001
1001
0010
0010
,
1001
1001
0100
0100
,
1000
0010
1000
0010
0100
0001
0100
0001
,
1000
0000
0000
0000
,
1001
0000
0001
0000
0100
0000
0010
1000
,
0010
0100
0001
0000
,
1000
1000
0001
0010
,
0001
0000
1000
0000
0010
0100
0010
0010
,
1000
0001
1100
0101
,
0010
0000
0001
1000
0001
0000
1000
0100
,
0010
0000
1100
0000
0001
0000
1000
0010
,
0100
0000
0100
0001
1000
0000
0010
0000
,
0000
0000
1001
0000
0010
1000
0100
0000
,
1000
0001
0100
0000
0010
0010
0010
0100
,
0001
0000
0000
0000
1000
0100
1000
0000
,
0001
0000
0010
0000
0001
1000
0001
0000
,
1010
1001
0101
1000
,
0001
0010
0001
0000
1000
0100
0100
0010
,
0001
0000
1000
0010
0010
1000
0001
0000
,
1001
0000
0100
0000
0000
0000
1000
0001
,
0000
1000
0100
0000
0001
0100
0000
1000
,
0010
0000
0001
0010
0000
1000
0001
0000
,
1100
0000
0001
0000
1000
0001
0100
0000
,
0010
1010
0110
0001
,
0000
0100
0001
0000
1000
0010
0000
0001
,
0010
0000
1000
0100
0000
0001
1001
0000
,
1100
0000
0001
1000
0010
1000
0001
0000
,
0100
0000
0010
0100
0001
0000
1000
0000
,
0100
0000
0000
0000
;

//---------------dance-single - ----------------
#NOTEDATA:;
#CHARTNAME:;
#STEPSTYPE:dance-single;
#DESCRIPTION:;
#CHARTSTYLE:;
#DIFFICULTY:Easy;
#METER:4;
#RADARVALUES:0.207155,0.256212,0.071170,0.000000,0.000000,155.000000,8.000000,0.000000,0.000000,0.000000,0.000000,0.000000,0.000000,0.207155,0.256212,0.071170,0.000000,0.000000,155.000000,8.000000,0.000000,0.000000,0.000000,0.000000,0.000000,0.000000;
#CREDIT:Ben Speirs;
#NOTES:
0000
0000
0000
0000
,
0000
0000
0000
0000
,
0001
0000
0100
0000
,
0010
0000
0010
0000
,
1000
1000
0100
0000
,
1000
1000
0001
0000
,
0001
0001
0100
0000
,
0001
0001
1000
0000
,
0010
0000
0000
0000
,
0100
0000
0000
0000
,
0001
0100
0010
0000
,
1000
0010
0100
0000
,
0001
0001
0000
0000
,
1000
1000
0000
0000
,
0010
1000
0001
0000
,
0010
0001
1000
0000
,
1001
0000
1000
0100
,
0010
0000
0001
1000
,
0010
0000
0100
0001
,
1000
0000
0010
1000
,
0100
0100
0010
0010
,
0001
1000
0001
1000
,
0010
0000
0100
0000
0001
0001
0001
0000
,
1000
0000
0000
0000
,
1001
1000
0010
0100
,
0010
0010
1000
0000
,
0010
1000
0100
0100
,
0010
0000
0001
0000
0100
0100
0100
0000
,
0100
0110
1000
0010
,
0100
0100
0001
0000
,
1000
0001
0010
0010
,
0001
1000
0010
0000
,
0000
1001
0100
0001
,
1000
0000
1000
0000
0010
0000
0100
0100
,
0100
0001
1000
0100
,
0010
0010
0001
0000
,
1000
1001
0001
1001
,
1000
0000
0010
0000
0100
0000
0010
0010
,
0010
1000
0100
0010
,
0001
1000
0000
0001
,
1001
1000
0010
0100
,
0001
1000
0100
0100
,
1000
1000
1000
1000
0000
0000
0000
0000
,
0001
0001
0001
0001
0000
0000
0000
0000
,
0100
0100
0001
1000
,
0010
0010
0100
0001
,
1000
1000
1000
1000
0000
0000
0000
0000
,
0001
0001
0001
0001
0000
0000
1001
0000
,
1000
0000
0000
0000
;

//---------------dance-single - ----------------
#NOTEDATA:;
#CHARTNAME:;
#STEPSTYPE:dance-single;
#DESCRIPTION:;
#CHARTSTYLE:;
#DIFFICULTY:Beginner;
#METER:2;
#RADARVALUES:0.113109,0.149457,0.017792,0.000000,0.000000,87.000000,2.000000,0.000000,0.000000,0.000000,0.000000,0.000000,0.000000,0.113109,0.149457,0.017792,0.000000,0.000000,87.000000,2.000000,0.000000,0.000000,0.000000,0.000000,0.000000,0.000000;
#CREDIT:Ben Speirs;
#NOTES:
0000
0000
0000
0000
,
0000
0000
0000
0000
,
0100
0000
0001
0000
,
1000
0000
0010
0000
,
1000
1000
0000
0000
,
0010
0010
0000
0000
,
1000
1000
0000
0000
,
0001
0001
0001
0001
,
0001
0000
0000
0000
,
1000
0000
0000
0000
,
0010
0010
0000
0000
,
0010
0010
0000
0000
,
1000
0000
0000
0000
,
0001
0000
0000
0000
,
0100
0100
0000
0000
,
0100
0100
0000
0000
,
0001
0001
0001
0000
,
1000
0000
0000
0000
,
1000
1000
1000
0000
,
0001
0000
0000
0000
,
1000
1000
0000
0000
,
0010
0010
0000
0000
,
0100
0100
0100
0100
,
0100
0000
0000
0000
,
1001
0000
0001
0000
,
0001
0000
0000
0000
,
1000
0000
1000
0000
,
0010
0010
0000
0000
,
1000
0000
1000
0000
,
0001
0001
0000
0000
,
0001
0000
0001
0000
,
0100
0100
0000
0100
,
0000
0000
0000
0000
,
1000
1000
0000
0000
,
0001
0001
0000
0000
,
0010
0000
0010
0000
,
0001
0001
0000
0000
,
0100
0100
0000
0000
,
0010
0000
0010
0000
,
0010
0000
0000
0000
,
0000
1000
0000
1000
,
0000
1000
0000
1000
,
0000
0001
0001
0000
,
0000
0001
0001
0000
,
0000
0100
0000
0100
,
0000
0100
0000
0100
,
0000
0001
0001
0000
,
0000
0000
0000
0000
,
1001
0000
0000
0000
;
