#VERSION:0.82;
#TITLE:A Sky Full Of Stars;
#SUBTITLE:;
#ARTIST:Coldplay;
#TITLETRANSLIT:;
#SUBTITLETRANSLIT:;
#ARTISTTRANSLIT:;
#GENRE:House;
#ORIGIN:;
#CREDIT:;
#BANNER:A Sky Full Of Stars.png;
#BACKGROUND:A Sky Full Of Stars-bg.png;
#PREVIEWVID:;
#JACKET:jacket.png;
#CDIMAGE:;
#DISCIMAGE:;
#LYRICSPATH:;
#CDTITLE:;
#MUSIC:A Sky Full Of Stars.ogg;
#OFFSET:-0.660000;
#SAMPLESTART:85.134026;
#SAMPLELENGTH:13.714000;
#SELECTABLE:YES;
#BPMS:0.000=125.000,
172.000=62.500,
174.000=125.000;
#STOPS:;
#DELAYS:;
#WARPS:;
#TIMESIGNATURES:0.000=4=4;
#TICKCOUNTS:0.000=4;
#COMBOS:0.000=1;
#SPEEDS:0.000=1.000=0.000=0;
#SCROLLS:0.000=1.000;
#FAKES:;
#LABELS:0.000=Song Start;
#BGCHANGES:0.000=A Sky Full Of Stars.avi=1.000=0=0=1=====,
99999=-nosongbg-=1.000=0=0=0 // don't automatically add -songbackground-
;
#KEYSOUNDS:;
#ATTACKS:
;

//---------------dance-single - ----------------
#NOTEDATA:;
#CHARTNAME:;
#STEPSTYPE:dance-single;
#DESCRIPTION:;
#CHARTSTYLE:;
#DIFFICULTY:Hard;
#METER:8;
#RADARVALUES:0.461896,0.626403,0.130429,0.308911,0.068647,407.000000,19.000000,45.000000,0.000000,0.000000,0.000000,0.000000,0.000000,0.461896,0.626403,0.130429,0.308911,0.068647,407.000000,19.000000,45.000000,0.000000,0.000000,0.000000,0.000000,0.000000;
#CREDIT:Ben Speirs;
#NOTES:
0000
0000
0000
0000
,
0000
0000
0000
0000
,
0000
0000
0000
0000
,
0000
0000
0000
0000
,
0000
0000
0000
0000
,
0000
0000
0000
0000
,
0000
0000
0000
0000
,
0000
0000
0000
0000
,
0002
0000
0000
0000
0003
1000
0100
0010
,
0002
0000
0000
0000
0003
1000
0100
0010
,
0002
0000
0000
0000
0000
0000
0000
0000
0000
0003
1000
0000
0010
0000
1000
0000
,
0001
0000
0000
0001
0000
0000
1000
0000
0000
0000
0001
0000
0010
0000
0100
0000
,
2000
0000
0000
0000
3000
0001
0100
0010
,
2000
0000
0000
0000
3000
0001
0100
0010
,
2000
0000
0000
0000
3000
0001
0100
0001
,
1000
0000
0000
1000
0000
0000
0001
0000
0000
0000
1000
0000
0100
0000
0010
0000
,
0001
0000
1000
0000
0001
0100
0010
0010
,
1000
0000
0001
0000
1000
0100
0010
0010
,
0001
0000
1000
0000
0001
0010
0100
1000
,
0010
0000
0000
0010
0000
0000
0100
0000
0000
0000
0100
0000
0010
0000
1000
0000
,
0001
0000
1000
0000
0010
0100
0010
0010
,
1000
0000
0001
0000
0010
0100
0010
0010
,
0001
0000
1000
0000
0001
1000
0010
0000
,
1000
0100
0010
0000
0100
1000
0010
0100
,
0102
0000
0000
1003
0100
1000
0001
0000
,
2100
0000
0000
3001
0100
0001
1000
0000
,
0001
0010
0100
0010
0001
1000
0010
0100
,
0010
1000
0100
0010
0001
1000
0010
0000
,
2001
0000
0000
3010
0100
0010
1000
0000
,
1002
0000
0000
0013
0100
0010
0001
0000
,
0010
0001
0100
0010
1000
0001
0010
0000
,
2100
3001
0102
1003
,
2001
0000
0000
3010
0010
1000
0100
0000
,
1002
0000
0000
0103
0100
0001
0010
0000
,
0002
0000
0023
0000
0130
1000
0010
0100
,
0002
0000
1003
0001
1000
0001
0200
0000
,
0320
0000
1000
0000
0130
0010
1000
0000
,
0200
0000
1000
0000
0310
0100
1000
0000
,
0002
0000
0100
0000
1003
0100
0010
0000
,
2200
3300
0202
0303
,
1000
1000
0100
1000
0010
0100
0001
1000
,
0001
0001
0010
0001
0100
0010
1000
0001
,
0010
0010
0100
0010
0001
0100
0010
1000
,
0001
0000
0000
1000
0100
0010
0001
1000
1001
0000
0000
0001
0000
0000
0100
0000
,
0100
0000
0010
0000
1000
0000
0100
0000
1000
0000
0000
1000
0000
0000
0100
0000
,
0100
0000
0010
0000
0001
0000
1000
0000
0010
0000
0000
0010
0000
0000
0200
0000
,
0000
0000
0302
0000
0000
0000
1003
0000
0100
0000
0000
0100
0000
0000
1000
0000
,
0001
0000
1000
0000
0010
0000
0100
0000
0001
0000
0000
0001
1000
0000
0100
0000
,
1000
0000
0001
0000
0100
0000
0001
0000
1000
0000
0000
1000
0100
0000
1000
0000
,
0001
0100
0001
1000
0010
0010
0100
0010
,
1000
0000
0100
0000
0010
0000
0001
0000
1000
0000
0000
0001
0000
0000
0010
0000
,
0010
0001
1000
0010
1002
0000
0013
0001
,
1000
0001
0100
0100
0020
0000
1030
0100
,
1000
0001
0100
0100
0020
0000
1030
0100
,
1000
0001
0010
0010
0002
0000
0103
0010
,
0100
0001
1000
1000
0010
0100
0010
1000
,
1000
0001
0010
0010
0001
1000
0010
0100
,
0100
0010
1000
1000
0010
1000
0100
0010
,
0010
0001
0100
0100
0001
0010
0100
1000
,
1000
0000
0010
0000
0100
0000
0100
0000
1002
0000
0000
0000
1003
0000
0010
0100
,
0010
0000
1000
0000
0100
0000
0010
0000
0210
0000
0000
0000
0310
0000
0001
0010
,
0001
1000
0010
0100
0002
0000
0103
0010
,
0100
0010
1000
0100
0020
0000
0031
0010
,
0100
1000
0001
0000
2100
0000
3100
1000
,
0010
0100
0010
1000
0002
0000
0013
0001
,
0100
0000
0010
0000
0100
0000
0001
0000
1000
0000
0000
1000
0001
0000
1000
0000
,
0100
0000
0010
0000
0001
0000
1000
0000
0001
0000
0000
0001
1000
0000
0001
0000
,
0100
0010
1000
0001
0200
0000
1000
0000
,
0310
0100
0001
0020
1000
0000
0100
0000
,
0031
0010
0100
1000
0001
0100
0102
0000
,
1003
0100
1000
0000
2100
0000
0000
0000
3001
0010
0001
0000
0012
0000
0000
0000
,
1003
0010
1000
0000
2010
0000
0000
0000
3002
0000
0000
0000
0100
0000
0000
0000
,
0010
1000
0020
0000
,
0033
0000
0000
0000
;

//---------------dance-single - ----------------
#NOTEDATA:;
#CHARTNAME:;
#STEPSTYPE:dance-single;
#DESCRIPTION:;
#CHARTSTYLE:;
#DIFFICULTY:Challenge;
#METER:10;
#RADARVALUES:0.654107,0.851908,0.054918,0.137294,0.610957,639.000000,8.000000,20.000000,0.000000,0.000000,0.000000,0.000000,0.000000,0.654107,0.851908,0.054918,0.137294,0.610957,639.000000,8.000000,20.000000,0.000000,0.000000,0.000000,0.000000,0.000000;
#CREDIT:Ben Speirs;
#NOTES:
// measure 0
0000
0000
0000
0000
,  // measure 1
0000
0000
0000
0000
,  // measure 2
0000
0000
0000
0000
,  // measure 3
0000
0000
0000
0000
,  // measure 4
0000
0000
0000
0000
,  // measure 5
0000
0000
0000
0000
,  // measure 6
0000
0000
0000
0000
,  // measure 7
0000
0000
0000
0000
,  // measure 8
2000
0000
0000
0100
0000
0000
0100
0000
3000
0000
0001
0000
0010
0000
0001
0000
,  // measure 9
2000
0000
0000
0100
0000
0000
0100
0000
3000
0000
0001
0000
0010
0000
0001
0000
,  // measure 10
2000
0000
0000
0100
0000
0000
0100
0000
3000
0000
0001
0000
0010
0000
0100
0000
,  // measure 11
1000
0000
0000
0001
0000
0000
0100
0000
0000
0000
0010
0000
0100
0000
0100
0000
,  // measure 12
0002
0000
0000
0010
0000
0000
0010
0000
0003
0000
1000
0000
0100
0000
1000
0000
,  // measure 13
0002
0000
0000
0010
0000
0000
0010
0000
0003
0000
1000
0000
0100
0000
1000
0000
,  // measure 14
0002
0000
0000
0010
0000
0000
0010
0000
0003
0000
1000
0000
0100
0000
0010
0000
,  // measure 15
0001
0000
0000
1000
0000
0000
0001
0000
0000
0000
0100
0000
0001
0000
0001
0000
,  // measure 16
1000
0100
0001
0100
1000
0001
0100
0100
,  // measure 17
0001
0010
1000
0010
0001
1000
0010
0010
,  // measure 18
1000
0100
0001
0100
1000
0001
0100
0100
,  // measure 19
0010
0000
0010
1000
0000
1000
0200
0000
0000
0000
1300
0000
0010
0000
1000
0000
,  // measure 20
0001
0010
1000
0010
0001
1000
0010
0010
,  // measure 21
1000
0100
0001
0100
1000
0001
0100
0100
,  // measure 22
0001
0010
1000
0010
0001
0100
0010
0010
,  // measure 23
1000
0000
1000
0001
0000
0001
0200
0000
0000
0000
0310
0000
0100
0000
0001
0000
,  // measure 24
0101
0000
0100
0010
0000
0010
1000
0000
0100
1000
0100
0000
1000
0000
0010
0000
,  // measure 25
0100
0000
0100
0010
0000
0010
1000
0000
0100
1000
0100
0000
0010
0000
0001
0000
,  // measure 26
1000
0000
1000
0001
0000
0001
0100
0000
0010
0100
0010
0000
1000
0000
0001
0000
,  // measure 27
0020
0000
0031
1000
0020
0000
0130
0001
,  // measure 28
1000
0000
1000
0100
0000
0100
0010
0000
0001
1000
0001
0000
0100
0000
0010
0000
,  // measure 29
1000
0000
1000
0001
0000
0001
0100
0000
0001
1000
0001
0000
0010
0000
0001
0000
,  // measure 30
1000
0000
1000
0100
0000
0100
0010
0000
0001
1000
0001
0000
0100
0000
0010
0000
,  // measure 31
2000
0000
3100
1000
0002
0000
0103
0001
,  // measure 32
1000
0000
1000
0000
0100
0000
1000
0000
0010
0000
0100
0000
0001
1000
0001
1000
,  // measure 33
0010
0000
0100
0000
0001
0000
1000
0000
0100
0000
0010
0000
0001
1000
0001
1000
,  // measure 34
0010
0000
0100
0000
0001
0000
1000
0000
0100
0000
0010
0000
0001
1000
0001
1000
,  // measure 35
0200
0000
1300
0001
0100
0010
1000
0000
,  // measure 36
0102
0000
1003
0100
1000
0001
0010
0000
,  // measure 37
2100
0000
3001
0100
0001
1000
0010
0000
,  // measure 38
1002
0000
0103
0010
0100
0001
1000
0000
,  // measure 39
0200
0000
0310
0001
2000
0000
3010
1000
,  // measure 40
0001
0010
1000
0010
0001
0100
0010
1000
,  // measure 41
0001
0010
0100
0010
0001
1000
0010
0100
,  // measure 42
0010
0000
1000
0000
0100
0000
0010
0000
0001
0000
1000
0000
0010
0100
0010
0100
,  // measure 43
0001
0000
0000
1000
0100
1000
0001
0100
1001
0000
1000
0100
1000
0000
0001
0000
,  // measure 44
0100
0001
0100
0000
0010
0000
1000
0000
0001
0000
0010
0100
0010
0000
0001
0000
,  // measure 45
1000
0100
1000
0000
0001
0000
0100
0000
0010
1000
0010
1000
0010
1000
0100
0000
,  // measure 46
1000
0000
0010
0000
0100
0000
0001
0000
1000
0100
1000
0100
1000
0100
0010
0000
,  // measure 47
0001
0000
1000
0000
0010
0000
0100
0000
0001
0000
1000
0100
0010
0000
0001
0000
,  // measure 48
1000
0001
0100
0000
0010
0000
1000
0000
0001
0000
0010
0001
1000
0000
0100
0000
,  // measure 49
1000
0010
0100
0000
0001
0000
1000
0000
0100
0010
0100
0010
0100
0010
0001
0000
,  // measure 50
1000
0000
0010
0000
0100
0000
0001
0000
1000
0000
1000
0001
0000
0001
0100
0000
,  // measure 51
0010
0000
1000
0000
0001
0000
0010
0000
0001
0100
0001
0100
0001
0100
0010
0000
,  // measure 52
1000
0000
0100
0000
0010
0000
0001
0000
1000
0100
1000
0100
1000
0100
0010
0000
,  // measure 53
0001
0000
1000
0000
0010
0000
0100
0000
0001
1000
0001
1000
0001
1000
0010
0000
,  // measure 54
0100
0000
0001
0000
1000
0000
0100
0000
0010
0001
0010
0001
0010
0001
1000
0000
,  // measure 55
0001
0000
0100
0000
0010
0000
1000
0000
0001
0100
0010
0100
0001
0100
0010
0000
,  // measure 56
1000
0000
0001
0000
0010
0000
0100
0000
1000
0100
0010
0100
1000
0100
0010
0000
,  // measure 57
0100
0000
1000
0000
0010
0000
0100
0000
0001
1000
0010
1000
0001
1000
0010
0000
,  // measure 58
0100
0000
0001
0000
1000
0000
0100
0000
1100
0000
0000
0110
0000
0000
0011
0000
,  // measure 59
0001
0000
0010
0000
0100
0000
1000
0000
0001
0100
0001
0100
0001
0100
0010
1000
,  // measure 60
0100
0010
0001
0100
0010
1000
0100
0010
0001
1000
0001
1000
0001
1000
0010
0100
,  // measure 61
0001
0010
0100
1000
0001
0100
0010
1000
0100
0010
0100
0010
0100
0010
0001
1000
,  // measure 62
0100
1000
0010
0100
0001
0010
0100
1000
0001
0010
0001
0010
0001
0010
0100
1000
,  // measure 63
0010
0100
0001
1000
0100
0010
0001
1000
0010
0100
0001
0100
0010
0100
0001
0100
,  // measure 64
0010
0100
0001
0010
0100
1000
0001
0100
0010
1000
0100
1000
0010
1000
0100
1000
,  // measure 65
0010
1000
0100
0010
0001
1000
0010
0100
0001
1000
0001
1000
0001
1000
0010
0100
,  // measure 66
0001
1000
0100
0010
0001
0100
0010
1000
0100
0010
0100
0010
0100
0010
0001
1000
,  // measure 67
0010
0100
0010
1000
0100
0010
0001
1000
0010
0100
0010
1000
0100
0010
0001
1000
,  // measure 68
0010
1000
0001
0010
0001
0100
0010
1000
0001
0010
0100
1000
0001
0100
0010
1000
,  // measure 69
0100
0010
0001
0100
0010
1000
0001
0010
0100
1000
0010
0100
0001
1000
0001
1000
,  // measure 70
0010
0100
0001
1000
0100
0010
0100
0010
0001
1000
0010
0100
0001
1000
0001
1000
,  // measure 71
0010
0100
0001
0010
0100
1000
0001
0100
0020
0000
0000
0000
1000
0000
0000
0000
,  // measure 72
0100
0100
2000
0000
,  // measure 73
3030
0000
0000
0000
;

//---------------dance-double - ----------------
#NOTEDATA:;
#CHARTNAME:;
#STEPSTYPE:dance-double;
#DESCRIPTION:;
#CHARTSTYLE:;
#DIFFICULTY:Challenge;
#METER:10;
#RADARVALUES:0.623706,0.821189,0.061782,0.075512,0.538878,616.000000,9.000000,11.000000,0.000000,0.000000,0.000000,0.000000,0.000000,0.623706,0.821189,0.061782,0.075512,0.538878,616.000000,9.000000,11.000000,0.000000,0.000000,0.000000,0.000000,0.000000;
#CREDIT:Ben Speirs;
#NOTES:
00000000
00000000
00000000
00000000
,
00000000
00000000
00000000
00000000
,
00000000
00000000
00000000
00000000
,
00000000
00000000
00000000
00000000
,
00000000
00000000
00000000
00000000
,
00000000
00000000
00000000
00000000
,
00000000
00000000
00000000
00000000
,
00000000
00000000
00000000
00000000
,
00021000
00000000
00000000
00000000
00030000
00000100
00001000
00000100
,
00020000
00000000
00000000
00000000
00030000
00000100
00001000
00000100
,
00020000
00000000
00000000
00000000
00030000
00000100
00010000
00001000
,
00100000
00000000
00000000
00100000
00000000
00000000
00001000
00000000
00000000
00000000
00100000
00000000
00001000
00000000
00010000
00000000
,
00012000
00000000
00000000
00000000
00003000
00100000
00010000
00100000
,
00002000
00000000
00000000
00000000
00003000
00100000
00010000
00100000
,
00002000
00000000
00000000
00000000
00003000
00100000
00001000
00010000
,
00000100
00000000
00000000
00000100
00000000
00000000
00010000
00000000
00000000
00000000
00000100
00000000
00010000
00000000
00001000
00000000
,
00100000
00010000
01000000
00100000
10000000
01000000
00010000
01000000
,
10000000
00010000
01000000
00100000
10000000
01000000
00010000
01000000
,
10000000
00010000
01000000
00100000
10000000
01000000
00100000
00010000
,
01000000
00000000
01000000
00010000
00000000
00010000
00100000
00000000
00001000
00000000
00010000
00000000
00001000
00000000
00010000
00000000
,
00000100
00001000
00000010
00000100
00000001
00000010
00001000
00000010
,
00000001
00001000
00000010
00000100
00000001
00000010
00001000
00000010
,
00000001
00001000
00000010
00000100
00000001
00000010
00000100
00001000
,
00000010
00000000
00000010
00001000
00000000
00001000
00000100
00000000
00010000
00000000
00001000
00000000
00010000
00000000
00001000
00000000
,
00101000
00000000
00100000
00010000
00000000
00010000
01000000
00000000
00100000
10000000
00100000
00000000
01000000
00000000
00010000
00000000
,
10000000
00000000
10000000
01000000
00000000
01000000
00100000
00000000
00010000
10000000
00010000
00000000
01000000
00000000
00100000
00000000
,
10000000
00000000
00000000
00010000
00000000
00000000
00100000
00000000
00010000
00000000
10000000
00000000
00100000
00000000
01000000
00000000
,
00010000
00100000
00010000
00100000
00001000
00010000
00001000
00010000
,
00000100
00000000
00000100
00001000
00000000
00001000
00000010
00000000
00000100
00000010
00000100
00000000
00000001
00000000
00001000
00000000
,
00000001
00000000
00000001
00000010
00000000
00000010
00000100
00000000
00001000
00000100
00001000
00000000
00000010
00000000
00000100
00000000
,
00000001
00000000
00000000
00001000
00000000
00000000
00000010
00000000
00000100
00000000
00000010
00000000
00001000
00000000
00000100
00000000
,
00010000
00000100
00010000
00000100
00100000
00001000
00100000
00001000
,
01000000
00000000
00010000
00000000
10000000
00000000
00100000
00000000
01000000
00000000
00010000
00000000
10000000
01000000
10000000
01000000
,
00100000
00000000
00010000
00000000
10000000
00000000
00100000
00000000
01000000
00000000
00010000
00000000
00100000
00010000
00100000
00010000
,
01000000
00000000
00010000
00000000
00100000
00000000
00001000
00000000
00010000
00000000
00000100
00000000
00010000
00001000
00010000
00001000
,
00200000
00000000
00301000
00010000
00000100
00000010
00000002
00000000
,
00000103
00000010
00000100
00000010
00001000
00000010
00000100
00000001
,
00001000
00000100
00001000
00000100
00000010
00000001
00001000
00000010
,
00000100
00000100
00000010
00001000
00000100
00000010
00000001
00000000
,
00002001
00003100
00001002
00000103
,
00001000
00000000
00000100
00000000
00000010
00000000
00000001
00000000
00000100
00000000
00000010
00000000
00001000
00000100
00001000
00000100
,
00010000
00000000
00001000
00000000
00100000
00000000
00010000
00000000
01000000
00000000
00100000
00000000
10000000
01000000
10000000
01000000
,
00100000
00010000
01000000
00010000
00100000
00001000
00010000
00000100
,
00001000
00000000
00000000
00000001
00000010
00000100
00001000
00000010
00001010
00000000
00000001
00000100
00000001
00000000
00001000
00000000
,
00000100
00000010
00000100
00000000
00001000
00000000
00000001
00000000
00000100
00000000
00000010
00001000
00000010
00000000
00001000
00000000
,
00000100
00000010
00000100
00000000
00001000
00000000
00000001
00000000
00001000
00000100
00001000
00000100
00001000
00000100
00010000
00000000
,
00001000
00000000
00100000
00000000
00010000
00000000
01000000
00000000
00100000
10000000
00100000
10000000
00100000
10000000
00010000
00000000
,
00100000
00000000
01000000
00000000
10000000
00000000
00010000
00000000
01000000
00000000
00100000
10000000
00100000
00000000
01000000
00000000
,
00010000
10000000
00010000
00000000
00100000
00000000
00010000
00000000
10000000
00000000
01000000
00100000
01000000
00000000
10000000
00000000
,
00010000
01000000
00010000
00000000
10000000
00000000
01000000
00000000
00100000
00010000
00100000
00010000
00100000
00010000
01000000
00000000
,
00010000
00000000
00100000
00000000
00001000
00000000
00010000
00000000
00011000
00000000
00000000
00010100
00000000
00000000
00001100
00000000
,
00000100
00000000
00001000
00000000
00000010
00000000
00000100
00000000
00000001
00001000
00000001
00001000
00000001
00001000
00000010
00000000
,
00000100
00000000
00000001
00000000
00000010
00000000
00000100
00000000
00001000
00000100
00001000
00000100
00001000
00000100
00010000
00000000
,
00001000
00000000
00100000
00000000
00010000
00000000
00100000
00000000
00001000
00010000
00001000
00010000
00001000
00010000
00001000
00000000
,
00100000
00000000
00010000
00000000
01000000
00000000
00100000
00000000
10000000
01000000
10000000
01000000
10000000
01000000
10000000
00000000
,
00100000
00000000
01000000
00000000
00010000
00000000
10000000
00000000
00010000
01000000
00100000
01000000
00010000
01000000
00100000
00000000
,
10000000
00000000
01000000
00000000
00100000
00000000
00010000
00000000
01000000
00010000
00100000
00010000
01000000
00010000
00100000
00000000
,
01000000
00000000
10000000
00000000
00010000
00000000
01000000
00000000
00010000
00100000
00001000
00100000
00010000
00100000
00001000
00000000
,
00010000
00000000
00000100
00000000
00001000
00000000
00000001
00000000
00000100
00000001
00000010
00000001
00000100
00000001
00000010
00000000
,
00000100
00000000
00001000
00000000
00000001
00000000
00000100
00000000
00000010
00001000
00000010
00001000
00000010
00001000
00000100
00000010
,
00000001
00000100
00000010
00001000
00000100
00000000
00010000
00000000
00001000
00010000
00001000
00010000
00001000
00010000
00001000
00100000
,
00010000
01000000
00100000
10000000
00010000
00000000
10000000
00000000
01000000
00100000
01000000
00100000
01000000
00100000
00010000
00100000
,
01000000
10000000
00100000
01000000
00010000
00000000
10000000
00000000
00010000
00100000
00010000
00100000
00010000
00100000
00001000
00010000
,
00001000
00100000
00001000
00010000
00000100
00000000
00001000
00000000
00000010
00000100
00000010
00000100
00000010
00000100
00000010
00000100
,
00000001
00000010
00000100
00001000
00000001
00000100
00000010
00001000
00000001
00000010
00000001
00000010
00000001
00000010
00000001
00000010
,
00000100
00001000
00000010
00000100
00000001
00000010
00000100
00001000
00000010
00001000
00000010
00001000
00000010
00010000
00000010
00010000
,
00001000
00010000
00001000
00010000
00001000
00100000
00001000
00100000
00010000
00100000
00010000
00100000
00010000
01000000
00010000
01000000
,
00100000
10000000
01000000
00100000
00010000
00000000
10000000
00000000
00100000
01000000
00100000
01000000
00100000
01000000
00100000
01000000
,
00100000
10000000
01000000
00100000
00010000
10000000
00100000
01000000
00010000
00100000
00010000
00100000
00010000
00100000
00010000
00100000
,
01000000
10000000
00100000
01000000
00010000
10000000
00010000
10000000
01000000
00100000
01000000
00100000
00010000
00000000
10000000
00000000
,
00100000
01000000
00100000
01000000
00010000
00000000
00100000
00000000
00010000
00100000
00010000
00100000
00001000
00100000
00001000
00100000
,
00001000
00010000
00001000
00010000
00000100
00010000
00000100
00001000
00000020
00000000
00000000
00000000
00000000
00000000
00000000
00000000
,
00000000
00000000
00000030
00000000
;

//---------------dance-single - ----------------
#NOTEDATA:;
#CHARTNAME:;
#STEPSTYPE:dance-single;
#DESCRIPTION:;
#CHARTSTYLE:;
#DIFFICULTY:Medium;
#METER:5;
#RADARVALUES:0.328524,0.451010,0.144158,0.480528,0.000000,244.000000,21.000000,70.000000,0.000000,0.000000,0.000000,0.000000,0.000000,0.328524,0.451010,0.144158,0.480528,0.000000,244.000000,21.000000,70.000000,0.000000,0.000000,0.000000,0.000000,0.000000;
#CREDIT:Ben Speirs;
#NOTES:
0000
0000
0000
0000
,
0000
0000
0000
0000
,
0000
0000
0000
0000
,
0000
0000
0000
0000
,
0000
0000
0000
0000
,
0000
0000
0000
0000
,
0000
0000
0000
0000
,
0000
0000
0000
0000
,
2000
0000
3100
0000
0000
0001
0001
0000
,
2000
0000
3100
0000
0000
0001
0001
0000
,
2000
0000
3100
0000
0000
0001
0001
0000
,
1000
0001
0100
0000
,
0002
0000
0103
0000
0000
1000
1000
0000
,
0002
0000
0103
0000
0000
1000
1000
0000
,
0002
0000
0103
0000
0000
1000
1000
0000
,
0001
1000
0010
0000
,
2000
3200
0310
0000
,
0002
2003
3010
0000
,
2000
3002
0103
0000
,
0001
0100
0001
0000
1000
0000
0001
0000
,
0020
0032
0103
0000
,
0002
2003
3100
0000
,
2000
3002
0103
0000
,
0001
1000
0001
0000
1000
0000
0000
0000
,
0102
0003
1000
0100
,
2000
0000
3000
0000
0001
1000
0001
0000
,
0200
0000
0300
0000
0010
1000
0010
0000
,
0200
0301
0002
1003
,
2000
3000
0100
1000
,
0020
0000
0030
0000
1000
0001
1000
0000
,
0002
0000
0003
0000
0100
0001
0100
0000
,
0002
1003
2000
3100
,
0200
0000
0300
0000
0000
1000
1000
0000
,
0200
0000
0300
0000
0000
0010
0010
0000
,
0200
0000
0300
0000
0000
1000
1000
0000
,
0002
1003
2000
3010
,
0020
0000
0000
0130
,
0002
0000
0000
0013
,
0200
0000
0000
1300
,
0002
1003
2000
3010
,
1000
0100
1000
0000
0002
0000
0003
0000
,
0001
0100
0001
0000
2000
0000
3000
0000
,
0002
2003
3020
0230
,
0302
0003
1001
1100
,
0001
1001
1000
1010
,
1001
0000
0100
0000
0001
1000
0001
0000
,
0100
0000
0010
0000
1000
0100
1000
0000
,
0001
0010
0011
1001
,
0100
1001
0100
1000
,
0010
1000
0010
0000
1100
0000
1010
0000
,
1001
0000
0101
0000
2000
0000
3000
0001
,
0001
0000
0100
0000
1002
0000
0003
0100
,
0100
0000
0010
1000
0020
0000
0030
1000
,
1000
0000
0001
0100
0002
0000
0003
1000
,
1000
0000
0100
0010
0200
0000
0300
0010
,
0010
0000
0001
0010
0002
0000
1003
0000
,
0010
0200
0300
0001
,
1000
0100
1000
0000
0020
0000
0130
0000
,
0002
0003
1100
0101
,
1000
0010
1002
0003
,
1000
0100
1000
0100
0020
0000
0030
0000
,
0001
0010
0001
0010
0200
0000
0300
0000
,
1000
0001
1000
0001
0200
0000
0300
0000
,
0001
1000
0020
0000
,
0130
0100
0002
0000
,
0013
0010
0001
1000
,
0010
1000
0010
0000
0100
0000
0001
0010
,
0100
1000
0001
0000
2000
0000
3000
0000
,
0100
1000
0100
1000
0002
0000
0003
0000
,
0100
0001
0100
0001
1000
0000
2020
0000
,
3030
0022
0033
2200
,
3300
1002
0203
0000
,
0000
0000
0000
0000
,
0300
0000
0000
0000
;

//---------------dance-single - ----------------
#NOTEDATA:;
#CHARTNAME:;
#STEPSTYPE:dance-single;
#DESCRIPTION:;
#CHARTSTYLE:;
#DIFFICULTY:Easy;
#METER:3;
#RADARVALUES:0.199076,0.300673,0.027459,0.350099,0.000000,148.000000,4.000000,51.000000,0.000000,0.000000,0.000000,0.000000,0.000000,0.199076,0.300673,0.027459,0.350099,0.000000,148.000000,4.000000,51.000000,0.000000,0.000000,0.000000,0.000000,0.000000;
#CREDIT:Ben Speirs;
#NOTES:
0000
0000
0000
0000
,
0000
0000
0000
0000
,
0000
0000
0000
0000
,
0000
0000
0000
0000
,
0000
0000
0000
0000
,
0000
0000
0000
0000
,
0000
0000
0000
0000
,
0000
0000
0000
0000
,
0002
0003
0000
1000
,
2000
3000
0000
0001
,
0002
0003
0000
0100
,
0200
0300
0010
0000
,
2000
3000
0000
0001
,
0002
0003
0000
1000
,
2000
3000
0000
0010
,
0020
0030
0100
0000
,
0001
0001
0100
0000
,
0010
0010
1000
0000
,
1000
1000
0100
0000
,
2000
3000
0002
0003
,
1000
1000
0100
0000
,
0010
0010
0001
0000
,
0001
0001
0100
0000
,
0002
0003
2000
3000
,
2002
3003
0000
0010
,
0020
0030
0000
1000
,
2000
3000
0000
0000
,
0002
0003
2000
3000
,
0200
0300
0000
1000
,
2000
3000
0000
0001
,
0002
0003
0000
0000
,
0200
0300
0020
0030
,
2000
3000
0100
1000
,
0002
0003
0100
0001
,
2000
3000
0010
1000
,
0002
0003
2000
3000
,
0020
0000
0030
0100
,
0002
0000
0003
1000
,
0200
0000
0300
0000
,
2000
3000
0002
0003
,
0200
0000
0300
0010
,
2000
0000
3000
0001
,
0020
0000
0030
0000
,
0001
0000
1001
0000
,
1000
0000
0010
1000
,
0001
0000
0010
0010
,
0001
0000
1000
1000
,
0100
0000
1000
0000
,
0001
0000
0100
0001
,
1000
0000
0010
0010
,
0100
0000
0002
0000
,
0000
0003
1001
0000
,
1000
0100
0000
0000
,
0010
0001
0000
0000
,
1000
0010
0000
0000
,
0100
0001
1000
0000
,
0001
0001
0010
0000
,
0001
1000
0100
0000
,
1000
1000
0001
0000
,
0100
0000
2002
3003
,
1000
1000
0020
0030
,
1000
0001
0020
0030
,
0001
0001
0200
0300
,
0010
0000
2000
0000
,
3000
0100
0020
0000
,
0030
0001
2000
3000
,
0010
0010
0100
0100
,
0001
1000
0002
0000
,
0003
0010
0200
0000
,
0300
1000
0010
0020
,
0030
2000
3000
0002
,
0003
0100
0020
0000
,
0000
0000
0000
0000
,
0030
0000
0000
0000
;

//---------------dance-single - ----------------
#NOTEDATA:;
#CHARTNAME:;
#STEPSTYPE:dance-single;
#DESCRIPTION:;
#CHARTSTYLE:;
#DIFFICULTY:Beginner;
#METER:1;
#RADARVALUES:0.106893,0.171188,0.034323,0.000000,0.000000,104.000000,5.000000,0.000000,0.000000,0.000000,0.000000,0.000000,0.000000,0.106893,0.171188,0.034323,0.000000,0.000000,104.000000,5.000000,0.000000,0.000000,0.000000,0.000000,0.000000,0.000000;
#CREDIT:Ben Speirs;
#NOTES:
0000
0000
0000
0000
,
0000
0000
0000
0000
,
0000
0000
0000
0000
,
0000
0000
0000
0000
,
0000
0000
0000
0000
,
0000
0000
0000
0000
,
0000
0000
0000
0000
,
0000
0000
0000
0000
,
1000
0000
0000
0000
,
0001
0000
0000
0000
,
1000
0000
0000
0000
,
0010
0000
0010
0000
,
0010
0000
0000
0000
,
1000
0000
0000
0000
,
0001
0000
0000
0000
,
0100
0000
0100
0000
,
0100
0000
0000
0001
,
0001
0000
0000
0001
,
0001
0000
0000
1000
,
1000
0000
0000
0000
,
0010
0000
0000
1000
,
1000
0000
0000
1000
,
1000
0000
0000
0000
,
0001
0000
0001
0000
,
1001
0000
0000
1000
,
1000
0000
0000
0000
,
0010
0000
0010
0000
,
0100
0000
0100
0000
,
0001
0000
0000
0001
,
0001
0000
0000
0000
,
1000
0000
0000
0000
,
0010
0000
0010
0000
,
1000
0000
0000
0001
,
0001
0000
0000
1000
,
1000
0000
0000
0001
,
0001
0000
0000
0000
,
1000
0000
0000
0000
,
0100
0000
0000
0000
,
0010
0000
0000
0000
,
0001
0000
0001
0000
,
0001
0000
0000
0000
,
0100
0000
0000
0000
,
0010
0000
0000
0000
,
1000
0000
1001
0000
,
0000
0000
1000
0000
,
0000
0000
0010
0010
,
0000
0000
0010
0010
,
0000
0000
1000
0000
,
0000
0000
0001
0000
,
0000
0000
0100
0100
,
0000
0000
0100
0100
,
0000
0000
1001
0000
,
0001
0001
0000
0000
,
1000
1000
0000
0000
,
0010
0010
0000
0000
,
0010
0010
0000
0000
,
1000
1000
0000
0000
,
0001
0001
0000
0000
,
0100
0100
0100
0000
,
0000
0000
1001
0000
,
0000
0000
1000
0000
,
1000
0000
0001
0000
,
0000
0100
0100
0000
,
0100
0000
0100
0000
,
0000
0000
0001
0000
,
0001
0000
1000
0000
,
0000
0010
0010
0000
,
0010
0000
1000
0000
,
0000
0001
0001
0000
,
0000
0100
0100
0100
,
0000
0100
0000
0010
,
0000
1001
0000
0000
;
