#VERSION:0.82;
#TITLE:Are You With Me;
#SUBTITLE:;
#ARTIST:Lost Frequencies;
#TITLETRANSLIT:;
#SUBTITLETRANSLIT:;
#ARTISTTRANSLIT:;
#GENRE:DDR Fans, Are You With Me?;
#ORIGIN:;
#CREDIT:;
#BANNER:Are You With Me.png;
#BACKGROUND:Are You With Me-bg.png;
#PREVIEWVID:;
#JACKET:jacket.png;
#CDIMAGE:;
#DISCIMAGE:;
#LYRICSPATH:;
#CDTITLE:;
#MUSIC:Are You With Me.ogg;
#OFFSET:-0.010000;
#SAMPLESTART:86.784012;
#SAMPLELENGTH:13.714000;
#SELECTABLE:YES;
#BPMS:0.000=121.000;
#STOPS:;
#DELAYS:;
#WARPS:;
#TIMESIGNATURES:0.000=4=4;
#TICKCOUNTS:0.000=4;
#COMBOS:0.000=1;
#SPEEDS:0.000=1.000=0.000=0;
#SCROLLS:0.000=1.000;
#FAKES:;
#LABELS:0.000=Song Start;
#BGCHANGES:8.000=Are You With Me.avi=1.000=0=0=1=====,
99999=-nosongbg-=1.000=0=0=0 // don't automatically add -songbackground-
;
#KEYSOUNDS:;
#ATTACKS:
;

//---------------dance-single - ----------------
#NOTEDATA:;
#CHARTNAME:;
#STEPSTYPE:dance-single;
#DESCRIPTION:;
#CHARTSTYLE:;
#DIFFICULTY:Hard;
#METER:7;
#RADARVALUES:0.345645,0.440697,0.123445,0.139904,0.041148,262.000000,15.000000,17.000000,0.000000,0.000000,0.000000,0.000000,0.000000,0.345645,0.440697,0.123445,0.139904,0.041148,262.000000,15.000000,17.000000,0.000000,0.000000,0.000000,0.000000,0.000000;
#CREDIT:Ben Speirs;
#NOTES:
// measure 0
0000
0000
0000
0000
,  // measure 1
0000
0000
0000
0000
,  // measure 2
0000
0000
0000
0000
,  // measure 3
0000
0000
0000
0000
,  // measure 4
1000
0000
0100
0000
0001
0010
1000
0000
,  // measure 5
0002
0003
0000
0000
,  // measure 6
0001
0000
0100
0000
1000
0010
0001
0000
,  // measure 7
2000
3000
0000
0000
,  // measure 8
0100
0000
1000
0000
0010
0001
0100
0000
,  // measure 9
0020
0000
0030
0000
0000
0000
1000
0001
,  // measure 10
2000
0000
3000
0000
0000
0000
0001
1000
,  // measure 11
0002
0000
0003
0000
0000
0000
0100
0100
,  // measure 12
0010
0000
1000
0000
0100
1000
0001
0000
,  // measure 13
0100
0000
0010
0000
1000
0100
0010
0000
,  // measure 14
0001
1000
0001
1000
0001
1000
0001
0000
,  // measure 15
1000
0001
1000
0001
1000
0001
1000
0000
,  // measure 16
0010
0101
0010
1100
,  // measure 17
0001
1000
1001
0000
0010
0100
0110
0000
,  // measure 18
1000
1010
0001
0101
,  // measure 19
2002
0000
0000
0000
3003
0000
0010
0010
,  // measure 20
0100
0000
0001
0000
1000
0100
0010
0001
,  // measure 21
1000
0000
0010
0000
0100
0010
1000
0001
,  // measure 22
0100
0000
0001
0000
1000
0100
0010
0001
,  // measure 23
1000
0000
0001
0000
0010
0100
0010
0001
,  // measure 24
1000
0000
0010
0000
0100
1000
0100
0001
,  // measure 25
1000
0000
0100
0000
0010
1000
0010
0001
,  // measure 26
1000
0000
0010
0000
0100
0001
1000
0000
,  // measure 27
2002
0000
0000
0000
3003
0000
0001
0001
,  // measure 28
0100
0000
0000
0000
0010
0000
0000
0000
1000
0000
0000
0100
0000
0000
0100
0000
,  // measure 29
0010
0000
0000
0000
0001
0000
0000
0000
1000
0000
0000
0010
0000
0000
0010
0000
,  // measure 30
0100
0000
0000
0000
0001
0000
0000
0000
1000
0000
0000
1000
0000
0000
1000
0000
,  // measure 31
0100
0000
0000
0000
0010
0000
0000
0000
0001
0000
0000
0001
0000
0000
0001
0000
,  // measure 32
1000
0000
0000
0000
0010
0000
0000
0000
0100
0000
0000
0001
0000
0000
1000
0000
,  // measure 33
0100
0000
0000
0000
0010
0000
0000
0000
0001
0000
0000
1000
0000
0000
0010
0000
,  // measure 34
0100
0000
0000
0000
0010
0000
0000
0000
1000
0000
0000
0100
0000
0000
0010
0000
,  // measure 35
0001
0000
1000
0000
0010
0000
0100
0100
,  // measure 36
0001
0000
1100
0000
1000
0100
0001
0000
,  // measure 37
0010
0000
0011
0000
0001
0010
1000
0000
,  // measure 38
1000
0000
1010
0000
1000
0010
0001
0000
,  // measure 39
0001
0000
0101
0000
0001
0100
1000
0000
,  // measure 40
0100
0000
0000
0000
0010
0000
0000
0000
0001
0000
0000
1000
0000
0000
0010
0000
,  // measure 41
0100
0000
0000
0000
0001
0000
0000
0000
1000
0000
0000
0100
0000
0000
0010
0000
,  // measure 42
0001
0000
0000
0000
1000
0000
0000
0000
0010
0000
0000
0010
0000
0000
0010
0000
,  // measure 43
0200
0000
0000
0000
0000
0000
0310
0010
,  // measure 44
1000
0100
1000
0001
0100
0001
0010
0000
,  // measure 45
0001
0010
0100
0010
0001
1000
0010
0000
,  // measure 46
1000
0100
1000
0010
0100
0001
1000
0000
,  // measure 47
0010
0100
0010
1000
0100
0010
0001
0000
,  // measure 48
0100
1000
0100
0001
1000
0100
0010
0000
,  // measure 49
0001
0010
1000
0010
0001
1000
0010
0000
,  // measure 50
0100
0010
0100
0000
0010
0000
1001
0000
,  // measure 51
0220
0000
0330
1001
,  // measure 52
0100
0000
1000
0000
0010
0001
0100
0000
,  // measure 53
0020
0000
0030
0000
,  // measure 54
0100
0000
0001
0000
1000
0100
0001
0000
,  // measure 55
0020
0000
0030
0000
,  // measure 56
0001
0000
0010
0000
1000
0100
0001
0000
,  // measure 57
2000
0000
0000
0000
3000
0000
0010
0100
,  // measure 58
0002
0000
0000
0000
0003
0000
0010
0100
,  // measure 59
2000
0000
3000
0000
;

//---------------dance-single - ----------------
#NOTEDATA:;
#CHARTNAME:;
#STEPSTYPE:dance-single;
#DESCRIPTION:;
#CHARTSTYLE:;
#DIFFICULTY:Medium;
#METER:4;
#RADARVALUES:0.265700,0.293798,0.041148,0.551386,0.000000,154.000000,5.000000,67.000000,0.000000,0.000000,0.000000,0.000000,0.000000,0.265700,0.293798,0.041148,0.551386,0.000000,154.000000,5.000000,67.000000,0.000000,0.000000,0.000000,0.000000,0.000000;
#CREDIT:Ben Speirs;
#NOTES:
0000
0000
0000
0000
,
0000
0000
0000
0000
,
0000
0000
0000
0000
,
0000
0000
0000
0000
,
2000
3000
0002
0003
,
0200
0300
0200
0300
,
0002
0003
2000
3000
,
0020
0030
0020
0030
,
2000
3000
0200
0300
,
0020
0030
0020
0030
,
0002
0003
0200
0300
,
2002
0000
0000
0000
3003
0000
0010
1000
,
0100
0100
0010
0000
,
0001
0001
1000
0000
,
0010
0010
0100
0000
,
0001
0001
1000
0000
,
0200
0010
0000
0010
,
0000
0010
0000
0310
,
0002
1000
0000
1003
,
2002
0000
0000
0000
3003
0000
0010
0010
,
1000
0100
0010
0001
,
1000
0100
0010
0001
,
0100
0010
1000
0001
,
0100
0010
1000
0001
,
2000
0100
0000
3100
,
0002
0100
0000
0103
,
2000
0010
0000
3010
,
2002
0000
0000
0000
3003
0000
0100
0100
,
0001
0000
2000
3200
,
0310
0000
0002
2003
,
3010
0000
0200
0302
,
1003
0000
0200
0320
,
0031
0000
2000
3020
,
0130
0000
0002
2003
,
3100
0000
2000
3020
,
0130
0000
0000
0000
0000
0000
0001
0001
,
1000
0100
0001
0010
,
2000
0000
3000
0000
,
0001
0100
1000
0010
,
0002
0000
0003
0000
,
0100
0010
1000
0001
,
0020
0000
0030
0000
,
0002
0003
2000
3000
,
2002
0000
0000
0000
3003
0000
0010
0010
,
1000
0100
0020
0031
,
1000
0001
0100
0100
,
0010
1000
0002
1003
,
0100
0010
0001
0001
,
1000
0010
0200
0301
,
1000
0001
0100
0100
,
0020
0030
2000
3000
,
2002
0000
3003
0100
,
0020
0030
2000
3000
,
0002
0003
2000
3000
,
0200
0300
0020
0030
,
0002
0003
2000
3000
,
0020
0030
2000
3000
,
0002
0003
0200
0300
,
0020
0000
0030
0000
,
0200
0000
0300
0000
;

//---------------dance-single - ----------------
#NOTEDATA:;
#CHARTNAME:;
#STEPSTYPE:dance-single;
#DESCRIPTION:;
#CHARTSTYLE:;
#DIFFICULTY:Easy;
#METER:2;
#RADARVALUES:0.132850,0.171382,0.016459,0.164593,0.000000,91.000000,2.000000,20.000000,0.000000,0.000000,0.000000,0.000000,0.000000,0.132850,0.171382,0.016459,0.164593,0.000000,91.000000,2.000000,20.000000,0.000000,0.000000,0.000000,0.000000,0.000000;
#CREDIT:Ben Speirs;
#NOTES:
0000
0000
0000
0000
,
0000
0000
0000
0000
,
0000
0000
0000
0000
,
0000
0000
0000
0000
,
0100
0000
0001
0000
,
1000
0000
0000
0000
,
0100
0000
0010
0000
,
0001
0000
0000
0000
,
0100
0000
0001
0000
,
1000
0000
0000
0000
,
0100
0000
0000
0000
,
0100
0000
0000
0000
,
1001
0000
0100
0000
,
0010
0000
0010
0000
,
1000
0000
0001
0000
,
1000
0000
1000
0000
,
0000
0100
0000
0100
,
0000
1000
0000
1000
,
0000
0001
0000
0001
,
0100
0000
0000
0000
,
0010
0000
1000
0000
,
0100
0100
0100
0000
,
0010
0000
0001
0000
,
1000
1000
1000
0000
,
0010
0000
0100
0000
,
0001
0001
0001
0000
,
1000
0000
0100
0000
,
1001
0000
0000
0000
,
0020
0000
0030
0000
,
2000
0000
3000
0000
,
0002
0000
0003
0000
,
0200
0000
0300
0000
,
0002
0000
0003
0000
,
2000
0000
3000
0000
,
0200
0000
0300
0000
,
0020
0000
0030
0000
,
0001
0000
1000
0000
,
0010
0000
0010
0000
,
0100
0000
0001
0000
,
1000
0000
1000
0000
,
0100
0000
0010
0000
,
0001
0000
0001
0000
,
2000
3000
0000
0000
,
0002
0003
0000
0000
,
0100
0100
0100
0000
,
0010
0000
1000
0000
,
0001
0001
0001
0000
,
0010
0000
0100
0000
,
1000
1000
1000
0000
,
0001
0000
1000
0000
,
0020
0030
0000
0000
,
0200
0300
0000
0000
,
0002
0000
0000
0003
,
2000
0000
0000
3000
,
0020
0000
0000
0030
,
0200
0000
0000
0300
,
0002
0000
0000
0003
,
2000
0000
0000
3000
,
0200
0000
0300
0000
,
0200
0000
0300
0000
;

//---------------dance-single - ----------------
#NOTEDATA:;
#CHARTNAME:;
#STEPSTYPE:dance-single;
#DESCRIPTION:;
#CHARTSTYLE:;
#DIFFICULTY:Beginner;
#METER:1;
#RADARVALUES:0.092877,0.121387,0.032919,0.000000,0.000000,75.000000,4.000000,0.000000,0.000000,0.000000,0.000000,0.000000,0.000000,0.092877,0.121387,0.032919,0.000000,0.000000,75.000000,4.000000,0.000000,0.000000,0.000000,0.000000,0.000000,0.000000;
#CREDIT:Ben Speirs;
#NOTES:
0000
0000
0000
0000
,
0000
0000
0000
0000
,
0000
0000
0000
0000
,
0000
0000
0000
0000
,
0010
0000
0000
0000
,
1000
0000
0000
0000
,
0001
0000
0000
0000
,
1000
0000
0000
0000
,
0100
0000
0000
0000
,
0010
0000
0000
0000
,
0001
0000
0000
0000
,
1000
0000
0000
0010
,
0010
0000
0010
0000
,
1000
0000
1000
0000
,
0001
0000
0001
0000
,
0100
0000
0100
0000
,
0000
0001
0000
0001
,
0000
1000
0000
1000
,
0000
0010
0000
0010
,
0010
0000
0000
0000
,
1000
0000
0001
0000
,
0100
0000
0000
0000
,
0010
0000
0010
0000
,
1000
0000
0000
0000
,
0100
0000
0100
0000
,
0010
0000
0000
0000
,
0001
0000
0001
0000
,
1000
0000
0000
0000
,
1001
0000
0000
0000
,
0010
0000
0000
0000
,
1000
0000
0000
0000
,
0001
0000
0000
0000
,
0100
0000
0000
0000
,
0100
0000
0000
0000
,
0001
0000
0000
0000
,
1000
0000
0000
0000
,
0110
0000
0000
0000
,
1000
1000
0000
0000
,
0001
0000
0000
0000
,
0100
0100
0000
0000
,
0010
0000
0000
0000
,
1000
1000
0000
0000
,
0001
0000
0000
0000
,
1000
0000
0000
0000
,
0110
0000
0000
0000
,
0001
0000
1000
0000
,
0010
0000
0010
0000
,
0100
0000
0000
0000
,
1001
0000
0000
0000
,
0100
0000
1000
0000
,
0010
0000
0010
0000
,
0100
0000
0000
0000
,
0001
0000
0000
0000
,
1000
0000
0000
0000
,
0100
0000
0000
0000
,
0100
0000
0000
0000
,
1000
0000
0000
0000
,
0001
0000
0000
0000
,
0010
0000
0000
0000
,
0010
0000
0000
0000
;

//---------------dance-double - ----------------
#NOTEDATA:;
#CHARTNAME:;
#STEPSTYPE:dance-double;
#DESCRIPTION:;
#CHARTSTYLE:;
#DIFFICULTY:Challenge;
#METER:7;
#RADARVALUES:0.364455,0.478348,0.106985,0.345645,0.024689,255.000000,13.000000,42.000000,0.000000,0.000000,0.000000,0.000000,0.000000,0.364455,0.478348,0.106985,0.345645,0.024689,255.000000,13.000000,42.000000,0.000000,0.000000,0.000000,0.000000,0.000000;
#CREDIT:Ben Speirs;
#NOTES:
00000000
00000000
00000000
00000000
,
00000000
00000000
00000000
00000000
,
00000000
00000000
00000000
00000000
,
00000000
00000000
00000000
00000000
,
00010000
00000000
00001000
00000000
00100000
00001000
00100000
00000000
,
00101000
00000000
00000000
00000000
,
00001000
00000000
00010000
00000000
00000100
00010000
00000100
00000000
,
00010100
00000000
00000000
00000000
,
00010000
00000000
00001000
00000000
01000000
00010000
01000000
00000000
,
01001000
00000000
00000000
00000000
00000000
00000000
01000000
00010000
,
10000000
00000000
00000000
00000000
00000000
00000000
01000000
10000000
,
00010000
00000000
00000000
00000000
00000000
00000000
00100000
00100000
,
00020000
00000000
01030000
00000000
00100000
10000000
01000000
00000000
,
20000000
00000000
30100000
00000000
01000000
00010000
10000000
00000000
,
00020000
00000000
00230000
00000000
00301000
00010000
00001000
00010000
,
00000200
00000000
00002300
00000000
00003001
00000100
00000010
00000000
,
00001002
00000000
00000103
00000000
00000010
00001000
00000001
00000000
,
00002001
00000000
00003200
00000000
00010300
00001000
00010000
00001000
,
00200000
00000000
00320000
00000000
10030000
00100000
01000000
00000000
,
20020000
00000000
00000000
00000000
30030000
00000000
01000000
01000000
,
00020000
00000000
01000000
00000000
10030000
01000000
00100000
00010000
,
20000000
00000000
01000000
00000000
30010000
01000000
00100000
10000000
,
00020000
00000000
00130000
00000000
00010000
00100000
00002000
00000000
,
00023000
00000000
00030020
00000000
00001030
00000001
00000101
00000000
,
00002000
00000000
00000010
00000000
00003001
00000010
00000100
00001000
,
00000002
00000000
00000010
00000000
00001003
00000010
00000100
00000001
,
00002000
00000000
00003100
00000000
00001000
00000100
00020000
00000000
,
00032000
02003000
03010000
00000000
,
10000000
00000000
00000000
00000000
00010000
00000000
00000000
00000000
00100000
00000000
00000000
00100000
00000000
00000000
00010000
00000000
,
10000000
00000000
00000000
00000000
00100000
00000000
00000000
00000000
01000000
00000000
00000000
01000000
00000000
00000000
00010000
00000000
,
00100000
00000000
00000000
00000000
00001000
00000000
00000000
00000000
00010000
00000000
00000000
00001000
00000000
00000000
00001000
00000000
,
00010000
00000000
00000000
00000000
00000100
00000000
00000000
00000000
00010000
00000000
00000000
00010000
00000000
00000000
00000100
00000000
,
00001000
00000000
00000000
00000000
00000010
00000000
00000000
00000000
00000100
00000000
00000000
00000001
00000000
00000000
00000010
00000000
,
00000100
00000000
00000000
00000000
00001000
00000000
00000000
00000000
00000010
00000000
00000000
00000100
00000000
00000000
00000001
00000000
,
00002000
00000100
00000001
00000010
,
00003002
00000100
00001003
00001001
,
00000001
00000100
00000001
00000100
00000010
00001000
00000001
00000000
,
00000100
00000010
00001000
00001001
,
00001000
00000100
00001000
00000100
00000010
00000001
00001000
00000000
,
00000010
00000100
00000001
00000101
,
00001000
00000100
00002000
00000000
00003200
00000000
00010300
00000000
,
00001000
00010000
00002000
00000000
00103000
00000000
00010000
01000000
,
00100000
00000000
10100000
00000000
01000000
00000000
00010000
10000000
,
20020000
00000000
00000000
00000000
30030000
00000000
01100000
00100000
,
10000000
01000000
00010000
01000000
10000000
00100000
01000000
00000000
,
00010000
00100000
10000000
00100000
00010000
01000000
00100000
00000000
,
20000000
00000000
32000000
00000000
03100000
00001000
00010000
00000000
,
00002000
00003200
00000302
00001003
,
00000001
00000010
00001000
00000010
00000001
00000100
00000010
00000000
,
00001000
00000100
00000001
00000100
00001000
00000010
00000100
00000000
,
00000002
00000000
00000023
00000000
00000130
00010000
00001000
00000000
,
00020000
00230000
20300000
30010000
,
10000000
00000000
01000000
00000000
00010000
00100000
10000000
00000000
,
00010000
00000000
00000000
00000000
,
00100000
00000000
00001000
00000000
00010000
00000100
00001000
00000000
,
00000010
00000000
00000000
00000000
,
00001000
00000000
00000100
00000000
00000001
00000010
00001000
00000000
,
00000001
00000000
00000000
00000000
00000000
00000000
00000100
00000010
,
00001000
00000001
00000000
00000000
00000000
00000000
00000000
00000000
;
