#VERSION:0.83;
#TITLE:Gone;
#SUBTITLE:;
#ARTIST:Charli XCX & Christine and the Queens;
#TITLETRANSLIT:;
#SUBTITLETRANSLIT:;
#ARTISTTRANSLIT:;
#GENRE:;
#ORIGIN:;
#CREDIT:;
#BANNER:Gone.png;
#BACKGROUND:Gone-bg.png;
#PREVIEWVID:;
#JACKET:jacket.png;
#CDIMAGE:;
#DISCIMAGE:;
#LYRICSPATH:;
#CDTITLE:;
#MUSIC:Gone.ogg;
#OFFSET:0.007000;
#SAMPLESTART:58.955387;
#SAMPLELENGTH:13.994001;
#SELECTABLE:YES;
#BPMS:0.000=114.000;
#STOPS:;
#DELAYS:;
#WARPS:;
#TIMESIGNATURES:0.000=4=4;
#TICKCOUNTS:0.000=4;
#COMBOS:0.000=1;
#SPEEDS:0.000=1.000=0.000=0;
#SCROLLS:0.000=1.000;
#FAKES:;
#LABELS:0.000=Song Start;
#BGCHANGES:8.000=Gone.avi=1.000=0=0=1=====,
99999=-nosongbg-=1.000=0=0=0 // don't automatically add -songbackground-
;
#KEYSOUNDS:;
#ATTACKS:
;

//---------------dance-single - ----------------
#NOTEDATA:;
#CHARTNAME:;
#STEPSTYPE:dance-single;
#DESCRIPTION:;
#CHARTSTYLE:;
#DIFFICULTY:Hard;
#METER:8;
#RADARVALUES:0.518094,0.562250,0.180548,0.243347,0.353246,462.000000,439.000000,23.000000,31.000000,0.000000,0.000000,0.000000,0.000000,0.000000,0.518094,0.562250,0.180548,0.243347,0.353246,462.000000,439.000000,23.000000,31.000000,0.000000,0.000000,0.000000,0.000000,0.000000;
#CREDIT:Ben Speirs;
#NOTES:
0000
0000
0000
0000
,
0000
0000
0000
0000
,
0000
0000
0000
0000
,
0000
0000
0000
0000
0001
0010
0100
1000
,
0010
0000
0110
0100
0000
0001
1000
0020
,
0000
0100
0130
0000
0010
1000
0100
0010
,
0001
1000
0001
1000
0000
0001
0010
0100
,
2000
0000
3001
0000
1000
0010
0100
0001
,
2000
0000
3100
0000
1000
0010
0100
0020
,
0000
1030
0001
0000
1000
0001
0010
0010
,
0100
0000
1000
0000
0010
1000
0100
0000
,
0000
0000
0000
0000
1000
0010
0000
0000
0010
0100
0000
0000
0100
0001
0000
0000
,
1000
0000
0010
0000
0100
0000
0001
1000
0000
0000
0001
0000
0010
0000
0200
0000
,
0000
0000
1300
0000
0001
0000
0100
0010
0000
0000
0100
0000
0001
0000
2000
0000
,
0000
0000
3010
0000
1000
0000
0100
0010
0000
0000
0001
0000
1000
0000
0010
0000
,
0100
0000
0000
0000
0001
0000
0100
0010
0100
0000
0001
0000
1000
0000
1000
0000
,
0010
0000
0000
0000
0100
0000
0001
0010
0000
0000
0100
0000
1000
0000
0020
0000
,
0000
0000
0130
0000
0100
0000
0001
1000
0010
0000
0010
0000
0010
0000
0000
0000
,
1000
0000
0000
0000
0010
0000
0100
0010
0000
0000
0100
0000
0001
0000
0000
0000
,
0000
0000
0000
0000
1000
0100
0000
0000
0100
0010
0000
0000
0010
0001
0000
0000
,
1000
0000
0100
0000
0001
0000
0100
0010
0001
0000
1000
0000
0001
0000
0100
0000
,
1000
0000
0100
0010
1000
0000
0001
0000
1000
0000
0010
0000
0100
0001
1000
0000
,
0020
0000
0000
0000
0130
0000
0100
0000
0001
0000
1000
0000
1000
0100
0010
0000
,
0200
0000
0000
0000
0310
0000
0010
0000
0001
0000
1000
0010
0200
0000
0000
0000
,
0301
0000
0010
0000
1000
0000
0010
0100
1000
0000
0001
0000
1000
0000
0010
0000
,
0001
0000
0010
0100
0001
0000
1000
0000
0001
0000
0100
0000
0010
1000
0001
0000
,
0100
0000
0000
0100
0010
0000
1000
0000
0001
0000
1000
0000
0100
0010
0100
0000
,
0020
0000
0000
0000
0031
0100
0000
0000
0100
0010
0000
0000
0010
1000
0000
0000
,
1100
0000
0100
0010
0002
0000
0000
0000
0103
0000
0001
0000
1000
0000
0001
0000
,
0201
0000
0000
0000
0310
0000
1000
0100
1000
0000
0010
0000
0010
0000
0000
0000
,
0100
0000
0010
0000
1000
0000
0100
1000
0000
0000
0001
0000
0010
0000
0001
0000
,
2000
0000
0000
0000
3010
0000
0100
0000
0001
0000
1000
0000
0100
0010
0100
0000
,
0020
0000
0000
0000
0031
0000
0001
1000
0000
0000
0001
0000
0100
0000
0010
0000
,
2000
0000
0000
0000
3010
0000
0100
0001
1000
0000
1000
0000
0010
0000
0000
0000
,
0100
0000
0001
1000
0001
0000
0100
0000
0010
0000
1000
0000
0001
0000
1000
0000
,
0010
0100
0010
0100
0001
0000
0000
0000
1000
0100
0000
0100
0010
0000
0001
0000
,
1000
0000
0000
0000
1010
0000
0010
0100
0000
0000
0001
0000
1000
0000
0010
0000
,
0110
0000
0000
0000
0100
0000
0001
0010
0100
0000
0100
0000
1001
0000
0000
0000
,
1000
0000
0000
0000
0101
0000
0100
0010
0000
0000
0100
0000
0001
0000
1000
0000
,
1010
0000
0001
1000
0100
0010
0110
0100
,
1001
0000
0000
0000
0010
0000
1000
0100
0000
0000
1000
0000
0001
0000
0100
0000
,
0210
0000
0000
0000
0301
0000
0100
0010
1000
0000
0001
0000
1001
0000
0000
0000
,
1000
0000
0100
0010
0001
0000
1000
0000
0010
0000
0100
0000
0001
0000
1000
0000
,
0100
0010
0100
0010
0001
0010
0100
1000
0010
0100
0010
0100
0001
0000
0000
0000
,
1010
0000
0000
0000
0000
0000
0000
0000
0011
0000
0000
0000
0000
0000
1000
0001
,
0000
0000
2000
0000
3020
0000
0130
0001
1000
0000
1100
0000
0001
0000
1100
0000
,
0001
0000
0000
0000
0000
0000
0100
0000
0100
0000
0000
0000
0001
0010
0100
1000
,
0000
0000
0010
0000
0200
0000
0301
1000
0200
0000
0320
0000
0031
0000
1001
0000
,
0010
0000
0000
0000
0001
0100
0001
0100
0010
0000
0000
0000
0000
0000
0100
0001
,
1000
0000
0100
0000
0010
0000
0100
0000
0010
0000
0001
0000
1000
0000
0001
0000
1000
0000
0000
0000
0020
0030
0000
0000
0200
0300
0000
0000
0002
0003
1000
0000
,
0010
0000
0000
0000
0100
0000
0100
0000
1001
0000
0000
0000
1000
0100
0010
0001
,
0100
0010
0100
0010
0000
1000
0001
0000
1001
0000
0000
0220
0000
0300
0000
0000
,
1030
0000
0001
0100
0000
0100
0000
0010
1000
0000
0001
0000
1000
0000
0100
0000
,
0010
0001
1000
0001
1000
0010
0100
0001
1000
0000
0000
0000
0020
0000
0100
0000
,
0130
0000
0001
0000
1000
0100
0000
0100
0010
0000
0001
0000
1000
0010
0100
0010
,
0000
0000
0200
0000
0000
0302
0000
0000
1003
0000
0100
0000
0001
0100
0000
0000
,
2000
0000
3010
0110
1001
0000
0001
1000
,
0010
0100
0010
1000
0001
0010
0100
1000
0001
0000
0000
0000
1000
0000
0010
0000
,
0110
0000
0100
0000
0001
0000
1000
0100
0010
0000
0000
0000
0001
1000
0001
1000
,
0010
0000
0100
0000
0001
0000
0000
0000
1000
0100
0000
0010
0000
0000
0000
0000
;

//---------------dance-double - ----------------
#NOTEDATA:;
#CHARTNAME:;
#STEPSTYPE:dance-double;
#DESCRIPTION:;
#CHARTSTYLE:;
#DIFFICULTY:Challenge;
#METER:8;
#RADARVALUES:0.519215,0.585677,0.156998,0.117749,0.341471,463.000000,443.000000,20.000000,15.000000,0.000000,0.000000,0.000000,0.000000,0.000000,0.519215,0.585677,0.156998,0.117749,0.341471,463.000000,443.000000,20.000000,15.000000,0.000000,0.000000,0.000000,0.000000,0.000000;
#CREDIT:Ben Speirs;
#NOTES:
00000000
00000000
00000000
00000000
,
00000000
00000000
00000000
00000000
,
00000000
00000000
00000000
00000000
,
00000000
00000000
00000000
00000000
00010000
00001000
00000100
00000001
,
00002000
00000000
00003010
00000100
00000000
00000001
00001000
00000200
,
00000000
00000010
00000310
00000000
00000010
00000001
00001000
00000010
,
00000100
00001000
00000100
00000010
00001000
00000100
00020000
00000000
,
00031000
00000000
00000000
00000000
00010000
00001000
00100000
00010000
,
02000000
00000000
03100000
00000000
10000000
00100000
01000000
00020000
,
00000000
10000000
10030000
00000000
10000000
01000000
00100000
00010000
,
20000000
00000000
30100000
00000000
01000000
00010000
10000000
00000000
,
00000000
00000000
00000000
00000000
00010000
00100000
00000000
00000000
00100000
01000000
00000000
00000000
01000000
10000000
00000000
00000000
,
00100000
00000000
01000000
00000000
00010000
00000000
00100000
00001000
00000000
00000000
00010000
00000000
00001000
00000000
00000200
00000000
,
00000000
00000000
00000310
00000000
00001000
00000000
00000001
00000010
00000001
00000000
00001000
00000000
00001000
00000000
00000010
00000000
,
00000100
00000000
00000001
00000000
00000010
00000000
00000100
00000000
00001000
00000000
00000010
00000100
00000010
00000000
00000000
00000000
,
00001000
00000000
00000000
00000000
00000001
00000000
00000100
00000010
00001000
00000000
00000001
00000000
00001000
00000000
00000100
00000000
,
00020000
00000000
00000000
00000000
00031000
00000000
00100000
01000000
00000000
00000000
00100000
00000000
00010000
00000000
02000000
00000000
,
00000000
00000000
03100000
00000000
00100000
00000000
10000000
00010000
10000000
00000000
00100000
00000000
00100000
00000000
01000000
00000000
,
00010000
00000000
00000000
00000000
10000000
00000000
01000000
00100000
00000000
00000000
00010000
00000000
10000000
00000000
00000000
00000000
,
00000000
00000000
00000000
00000000
00010000
01000000
00000000
00000000
01000000
00100000
00000000
00000000
00100000
10000000
00000000
00000000
,
00010000
00000000
10000000
00000000
01000000
00000000
00010000
00001000
00010000
00000000
00001000
00000000
00000100
00000000
00000001
00000000
,
00000100
00000000
00001000
00010000
00001000
00000000
00010000
00000000
00100000
00000000
10000000
00000000
00100000
00010000
00100000
00000000
,
20000000
00000000
00000000
00000000
01000000
00000000
31000000
00000000
00000000
00000000
10000000
00000000
01000000
00100000
00010000
00000000
,
02000000
00000000
00000000
00000000
00100000
03000000
00100000
00000000
01000000
00000000
00010000
00000000
10000000
00000000
00000000
00000000
,
10000000
00000000
01000000
00000000
00010000
00000000
00001000
00010000
00001000
00000000
00000100
00000000
00000001
00000000
00000100
00000000
,
00001000
00000000
00010000
00001000
00010000
00000000
00100000
00000000
10000000
00000000
00100000
00000000
00010000
00001000
00010000
00000000
,
00001000
00000000
00000000
00001000
00000010
00000000
00000000
00000010
00000001
00000000
00001000
00000000
00000010
00000100
00000010
00000000
,
00002000
00000000
00000000
00000000
00003100
00000010
00000000
00000000
00000010
00000001
00000000
00000000
00001001
00000000
00000000
00000000
,
00000101
00000000
00000100
00001000
00020000
00000000
00000000
00000000
00130000
00000000
10000000
00000000
01000000
00000000
00100000
00000000
,
00010000
00000000
00000000
00000000
10000000
00000000
00100000
01000000
00100000
00000000
10000000
00000000
01000000
00000000
00000000
00000000
,
00100000
00000000
00010000
00000000
10000000
00000000
00100000
01000000
00000000
00000000
00100000
00000000
10000000
00000000
01000000
00000000
,
12000000
00000000
03100000
00010000
01000000
00100000
00010000
00001000
,
00011000
00000000
00000000
00000000
00010000
00000000
00000100
00000010
00000000
00000000
00000001
00000000
00000100
00000000
00000010
00000000
,
00001000
00000000
00000001
00000000
00001000
00000000
00000010
00000100
00001000
00000000
00010000
00000000
00001000
00000000
00000000
00000000
,
00010000
00000000
00001000
00100000
00001000
00000000
00010000
00000000
00100000
00000000
00010000
00000000
00001000
00000000
00100000
00000000
,
00010000
00000000
00100000
00001000
00010000
00000000
00001000
00000000
00110000
00000000
00000000
00000000
11000000
00000000
00000000
00000000
,
00010000
00000000
10000000
00000000
01100000
00000000
00000000
00000000
00100000
00000000
10000000
00000000
01000000
00000000
00100000
00010000
,
10000000
00000000
00000000
00000000
00100000
00000000
01000000
00010000
10000000
00000000
00100000
00000000
01100000
00000000
00000000
00000000
,
00100000
00000000
01000000
00000000
00010000
00000000
00100000
00001000
00000000
00000000
00010000
00000000
00010000
00000000
00000100
00000000
,
00001100
00000000
00001010
00000010
00000110
00000100
00001001
00000000
,
00000001
00000000
00000010
00000000
00000100
00000000
00001000
00000010
00000000
00000000
00000100
00000000
00000100
00000000
00000010
00000000
,
00001010
00000000
00000000
00000000
00000010
00000000
00001000
00000100
00010000
00000000
00001000
00000000
00011000
00000000
00000000
00000000
,
00001000
00000000
00100000
00000000
00010000
00000000
01000000
00000000
00100000
10000000
00100000
00000000
01000000
00000000
00010000
10000000
,
00010000
10000000
00100000
01000000
00100000
01000000
00100000
01000000
00010000
10000000
00010000
10000000
01000000
00000000
00000000
00000000
,
11000000
00000000
00000000
00000000
00000000
00000000
00000000
00000000
01010000
00000000
00000000
00000000
00000000
00000000
10000000
01000000
,
00000000
00000000
00100000
00000000
00100000
00000000
00010000
01000000
00100000
00000000
00010000
00000000
00001000
00000000
00000010
00000000
,
00000001
00000000
00000000
00000000
00000000
00000000
00001000
00000000
00001000
00000000
00000000
00000000
00000010
00000100
00000001
00001000
,
00000000
00000000
00000001
00000000
00000001
00000000
00000100
00000010
00001000
00000000
00000001
00000000
00000010
00000000
00000100
00000000
,
00001000
00000000
00000000
00000000
00000100
00010000
00000100
00010000
00001000
00000000
00000000
00000000
00010000
00000000
00001000
00100000
,
00000000
00010000
00100000
00010000
00100000
01000000
10000000
00010000
01000000
00000000
01100000
00000000
00100000
00000000
10000000
00000000
,
00010000
00000000
00000000
00000000
10100000
00000000
00010000
00000000
10000000
00000000
00010000
00000000
01000000
00100000
01000000
00100000
,
10000000
01000000
10000000
01000000
00100000
00010000
00100000
00010000
10000000
00000000
00000000
10010000
00000000
00000000
00000000
00000000
,
10000000
00000000
00100000
01000000
00000000
01000000
00000000
00010000
10000000
00000000
01000000
00000000
00010000
00000000
00001000
00000000
,
00010000
00001000
00010000
00000100
00001000
00000010
00000100
00000001
00001000
00000000
00000000
00000000
00001010
00000000
00000001
00000000
,
00001000
00000000
00000010
00000000
00000100
00000001
00000000
00000001
00001000
00000000
00000000
00000000
00000100
00000010
00000100
00000010
,
00000000
00000001
00000010
00000100
00001000
00001000
00000001
00000001
,
00000100
00000000
00000010
00001000
00000000
00000010
00000000
00001000
00000100
00000000
00000010
00000000
00000001
00000000
00001000
00000001
,
00001000
00000001
00000100
00000010
00000100
00000010
00001000
00000100
00010000
00000000
00000000
00000000
00001000
00000000
00010000
00001000
,
00100000
00000000
00010000
00000000
01000000
00000000
00100000
00000000
20000000
00000000
00000000
00000000
30100000
00000000
01000000
00010000
,
00100000
00000000
00001000
00000000
00010000
00000000
00000000
00000000
00000100
00000010
00000000
00000001
00000000
00000000
00000000
00000000
;

//---------------dance-single - ----------------
#NOTEDATA:;
#CHARTNAME:;
#STEPSTYPE:dance-single;
#DESCRIPTION:;
#CHARTSTYLE:;
#DIFFICULTY:Medium;
#METER:6;
#RADARVALUES:0.327453,0.421687,0.117749,0.102049,0.023550,292.000000,277.000000,15.000000,13.000000,0.000000,0.000000,0.000000,0.000000,0.000000,0.327453,0.421687,0.117749,0.102049,0.023550,292.000000,277.000000,15.000000,13.000000,0.000000,0.000000,0.000000,0.000000,0.000000;
#CREDIT:Ben Speirs;
#NOTES:
0000
0000
0000
0000
,
0000
0000
0000
0000
,
0000
0000
0000
0000
,
0000
0000
0000
0000
1000
0100
0010
0000
,
1002
0000
0103
0000
0000
0000
0001
1000
,
0020
0000
0130
0000
0010
1000
0100
0000
,
2000
3100
0020
0031
,
1000
0000
0000
0000
0001
1000
0010
0000
,
0200
0000
0301
0000
0000
0000
0001
1000
,
0010
0000
0100
0000
0010
1000
0100
0010
,
0001
1000
0010
1001
,
0000
1000
0001
0100
,
0001
0000
0010
0100
0000
0000
0010
0000
,
0001
0000
1000
0000
0010
0010
1000
0000
,
0100
0000
1000
0000
0010
0100
0001
0000
,
0000
0000
1000
0000
0010
1000
0001
0000
,
1000
0000
0100
0010
0010
0000
0001
0000
,
1000
0000
0010
0000
0100
0001
1000
0000
,
0010
1000
0000
0001
,
0000
0010
0100
1000
,
0100
0010
0100
0010
0001
0000
0100
0010
,
0100
0010
1000
0000
0010
0000
0100
0001
,
2000
0000
3100
0000
0000
0000
1000
0001
,
0002
0000
0000
0003
0100
0000
0000
0000
0000
0000
0000
0000
0001
0000
0000
0000
,
0100
0001
0010
0000
0100
0000
1000
0010
,
0100
0000
0010
0000
0100
0001
1000
0000
,
0002
0023
0130
1000
,
0020
0230
0301
1001
,
1100
0000
0002
0000
0003
0000
0100
0001
,
1000
0000
0010
0000
0100
0100
0100
0000
,
0010
0000
1000
0000
0000
0000
0001
1000
,
0100
0000
0010
0000
0001
1000
0001
1000
,
0010
0000
0101
0000
0000
0000
1000
0100
,
1000
0000
0001
0000
0010
0010
0001
0000
,
1000
0100
0010
0001
1000
0000
0001
0010
,
0100
0000
1000
0000
0001
0000
0000
0000
0100
0000
0000
0100
0010
0000
0000
0000
,
1010
0000
0101
0000
1000
0000
0010
1000
,
0100
0000
0010
0000
0001
1000
0001
0000
,
0100
0000
0010
1000
0010
0000
0100
0000
,
0110
1010
1100
0101
,
2000
0000
3001
0000
1000
0010
0100
0001
,
1000
0000
0001
0000
0010
0001
0100
0000
,
0001
0100
0010
0100
0010
0000
1000
0010
,
0100
0010
0100
0000
0101
0000
1100
0000
,
0001
0000
0000
0000
1000
0000
0000
0010
,
0000
0100
0100
0000
0001
1000
0001
1000
,
0100
0000
0000
0010
0010
0000
0001
0000
,
1000
0001
1000
0000
0010
0100
0010
0100
,
0001
0000
0100
0010
0010
0000
1000
0000
,
0001
1000
0001
1000
0001
1000
0001
1000
0001
0000
0000
0000
0000
0000
0000
0000
,
0100
0000
0000
0010
0010
0000
0100
0000
,
0001
1000
1100
0101
,
1000
0000
0100
0010
0001
0000
0010
0100
,
1000
0000
0010
0000
0100
0001
1000
0000
,
0000
0000
0010
0000
1000
0000
0010
1000
,
0100
0000
0010
0001
0100
0010
0100
0010
,
1000
0000
0001
1000
,
0100
0000
0010
0000
0001
1000
0001
0000
,
0100
0010
0100
0010
0100
0000
0001
1000
,
0001
0000
1000
0000
0001
0000
0000
0000
1000
0000
0000
0100
0000
0000
0000
0000
;

//---------------dance-single - ----------------
#NOTEDATA:;
#CHARTNAME:;
#STEPSTYPE:dance-single;
#DESCRIPTION:;
#CHARTSTYLE:;
#DIFFICULTY:Easy;
#METER:3;
#RADARVALUES:0.208583,0.234025,0.039250,0.000000,0.000000,186.000000,181.000000,5.000000,0.000000,0.000000,0.000000,0.000000,0.000000,0.000000,0.208583,0.234025,0.039250,0.000000,0.000000,186.000000,181.000000,5.000000,0.000000,0.000000,0.000000,0.000000,0.000000,0.000000;
#CREDIT:Ben Speirs;
#NOTES:
// measure 0
0000
0000
0000
0000
,  // measure 1
0000
0000
0000
0000
,  // measure 2
0000
0000
0000
0000
,  // measure 3
0000
0000
0000
0000
,  // measure 4
0010
0010
0000
0100
,  // measure 5
0001
0001
0000
0100
,  // measure 6
0010
1000
0100
0010
,  // measure 7
0010
0000
0001
1000
,  // measure 8
1000
0000
0010
1000
,  // measure 9
0001
0000
0100
0100
,  // measure 10
0001
0000
1000
1000
,  // measure 11
0000
0000
0000
0000
,  // measure 12
0100
0000
1000
0010
,  // measure 13
0010
0000
0100
0000
,  // measure 14
0001
0001
1000
0100
,  // measure 15
0100
0000
1000
0010
,  // measure 16
0100
0000
0010
0010
,  // measure 17
0100
0000
0001
0010
,  // measure 18
0100
0000
1000
1000
,  // measure 19
0001
0000
0000
0000
,  // measure 20
1000
0010
1000
0001
,  // measure 21
0001
0010
0001
1000
,  // measure 22
1000
0000
0010
0010
,  // measure 23
0100
0000
0001
0000
,  // measure 24
1000
0100
1000
1000
,  // measure 25
0001
0100
0001
0001
,  // measure 26
1000
0010
0000
1000
,  // measure 27
0001
0010
0000
0000
,  // measure 28
1001
0110
0000
1001
,  // measure 29
0000
0000
1000
0000
0010
0010
0010
0000
,  // measure 30
0000
0100
0000
0001
,  // measure 31
1000
1000
0100
0010
,  // measure 32
0001
1000
0000
0010
,  // measure 33
0000
0000
0100
0000
0001
0001
0001
0000
,  // measure 34
1000
1000
0100
0010
,  // measure 35
0001
0001
0100
0000
,  // measure 36
0110
1001
0000
1000
,  // measure 37
0010
0000
0000
0000
0100
0100
0100
0000
,  // measure 38
0100
0000
0001
1000
,  // measure 39
0100
0100
0010
0010
,  // measure 40
0001
0000
1000
0000
,  // measure 41
0001
0000
0100
0000
0010
0010
0010
0000
,  // measure 42
1000
0100
1000
0000
,  // measure 43
0001
0100
0001
0000
,  // measure 44
0100
0000
0010
0000
,  // measure 45
1000
0001
0100
0100
,  // measure 46
0001
0000
0000
1000
1000
0000
0000
0000
,  // measure 47
0010
0010
0100
0100
,  // measure 48
0001
0000
1000
1000
1000
0000
0000
0000
,  // measure 49
0100
0000
0100
0100
0100
0000
0000
0000
,  // measure 50
0010
0000
0000
0000
0010
0000
0001
0001
,  // measure 51
0001
1000
0010
0000
,  // measure 52
1000
0001
0100
0000
,  // measure 53
0010
0010
0100
0100
,  // measure 54
0001
0000
1000
0100
,  // measure 55
0010
0010
0001
1000
,  // measure 56
0010
0000
1000
1000
,  // measure 57
0010
0100
0001
0001
,  // measure 58
0100
0010
1000
0001
,  // measure 59
1000
0000
0100
0000
0010
0010
0000
0000
;

//---------------dance-single - ----------------
#NOTEDATA:;
#CHARTNAME:;
#STEPSTYPE:dance-single;
#DESCRIPTION:;
#CHARTSTYLE:;
#DIFFICULTY:Beginner;
#METER:1;
#RADARVALUES:0.095320,0.140121,0.015700,0.000000,0.000000,85.000000,83.000000,2.000000,0.000000,0.000000,0.000000,0.000000,0.000000,0.000000,0.095320,0.140121,0.015700,0.000000,0.000000,85.000000,83.000000,2.000000,0.000000,0.000000,0.000000,0.000000,0.000000,0.000000;
#CREDIT:Ben Speirs;
#NOTES:
// measure 0
0000
0000
0000
0000
,  // measure 1
0000
0000
0000
0000
,  // measure 2
0000
0000
0000
0000
,  // measure 3
0000
0000
0000
0000
,  // measure 4
1000
0000
0000
0000
,  // measure 5
0001
0000
0000
0000
,  // measure 6
0100
0000
0100
0000
,  // measure 7
0100
0000
0000
0000
,  // measure 8
0001
0000
0000
0000
,  // measure 9
1000
0000
0000
0000
,  // measure 10
0010
0000
0000
0000
,  // measure 11
0010
0000
0000
0000
,  // measure 12
1000
0000
0000
0000
,  // measure 13
0001
0000
0000
0000
,  // measure 14
0100
0000
0100
0000
,  // measure 15
0100
0000
0000
0000
,  // measure 16
0001
0000
0000
0000
,  // measure 17
1000
0000
0000
0000
,  // measure 18
0010
0000
0010
0000
,  // measure 19
0010
0000
0000
0000
,  // measure 20
1000
1000
0000
0000
,  // measure 21
0001
0001
0000
0000
,  // measure 22
0100
0000
0000
0000
,  // measure 23
0100
0000
0000
0000
,  // measure 24
0001
0001
0000
0000
,  // measure 25
1000
1000
0000
0000
,  // measure 26
0010
0000
0010
0000
,  // measure 27
0010
0000
0000
0000
,  // measure 28
1001
0000
0000
0000
,  // measure 29
1000
0000
0010
0010
,  // measure 30
0000
0000
0000
0000
,  // measure 31
0100
0000
0100
0000
,  // measure 32
0100
0000
0000
0000
,  // measure 33
0001
0000
1000
1000
,  // measure 34
0000
0000
0000
0000
,  // measure 35
0010
0010
0010
0000
,  // measure 36
1001
0000
0000
0000
,  // measure 37
1000
0000
0010
0010
,  // measure 38
0000
0000
0000
0000
,  // measure 39
0100
0000
0100
0000
,  // measure 40
0001
0000
0000
0000
,  // measure 41
1000
0000
0010
0010
,  // measure 42
0000
0000
0000
0000
,  // measure 43
1000
1000
1000
0000
,  // measure 44
1000
0000
0000
0000
,  // measure 45
0010
0000
0010
0000
,  // measure 46
0010
0000
0000
0000
,  // measure 47
0100
0000
0100
0000
,  // measure 48
0100
0000
0000
0000
,  // measure 49
0001
0001
0001
0000
,  // measure 50
0001
0000
0000
0000
,  // measure 51
1000
0000
0000
0000
,  // measure 52
0010
0000
0000
0000
,  // measure 53
0100
0000
0100
0000
,  // measure 54
0100
0000
0000
0000
,  // measure 55
0001
0000
0001
0000
,  // measure 56
0001
0000
0000
0000
,  // measure 57
1000
0000
1000
0000
,  // measure 58
1000
0000
0000
0000
,  // measure 59
0010
0010
0010
0000
;
