#VERSION:0.83;
#TITLE:Lost Boys;
#SUBTITLE:;
#ARTIST:Graves & Maazel;
#TITLETRANSLIT:;
#SUBTITLETRANSLIT:;
#ARTISTTRANSLIT:;
#GENRE:;
#ORIGIN:;
#CREDIT:;
#BANNER:Lost Boys.png;
#BACKGROUND:Lost Boys-bg.png;
#PREVIEWVID:;
#JACKET:jacket.png;
#CDIMAGE:;
#DISCIMAGE:;
#LYRICSPATH:;
#CDTITLE:;
#MUSIC:Lost Boys.ogg;
#OFFSET:0.000000;
#SAMPLESTART:35.992950;
#SAMPLELENGTH:14.694003;
#SELECTABLE:YES;
#BPMS:0.000=160.000;
#STOPS:;
#DELAYS:;
#WARPS:;
#TIMESIGNATURES:0.000=4=4;
#TICKCOUNTS:0.000=4;
#COMBOS:0.000=1;
#SPEEDS:0.000=1.000=0.000=0;
#SCROLLS:0.000=1.000;
#FAKES:;
#LABELS:0.000=Song Start;
#BGCHANGES:;
#KEYSOUNDS:;
#ATTACKS:
;

//---------------dance-single - ----------------
#NOTEDATA:;
#CHARTNAME:;
#STEPSTYPE:dance-single;
#DESCRIPTION:;
#CHARTSTYLE:;
#DIFFICULTY:Hard;
#METER:8;
#RADARVALUES:0.606975,0.664858,0.420757,0.107252,0.094877,515.000000,464.000000,51.000000,13.000000,0.000000,0.000000,0.000000,0.000000,0.000000,0.606975,0.664858,0.420757,0.107252,0.094877,515.000000,464.000000,51.000000,13.000000,0.000000,0.000000,0.000000,0.000000,0.000000;
#CREDIT:Ben Speirs;
#NOTES:
0000
0000
0000
0000
,
0000
0000
0000
0000
,
0000
0000
0000
0000
,
0000
0000
0000
0000
,
0000
0000
0000
0000
,
0000
0000
0000
0000
,
0000
0000
0000
0000
,
0000
0000
0000
0000
,
1100
0000
0100
0000
0001
0000
1000
0010
,
0100
0101
1001
0000
,
0011
0000
0010
0000
1000
0000
0001
0100
,
0010
0000
1010
0000
1001
0000
0001
1000
,
0010
0100
0002
0000
0103
0000
0001
0010
,
0100
2000
3100
0000
,
1000
0010
0200
0000
0301
0000
0100
0001
,
2000
0000
3001
0000
1001
0000
1000
1000
,
0100
0010
0100
0010
0100
0000
0010
0001
,
0010
0001
0010
0000
0001
1000
0010
0000
,
0100
0001
0100
0001
0100
0000
0010
1000
,
0010
1000
0010
0000
1000
0100
0010
0000
,
0100
1000
0100
1000
0010
0100
0010
0100
,
0001
0010
0001
0010
0100
1000
0100
1000
,
0001
0100
0010
1000
0100
0010
0001
1000
,
0010
0000
0100
0110
,
1001
0001
0100
0000
0101
0000
0001
1000
,
0010
0100
0010
0100
0000
0000
0110
0000
,
0001
0100
0000
0010
1000
0000
1100
0000
,
0001
0010
0100
1000
0010
0001
0010
0100
,
0001
1000
0010
0000
1010
0000
1100
0100
,
0010
0001
0010
0001
1000
0000
1100
0000
,
0101
0100
0001
1000
0010
0000
1002
0000
,
0023
0000
0000
0000
0230
0000
0000
0000
1300
0000
0001
0100
0001
0000
1000
0000
,
0100
0100
0011
0000
1020
0000
0130
0010
,
0100
0001
0100
1000
0100
0010
1000
0100
,
0010
0010
0011
0000
1010
0000
1002
0000
,
0100
0000
0013
0100
0010
0001
1000
0000
,
0010
0010
1100
0000
0201
0000
0310
0100
,
0010
1000
0010
0001
0010
0100
0001
0010
,
0100
0100
1100
0000
0101
0000
1000
0001
,
1000
0010
0001
0010
0100
0001
0010
1000
,
0020
0000
0001
0100
,
0230
1000
1300
0000
,
1000
0100
0010
0001
0100
0010
1000
0001
,
0100
0000
0010
0110
,
0101
0100
0010
1000
0100
0010
0001
1000
,
0010
0000
0100
0000
0001
0000
1000
0000
0010
0000
0100
0000
0001
1000
0001
1000
,
0010
0100
0001
0010
0100
1000
0010
0100
,
0001
1000
0010
0100
0001
0010
0100
0000
,
1000
0100
0010
0001
0010
0100
0010
0001
,
1000
0000
0010
0000
0100
0000
0001
0000
1000
0000
0010
0000
1000
0100
1000
0100
,
1000
0010
0100
0001
0010
0100
0010
0001
,
1000
0010
0100
0001
1000
0001
0100
0000
,
0101
0000
1010
0000
1001
0000
0001
0010
,
0100
0000
1000
0000
1010
0000
0000
0000
0101
0000
0000
0000
0010
0100
0010
0100
,
0001
0100
0010
1000
0100
0010
0001
0100
,
1000
0100
0110
0000
1001
0000
0001
1000
,
1010
0000
1001
0000
0101
0000
1000
0100
,
1000
0000
0001
0000
0101
0000
0000
0000
1010
0000
0000
0000
1000
0100
1000
0100
,
0010
0001
1000
0010
0100
0001
0100
0010
,
1000
0100
1100
0000
1001
0000
0110
0000
,
1001
1000
0010
0100
0001
1000
0100
0010
,
0001
0100
0010
0100
0001
1000
0010
0100
,
0001
0100
0001
0000
1000
0000
0001
0000
1000
0000
0001
0000
0100
0010
0100
0000
,
0001
0000
1000
0000
0001
0000
1000
0000
0010
0100
0010
0000
1000
0000
0000
0000
,
1001
0001
0100
0010
1000
0001
0010
0100
,
1000
0010
0100
0010
1000
0001
0100
0010
,
1000
0010
1000
0000
0001
0000
1000
0000
0001
0000
1000
0000
0010
0100
0010
0000
,
1000
0000
0001
0000
1000
0000
0001
0000
0100
0000
0010
1000
0010
0000
1000
0000
,
1100
0000
0000
0000
0001
0010
0100
1000
0001
0000
0000
0000
1000
0000
0100
0000
,
1000
0001
0100
0010
0100
0001
0010
0100
,
1000
0000
0000
0000
1000
0100
0010
0001
1000
0000
0000
0000
0001
0000
1000
0000
,
0010
0100
0001
1000
0010
0010
0100
0000
,
0101
0000
1010
0010
1001
0000
1001
1000
,
0100
0010
0001
0010
0100
1000
0001
0100
,
0010
0000
0010
0000
1000
0001
1000
0001
0100
0000
0010
0000
1000
0100
1000
0100
,
0010
0001
1000
0010
0100
0100
0001
0000
,
2010
0000
0000
3001
;

//---------------dance-double - ----------------
#NOTEDATA:;
#CHARTNAME:;
#STEPSTYPE:dance-double;
#DESCRIPTION:;
#CHARTSTYLE:;
#DIFFICULTY:Challenge;
#METER:8;
#RADARVALUES:0.543331,0.633199,0.288755,0.107252,0.033001,461.000000,426.000000,35.000000,13.000000,0.000000,0.000000,0.000000,0.000000,0.000000,0.543331,0.633199,0.288755,0.107252,0.033001,461.000000,426.000000,35.000000,13.000000,0.000000,0.000000,0.000000,0.000000,0.000000;
#CREDIT:Ben Speirs;
#NOTES:
00000000
00000000
00000000
00000000
,
00000000
00000000
00000000
00000000
,
00000000
00000000
00000000
00000000
,
00000000
00000000
00000000
00000000
,
00000000
00000000
00000000
00000000
,
00000000
00000000
00000000
00000000
,
00000000
00000000
00000000
00000000
,
00000000
00000000
00000000
00000000
,
10000000
01000000
00200000
00000000
00310000
00000000
00100000
00010000
,
01000000
01010000
11000000
00000000
,
01000000
10000000
00010000
01000000
,
00001000
00010000
00000100
00000000
00001000
00000000
00000000
00000000
,
00000010
00001000
00000200
00000000
00000310
00000000
00001001
00000000
,
00000001
00000010
00000100
00001000
00000001
00000000
00000000
00000000
,
00001000
00000010
00000100
00001000
,
00010000
00001000
00100000
00000000
,
00010000
00100000
01000000
00100000
01000000
00000000
10000000
00000000
,
00100000
10000000
01000000
10000000
01000000
00000000
00000000
00000000
,
00100000
00010000
01000000
00010000
01000000
00000000
00001000
00000000
,
00100000
00010000
01000000
00010000
01000000
00000000
00000000
00000000
,
00001000
00010000
00001000
00000000
00010000
00000100
00001000
00000000
,
00000100
00010000
00000100
00000000
00010000
00001000
00100000
00000000
,
00010000
01000000
00100000
10000000
01000000
00010000
00001000
00010000
,
00000100
00000000
00000010
00000110
,
00001001
00000001
00001000
00000000
00001100
00000000
00000001
00001000
,
00000010
00000100
00000010
00000100
00000000
00000001
00001000
00000000
,
00000100
00010000
00000000
00010000
00001000
00000000
00102000
00000000
,
00010000
00100000
00010000
00013000
,
00001000
00010000
00001000
00000000
00101000
00000000
00010000
00001000
,
00100000
00000000
00010000
01000000
00100000
00000000
01100000
00000000
,
10000000
00100000
00000000
01000000
00010000
00000000
20010000
00000000
,
01000000
00010000
30100000
00000000
,
00100000
10000000
00100000
10000000
01000000
00000000
00100000
00010000
,
01000000
01010000
10010000
11000000
,
10000000
01000000
00100000
00010000
01000000
00000000
00100000
01000000
,
00020000
00230000
00302000
00013000
,
00000100
00000000
00010100
00000000
00011000
00000000
00001000
00010000
,
00000010
00000100
00000010
00000100
00000001
00001000
00000010
00000000
,
00001010
00001000
00000000
00000001
00001000
00000000
00000102
00000000
,
00001003
00000000
00000001
00001000
00000010
00000000
00000000
00000000
,
00001000
00000100
00001000
00000100
00000020
00000000
00000032
00000000
,
00000103
00000010
00000100
00000010
00002000
00000000
00003000
00000000
,
00000100
00001000
00000100
00010000
00001000
00100000
00010000
01000000
,
00100000
00000000
01000000
01100000
,
10010000
10000000
00100000
01000000
00010000
10000000
01000000
00100000
,
10000000
00100000
01000000
00100000
00010000
00100000
01000000
00100000
,
00010000
10000000
00100000
01000000
00010000
00100000
00001000
00010000
,
00100000
00010000
00001000
00010000
00100000
00010000
00001000
00010000
,
00000010
00001000
00000100
00000010
00000001
00000100
00000010
00001000
,
00000001
00001000
00000010
00001000
00000001
00001000
00000010
00000100
,
00000001
00000010
00000100
00001000
00000010
00000100
00010000
00000100
,
00010000
00000100
00010000
00000100
00001000
00010000
00100000
00000000
,
01100000
00000000
10010000
00000000
11000000
00000000
00010000
10000000
,
00100000
01000000
01010000
00000000
11000000
00000000
00010000
10000000
,
00100000
01000000
00100000
01000000
00010000
00100000
00001000
00010000
,
00000100
00001000
00001100
00000000
00001001
00000000
00000001
00000100
,
00000110
00000000
00001010
00000000
00001100
00000000
00000001
00001000
,
00000010
00010000
00010100
00000000
00011000
00000000
00001000
00100000
,
00010000
01000000
10000000
01000000
00100000
10000000
01000000
00100000
,
00010000
10000000
00100000
01000000
10010000
00000000
00000000
00000000
,
00200000
00000000
01300000
00000000
10010000
00000000
00100000
10000000
,
01000000
00000000
10000000
00000000
00100000
00000000
01000000
00000000
00010000
00000000
00100000
00000000
00001000
00000000
00010000
00001000
,
00010000
00001000
00010000
00000100
00001000
00000010
00000100
00000001
,
00001000
00000100
00000010
00000001
00000100
00000100
00000010
00000000
,
00000100
00000010
00001000
00000100
00000010
00000001
00001000
00000010
,
00001000
00000000
00000100
00000000
00000010
00000000
00000001
00000000
00000100
00000000
00000010
00000000
00001000
00000000
00000100
00010000
,
00000100
00010000
00001000
00100000
00010000
01000000
00100000
10000000
,
01000000
00100000
00010000
01000000
00100000
00000000
00000000
00000000
,
10010000
10000000
01000000
10000000
00100000
01000000
00010000
00100000
,
00001000
00000000
00010000
00000000
00000100
00000000
00001000
00000000
00000010
00000000
00000100
00000000
00000001
00001000
00000001
00001000
,
00000010
00000100
00000001
00000010
00000100
00001000
00000010
00000100
,
00001000
00010000
00100000
10000000
01000000
00100000
00010000
01000000
,
00100000
00000000
01000000
00000000
00010000
00000000
00100000
00000000
01000000
00000000
10000000
00000000
00100000
01000000
00100000
01000000
,
00010000
00100000
00001000
00010000
00000100
00001000
00000010
00000100
,
00001000
00000100
00000010
00001000
00000100
00000010
00000001
00001000
,
00000010
00000000
00000100
00000000
00000001
00001000
00000001
00001000
00000001
00000000
00001000
00000000
00000010
00000000
00000000
00000000
,
00000102
00000000
00000000
00001003
;

//---------------dance-single - ----------------
#NOTEDATA:;
#CHARTNAME:;
#STEPSTYPE:dance-single;
#DESCRIPTION:;
#CHARTSTYLE:;
#DIFFICULTY:Medium;
#METER:6;
#RADARVALUES:0.394828,0.474899,0.264005,0.486759,0.000000,335.000000,303.000000,32.000000,59.000000,0.000000,0.000000,0.000000,0.000000,0.000000,0.394828,0.474899,0.264005,0.486759,0.000000,335.000000,303.000000,32.000000,59.000000,0.000000,0.000000,0.000000,0.000000,0.000000;
#CREDIT:Ben Speirs;
#NOTES:
0000
0000
0000
0000
,
0000
0000
0000
0000
,
0000
0000
0000
0000
,
0000
0000
0000
0000
,
0000
0000
0000
0000
,
0000
0000
0000
0000
,
0000
0000
0000
0000
,
0000
0000
0000
0000
,
0002
0103
0010
2000
,
3100
1000
0001
0000
,
2000
3010
1000
0002
,
0103
0010
1000
0000
,
0200
1300
0001
0020
,
0031
1000
0010
0000
,
0200
0310
0100
0020
,
1030
0001
1000
0000
,
0101
1001
1010
0001
,
1100
0110
1001
0000
,
1100
0110
1001
0100
,
0110
1001
0101
0000
,
0001
0100
0001
0100
0001
0000
0000
0000
,
1000
0100
1000
0100
1000
0000
0000
0000
,
0001
1000
0001
1000
0001
1000
0001
1000
,
0010
0000
0000
0000
,
1000
0100
2000
0000
3002
0000
0203
0000
,
0320
0000
0130
0001
2000
0000
3002
0000
,
0103
0001
0200
0000
0302
0000
2003
0000
,
3200
0000
1300
0010
2000
0000
3002
0000
,
1003
0100
0020
0000
0032
0000
2003
0000
,
3020
0000
0130
0001
2000
0000
3020
0000
,
1030
0001
0200
0000
0302
0000
1003
0100
,
0020
0032
1003
0000
,
0001
0100
0010
0100
0010
0000
1000
0000
,
0001
0010
1001
0000
,
1000
0100
0010
0100
0010
0000
0001
0000
,
1000
0010
1001
0000
,
1000
0010
0100
0010
0100
0000
0010
0000
,
1000
0100
1100
0000
,
0001
0010
0100
0010
0100
0000
0010
0000
,
0001
0100
1001
0000
,
0002
0003
0200
0300
,
0020
0030
2000
3000
,
0002
0000
0023
0000
0230
0000
1300
0001
,
1000
0000
0000
0000
,
0001
0100
0001
0100
0001
0100
0020
0000
,
0030
0020
0030
0020
,
1030
0100
1000
0100
1000
0100
0020
0000
,
0030
0020
0030
0020
,
0031
0100
0001
0100
0001
0100
0020
0000
,
0030
0020
0030
0020
,
1030
0100
1000
0100
1000
0100
0020
0000
,
0030
0020
0030
0000
,
0011
0110
1100
0000
,
0000
1001
0101
0000
,
0001
1000
0001
1000
0001
0000
0100
0000
,
0000
1010
0011
0000
,
1100
0110
1001
0000
,
0000
1001
0101
0000
,
0010
1000
0010
1000
0001
0000
0100
0000
,
0000
0101
1100
0000
,
0001
1000
0001
1000
0001
1000
0010
0100
,
0010
0100
0010
0100
0010
0000
0000
0000
,
1000
0010
1000
0010
1000
0010
0100
0001
,
0100
0001
0100
0001
1000
0000
0000
0000
,
0001
0010
0001
0010
0001
0010
0100
1000
,
0100
1000
0100
1000
0001
0000
0000
0000
,
1000
0001
1000
0001
1000
0001
0100
0010
,
0100
0010
0100
0010
0100
0000
0000
0000
,
0102
0000
2000
0003
3020
0000
0130
0000
,
0001
2000
3200
0310
,
0001
1000
0001
1000
0001
1000
0010
0100
,
0010
0100
0002
0000
1003
0000
0010
0000
,
2000
3200
0320
0031
,
1000
0002
0103
0001
,
1000
0010
1000
0010
1000
0010
0100
0001
,
0100
0001
1000
0100
0010
0000
0000
0000
,
2001
0000
0000
3100
;

//---------------dance-single - ----------------
#NOTEDATA:;
#CHARTNAME:;
#STEPSTYPE:dance-single;
#DESCRIPTION:;
#CHARTSTYLE:;
#DIFFICULTY:Easy;
#METER:4;
#RADARVALUES:0.234540,0.284939,0.041251,0.123752,0.000000,199.000000,194.000000,5.000000,15.000000,0.000000,0.000000,0.000000,0.000000,0.000000,0.234540,0.284939,0.041251,0.123752,0.000000,199.000000,194.000000,5.000000,15.000000,0.000000,0.000000,0.000000,0.000000,0.000000;
#CREDIT:Ben Speirs;
#NOTES:
// measure 0
0000
0000
0000
0000
,  // measure 1
0000
0000
0000
0000
,  // measure 2
0000
0000
0000
0000
,  // measure 3
0000
0000
0000
0000
,  // measure 4
0000
0000
0000
0000
,  // measure 5
0000
0000
0000
0000
,  // measure 6
0000
0000
0000
0000
,  // measure 7
0000
0000
0000
0000
,  // measure 8
1000
0000
0010
0000
,  // measure 9
0100
0001
1000
0000
,  // measure 10
0001
0000
0010
0000
,  // measure 11
0001
1000
0010
0000
,  // measure 12
1000
0000
0100
0000
,  // measure 13
1000
0100
0010
0000
,  // measure 14
0001
0000
1000
0000
,  // measure 15
0010
1000
0100
0000
,  // measure 16
2000
3000
2000
3000
,  // measure 17
0002
0003
0002
0003
,  // measure 18
0200
0300
0200
0300
,  // measure 19
0010
1000
0001
0000
,  // measure 20
1000
1000
0100
0000
,  // measure 21
0100
0100
0010
0000
,  // measure 22
0010
0010
0001
0000
,  // measure 23
1001
0000
0000
0000
,  // measure 24
0001
0100
0100
0001
,  // measure 25
1000
0001
1000
0000
,  // measure 26
1000
1000
0100
1000
,  // measure 27
0001
1000
0001
0000
,  // measure 28
0001
0001
0010
0001
,  // measure 29
1000
0001
1000
0000
,  // measure 30
1000
1000
0010
1000
,  // measure 31
0001
1000
0001
0000
,  // measure 32
2000
3000
0200
0300
,  // measure 33
0010
0001
0010
0010
,  // measure 34
0002
0003
0200
0300
,  // measure 35
0010
1000
0010
0010
,  // measure 36
2000
3000
0200
0300
,  // measure 37
1000
0001
1000
1000
,  // measure 38
0002
0003
0200
0300
,  // measure 39
0001
0100
0001
0001
,  // measure 40
1000
0000
1000
0000
,  // measure 41
0100
0000
0100
0000
,  // measure 42
0010
0000
0010
0001
,  // measure 43
1000
0000
0000
0000
,  // measure 44
0001
0100
0001
0100
,  // measure 45
0000
0100
0001
0000
,  // measure 46
1000
0100
1000
0100
,  // measure 47
0000
0100
1000
0000
,  // measure 48
1000
0001
1000
0001
,  // measure 49
0000
0001
1000
0000
,  // measure 50
1000
0010
1000
0010
,  // measure 51
0000
0010
1000
0000
,  // measure 52
0001
0001
0001
0000
,  // measure 53
0000
1000
1000
0000
,  // measure 54
0010
0000
0010
0100
,  // measure 55
0000
0001
1000
0000
,  // measure 56
0001
0001
0001
0000
,  // measure 57
0000
1000
1000
0000
,  // measure 58
0001
0010
0001
0010
,  // measure 59
0000
0001
1000
0000
,  // measure 60
1001
0000
1000
0100
,  // measure 61
1000
0001
1000
0000
,  // measure 62
0001
0000
1000
0010
,  // measure 63
0100
0100
0010
0000
,  // measure 64
0100
0100
0001
0000
,  // measure 65
1000
1000
0001
0000
,  // measure 66
0001
0010
0001
0100
,  // measure 67
0001
1000
0001
0000
,  // measure 68
1001
0000
1000
0010
,  // measure 69
0100
0010
1000
0000
,  // measure 70
0001
0000
0100
0000
,  // measure 71
0001
1000
0100
0000
,  // measure 72
1001
0000
0001
0010
,  // measure 73
0001
0100
0001
0000
,  // measure 74
0100
0000
0010
0010
,  // measure 75
1000
0001
0100
0000
,  // measure 76
2001
0000
0000
3001
;

//---------------dance-single - ----------------
#NOTEDATA:;
#CHARTNAME:;
#STEPSTYPE:dance-single;
#DESCRIPTION:;
#CHARTSTYLE:;
#DIFFICULTY:Beginner;
#METER:2;
#RADARVALUES:0.140252,0.221619,0.041251,0.000000,0.000000,119.000000,114.000000,5.000000,0.000000,0.000000,0.000000,0.000000,0.000000,0.000000,0.140252,0.221619,0.041251,0.000000,0.000000,119.000000,114.000000,5.000000,0.000000,0.000000,0.000000,0.000000,0.000000,0.000000;
#CREDIT:Ben Speirs;
#NOTES:
// measure 0
0000
0000
0000
0000
,  // measure 1
0000
0000
0000
0000
,  // measure 2
0000
0000
0000
0000
,  // measure 3
0000
0000
0000
0000
,  // measure 4
0000
0000
0000
0000
,  // measure 5
0000
0000
0000
0000
,  // measure 6
0000
0000
0000
0000
,  // measure 7
0000
0000
0000
0000
,  // measure 8
0001
0000
0000
0000
,  // measure 9
1000
0000
0000
0000
,  // measure 10
0010
0000
0010
0000
,  // measure 11
0010
0000
0000
0000
,  // measure 12
1000
0000
0000
0000
,  // measure 13
0001
0000
0000
0000
,  // measure 14
0100
0000
0100
0000
,  // measure 15
0100
0000
0000
0000
,  // measure 16
0001
0000
0000
0000
,  // measure 17
1000
0000
0000
0000
,  // measure 18
0001
0000
0001
0000
,  // measure 19
0001
0000
0000
0000
,  // measure 20
1000
1000
0000
0000
,  // measure 21
0001
0001
0000
0000
,  // measure 22
0100
0000
0100
0000
,  // measure 23
0100
0000
0000
0000
,  // measure 24
1001
0000
0000
0000
,  // measure 25
0001
0000
0001
0000
,  // measure 26
0010
0000
0000
0000
,  // measure 27
0010
0000
0010
0000
,  // measure 28
0100
0000
0000
0000
,  // measure 29
0100
0000
0100
0000
,  // measure 30
1000
0000
0000
0000
,  // measure 31
1000
0000
0000
0000
,  // measure 32
1001
0000
0000
0000
,  // measure 33
1000
0000
1000
0000
,  // measure 34
0010
0000
0000
0000
,  // measure 35
0010
0000
0010
0000
,  // measure 36
0100
0000
0000
0000
,  // measure 37
0100
0000
0100
0000
,  // measure 38
0001
0000
0000
0000
,  // measure 39
0001
0000
0000
0000
,  // measure 40
1001
0000
0000
0000
,  // measure 41
0000
0000
0000
0000
,  // measure 42
0010
0010
0010
0010
,  // measure 43
0010
0000
0000
0000
,  // measure 44
1001
0000
0000
0000
,  // measure 45
0001
0001
0001
0000
,  // measure 46
0001
0000
0000
0000
,  // measure 47
1000
0000
1000
0000
,  // measure 48
0100
0000
0000
0000
,  // measure 49
0100
0100
0100
0000
,  // measure 50
0100
0000
0000
0000
,  // measure 51
1000
0000
1000
0000
,  // measure 52
0010
0000
0000
0000
,  // measure 53
0100
0000
0000
0000
,  // measure 54
0001
0001
0001
0001
,  // measure 55
0001
0000
0001
0000
,  // measure 56
0001
0000
0000
0000
,  // measure 57
0100
0000
0000
0000
,  // measure 58
0010
0010
0010
0010
,  // measure 59
0010
0000
0000
0000
,  // measure 60
1001
0000
0000
1000
,  // measure 61
0000
0000
0000
0000
,  // measure 62
0100
0100
0100
0000
,  // measure 63
0100
0100
0100
0000
,  // measure 64
0100
0000
0000
1000
,  // measure 65
0000
0000
0000
0000
,  // measure 66
0001
0001
0001
0000
,  // measure 67
0001
0001
0001
0000
,  // measure 68
0100
0000
0100
0000
,  // measure 69
0100
0000
0000
0000
,  // measure 70
0010
0010
0000
0010
,  // measure 71
0000
0010
0010
0000
,  // measure 72
1000
1000
1000
0000
,  // measure 73
0000
0000
1000
0000
,  // measure 74
0001
0001
0000
0001
,  // measure 75
0000
0001
0001
0000
,  // measure 76
0100
0000
0000
0100
;