#TITLE:Domino;
#SUBTITLE:;
#ARTIST:Jessie J;
#TITLETRANSLIT:;
#SUBTITLETRANSLIT:;
#ARTISTTRANSLIT:;
#CREDIT:;
#BANNER:Domino-bn.png;
#BACKGROUND:Domino-bg.png;
#LYRICSPATH:;
#CDTITLE:;
#MUSIC:Domino.mp3;
#OFFSET:-0.080;
#SAMPLESTART:52.953;
#SAMPLELENGTH:18.600;
#SELECTABLE:YES;
#BPMS:0.000=127.040;
#STOPS:;
#BGCHANGES:;

//---------------dance-single - ----------------
#NOTES:
     dance-single:
     :
     Beginner:
     1:
     0.108,0.128,0.050,0.000,0.000: // measure 1
0000
0000
0000
0000
,  // measure 2
0000
0000
0000
0000
,  // measure 3
0000
0000
0000
0000
,  // measure 4
0000
0000
0000
0000
,  // measure 5
0001
0000
0001
0000
,  // measure 6
0001
0000
0000
0000
,  // measure 7
1000
0000
1000
0000
,  // measure 8
1000
0000
0000
0000
,  // measure 9
0010
0000
0010
0000
,  // measure 10
0010
0000
0000
0000
,  // measure 11
0100
0000
0100
0000
,  // measure 12
0100
0000
0000
0000
,  // measure 13
0001
0000
0000
0000
,  // measure 14
1000
0000
0000
0000
,  // measure 15
0010
0000
0000
0000
,  // measure 16
1000
0000
0000
0000
,  // measure 17
0100
0000
0100
0000
,  // measure 18
0100
0000
0000
0000
,  // measure 19
1000
0000
1000
0000
,  // measure 20
1000
0000
0000
0000
,  // measure 21
1001
0000
0000
0000
,  // measure 22
0010
0010
0000
0000
,  // measure 23
0010
0010
0000
0000
,  // measure 24
0010
0000
0000
0000
,  // measure 25
0110
0000
0000
0000
,  // measure 26
1000
1000
0000
0000
,  // measure 27
1000
1000
0000
0000
,  // measure 28
1000
0000
0000
0000
,  // measure 29
1001
0000
0000
0000
,  // measure 30
0100
0100
0100
0000
,  // measure 31
0000
0000
0000
0000
,  // measure 32
1000
0000
1000
0000
,  // measure 33
1000
0000
0000
0000
,  // measure 34
0010
0010
0010
0000
,  // measure 35
0000
0000
0000
0000
,  // measure 36
1000
0000
1000
0000
,  // measure 37
1001
0000
0000
0000
,  // measure 38
0001
0001
0001
0000
,  // measure 39
0000
0000
0000
0000
,  // measure 40
0010
0000
0010
0000
,  // measure 41
0010
0000
0000
0000
,  // measure 42
0001
0001
0001
0000
,  // measure 43
0000
0000
0000
0000
,  // measure 44
0100
0000
0100
0000
,  // measure 45
0110
0000
0000
0000
,  // measure 46
1000
1000
1000
0000
,  // measure 47
0000
0000
0000
0000
,  // measure 48
0010
0010
0010
0000
,  // measure 49
0000
0000
0000
0000
,  // measure 50
0100
0100
0100
0000
,  // measure 51
0000
0000
0000
0000
,  // measure 52
0001
0001
0001
0000
;

//---------------dance-single - ----------------
#NOTES:
     dance-single:
     :
     Medium:
     7:
     0.348,0.335,0.178,0.139,0.000:
0000
0000
0000
0000
,
0000
0000
0000
0000
,
0000
0000
0000
0000
,
0000
0010
0001
1001
,
0210
0310
1000
0001
,
0010
0100
1000
0010
,
2010
3100
0010
0001
,
1000
0000
0001
0000
0100
0010
0100
0000
,
0210
0310
1000
0001
,
0010
0100
1000
0010
,
0201
0301
0010
0001
,
1000
0100
1000
0010
,
0100
0010
0100
0000
0001
0000
1100
0000
,
0001
0000
0101
0000
1000
0010
0100
0000
,
0001
1000
0001
0000
0010
0000
1100
0000
,
0010
0000
0110
0000
1000
0010
0100
0000
,
0001
1000
0001
0000
1000
0000
0100
0000
,
0010
0001
0100
0010
,
0210
0310
0100
0001
,
1000
0000
0010
0000
0100
0001
0000
0001
,
0010
0000
0100
0000
1000
0100
1000
0100
,
1000
0000
1000
0000
0001
0100
0001
0100
,
0001
0000
0001
0000
0100
0010
0100
0010
,
0100
0000
0010
0000
1000
0001
0000
0001
,
1000
0000
0010
0000
1000
0100
1000
0100
,
1000
0000
1000
0000
0010
0100
0010
0100
,
0010
0000
0010
0000
0100
0001
0100
0001
,
0100
0000
0001
0000
0010
0100
0000
0100
,
1000
2001
0000
3010
,
0100
0001
1000
1000
,
0000
1002
0000
0013
,
0001
0000
0100
0000
0010
1000
0100
0000
,
0000
0120
0000
0130
,
1000
0001
0100
0010
,
0000
2010
0000
3010
,
1000
0000
0001
0000
0010
0001
0100
0000
,
0000
0000
0201
0000
0000
0310
0000
0100
,
0000
0001
0000
1000
0100
0000
1000
0000
,
0000
0000
2010
0000
0000
3100
0000
1000
,
0000
0010
0000
0100
0010
0000
1000
0000
,
0000
0000
0012
0000
0000
0103
0000
0010
,
0000
1000
0000
0010
0100
0000
0001
0000
,
0000
0000
2100
0000
0000
3010
0000
1000
,
0000
0001
0000
0010
0100
0010
0100
0000
,
1000
0100
0010
0001
,
0100
0000
0010
0000
1000
0001
0100
0000
,
0010
1000
0001
0010
,
0100
0000
1000
0000
0010
1000
0001
0000
,
0100
0010
1000
0100
,
0010
0000
0001
0000
1000
0001
0100
0000
,
0010
1000
0001
0010
,
0100
0000
1000
0010
0100
0010
2000
0000
,
3001
0000
0000
0000
;

//---------------dance-single - ----------------
#NOTES:
     dance-single:
     :
     Hard:
     11:
     0.513,0.515,0.317,0.159,0.020:
0000
0000
0000
0000
,
0000
0000
0000
0000
,
0000
0000
0000
0000
,
0000
0001
0100
0010
0100
0001
1000
0000
,
0002
0103
1000
0010
,
0100
0001
0010
1000
0010
0001
1000
0000
,
0010
0100
0010
0000
2000
0000
0000
0000
3001
0000
0000
0000
0010
0000
0000
0000
,
0001
0100
1000
0100
0010
1000
0100
0000
,
0020
0031
1000
0010
,
0100
0001
1000
0100
0010
0001
0100
0000
,
0010
1000
0010
0000
0200
0000
0000
0000
0310
0000
0000
0000
1000
0000
0000
0000
,
0001
0000
0010
0000
0001
0000
0100
0010
,
1000
0001
1000
1000
0100
0010
0001
0001
,
0100
0020
0000
1030
0000
0000
0100
0010
,
0001
0100
0010
0010
1000
0001
1000
1000
,
0100
0001
0100
0010
0000
0001
0100
1000
,
0100
0010
0100
0000
0002
0000
0000
0000
0013
0000
0000
0000
0100
0000
0000
0000
,
1000
0010
0001
0100
1000
0001
1000
0000
,
0100
0001
0100
0000
0020
0000
0000
0000
1030
0000
0000
0000
0001
0000
0000
0000
,
0100
0000
0120
0000
1030
0100
0000
1000
,
0001
0000
0100
0000
0010
1000
0100
0001
,
0100
1000
0010
0000
0100
0010
1000
0001
,
0010
1000
0010
0000
0001
1000
0100
0010
,
0001
0000
0201
0000
0310
0100
0000
0001
,
0010
0000
0100
0000
1000
0001
0010
1000
,
0010
0000
0001
0000
1000
0010
0001
0010
,
1000
0000
0001
0000
1000
0100
0001
0100
,
1000
0000
1002
0000
0103
0010
0000
1000
,
0100
0000
2001
0000
3010
1000
0100
1000
,
0010
0100
0001
0010
0100
0010
0001
0000
,
1000
0000
0102
0000
1003
0010
0100
0001
,
0010
0100
1000
0000
0110
0110
0110
0000
,
2001
0000
3010
1000
0001
0010
0100
0010
,
0001
1000
0010
0001
0010
1000
0100
0000
,
0210
0000
0310
0100
0001
0010
1000
0010
,
0001
1000
0100
0000
1001
1001
1001
0000
,
1100
0000
0110
0000
0001
0100
1000
0100
,
0010
1000
0100
0010
0001
1000
0010
0000
,
0101
0000
1100
0000
0010
0001
1000
0010
,
0100
0001
0010
1000
0010
0001
1000
0000
,
1010
0000
0101
0000
0100
0010
0100
0001
,
0010
1000
0010
0100
1000
0010
0100
0000
,
0010
1000
0100
1000
0001
0010
0100
1000
,
0001
0100
0010
0000
0101
1100
0101
0000
,
0010
1000
0100
0001
0100
1000
0010
0100
,
0001
0010
0100
1000
1100
0000
0101
0000
,
0010
1000
0001
0010
1000
0010
0001
1000
,
0010
0100
0001
0000
0101
1010
2001
0000
,
3010
1000
0100
0010
0001
0100
0010
0100
,
0001
1000
0001
0100
1100
0000
0101
0000
,
0010
0100
0001
0010
1000
0010
0001
1000
,
0100
0010
0001
0000
1001
0110
1002
0000
,
0103
0000
0000
0000
;

//---------------dance-single - ----------------
#NOTES:
     dance-single:
     :
     Easy:
     3:
     0.204,0.258,0.099,0.010,0.000:
0000
0000
0000
0000
,
0000
0000
0000
0000
,
0000
0000
0000
0000
,
0000
0010
0010
0010
,
0010
0000
0100
0000
,
0001
1000
0100
0010
,
0001
0000
1000
0000
,
0010
1000
0100
0010
,
0001
0000
0010
0000
,
0001
0100
0010
1000
,
0100
0000
1000
0000
,
0010
0100
0001
0100
,
0010
0000
1000
0000
,
0100
1000
0100
0000
,
1000
0000
0001
0000
,
0010
0001
0010
0000
,
1001
0000
0000
0000
,
0100
0100
0100
0100
,
0100
0000
1000
0000
,
0010
1000
0001
0000
,
0100
0000
0010
1000
,
0001
0000
0010
0001
,
1000
0000
0100
0010
,
0001
0000
0000
0000
,
0000
0000
0100
0010
,
1000
0000
0100
1000
,
0001
0000
0010
0001
,
0100
0000
0000
0000
,
0110
0000
0001
0000
,
0100
1000
0010
0000
,
1000
0000
0100
0000
,
0001
0010
0100
0000
,
0011
0000
0100
0000
,
1000
0001
0100
0000
,
0010
0000
1000
0000
,
0010
0100
0110
0110
,
0001
0000
1000
0000
,
0100
1000
0010
0000
,
0100
0000
0001
0000
,
0010
0100
1000
0000
,
1100
0000
0010
0000
,
1000
0001
0100
0000
,
0001
0000
0010
0000
,
0100
0010
0110
0110
,
0001
0000
1000
0000
,
0010
1000
0001
0100
,
0010
0000
0100
0000
,
0001
0010
0100
1000
,
0010
0000
1000
0000
,
0010
1000
0001
0100
,
0001
0000
1000
0000
,
0010
0100
0110
0210
,
0301
0000
0000
0000
;
