#VERSION:0.82;
#TITLE:Lone Digger;
#SUBTITLE:;
#ARTIST:Caravan Palace;
#TITLETRANSLIT:;
#SUBTITLETRANSLIT:;
#ARTISTTRANSLIT:;
#GENRE:Electro-Swing;
#ORIGIN:;
#CREDIT:;
#BANNER:Lone Digger.png;
#BACKGROUND:Lone Digger-bg.png;
#PREVIEWVID:;
#JACKET:jacket.png;
#CDIMAGE:;
#DISCIMAGE:;
#LYRICSPATH:;
#CDTITLE:;
#MUSIC:Lone Digger.ogg;
#OFFSET:-0.037000;
#SAMPLESTART:124.357147;
#SAMPLELENGTH:13.714000;
#SELECTABLE:YES;
#BPMS:0.000=124.000;
#STOPS:;
#DELAYS:;
#WARPS:;
#TIMESIGNATURES:0.000=4=4;
#TICKCOUNTS:0.000=4;
#COMBOS:0.000=1;
#SPEEDS:0.000=1.000=0.000=0;
#SCROLLS:0.000=1.000;
#FAKES:;
#LABELS:0.000=Song Start;
#BGCHANGES:8.000=Lone Digger v3.avi=1.000=0=0=1=====,
99999=-nosongbg-=1.000=0=0=0 // don't automatically add -songbackground-
;
#KEYSOUNDS:;
#ATTACKS:
;

//---------------dance-single - ----------------
#NOTEDATA:;
#CHARTNAME:;
#STEPSTYPE:dance-single;
#DESCRIPTION:;
#CHARTSTYLE:;
#DIFFICULTY:Hard;
#METER:8;
#RADARVALUES:0.495540,0.498981,0.151415,0.178945,0.134209,456.000000,22.000000,26.000000,0.000000,0.000000,0.000000,0.000000,0.000000,0.495540,0.498981,0.151415,0.178945,0.134209,456.000000,22.000000,26.000000,0.000000,0.000000,0.000000,0.000000,0.000000;
#CREDIT:Ben Speirs;
#NOTES:
0000
0000
0000
0000
,
0000
0000
0000
0000
,
0000
0000
0000
0000
,
0000
0000
2002
0000
,
0000
0000
3003
0000
0001
0001
0100
0000
,
0010
0000
0000
1000
0000
0000
0001
0000
0010
0000
0010
0000
0001
0000
0000
0000
,
1000
0000
0000
0100
0000
0000
1000
0000
0010
0000
0010
0000
0100
0000
0000
0000
,
0001
0000
0000
1000
0000
0000
0010
0000
0100
0000
0100
0000
0001
0000
1000
0000
,
0100
0000
0010
0000
0001
1000
0000
0001
0100
0000
0100
0000
0010
0000
0000
0000
,
1000
0010
0000
0100
0000
0000
0001
0000
1000
0000
1000
0000
0100
0000
0000
0000
,
1000
0100
0000
0010
0000
0000
0001
0000
0100
0000
0100
0000
0001
0000
0000
0000
,
0100
0010
0000
1000
0000
0000
0001
0000
0010
0000
0001
0000
1000
0000
0010
0000
,
0000
1000
0001
1000
0020
0000
0130
0000
,
0200
0301
0002
0013
,
0020
0000
0130
1000
0020
0000
0130
0000
,
0200
0000
0301
0000
0101
0010
1000
0000
,
1100
0010
0001
0000
2000
0000
3100
0000
,
0002
0013
2000
3010
,
0002
0103
0002
1003
,
2000
0000
3001
0000
1100
0010
0001
0000
,
0101
0010
1000
0000
0001
1000
0001
1000
,
0010
0100
0010
0100
0001
0010
0100
1000
,
0001
0100
0010
1000
0001
0010
0001
0100
,
0010
1000
0001
0000
1001
0001
0100
0000
,
1001
1000
0100
0000
1000
0001
0010
0100
,
1000
1000
0010
0100
0001
1000
0010
0100
,
0001
0001
0010
0001
1000
0100
1000
0010
,
0100
0100
0010
1000
0002
0000
0000
0000
,
1003
0000
0000
0000
1100
0100
0010
0001
,
0100
0000
0010
0000
1000
0100
1000
0000
0001
0000
0000
0000
0101
0000
0000
0000
,
0010
1000
1001
0000
0100
0100
1000
1000
,
0001
0100
0001
0000
1000
0100
1000
0000
0001
0000
0010
0000
0100
0000
1000
0000
,
0010
0000
0100
0000
0001
1000
0000
0001
1000
0000
1000
0000
0010
0000
0100
0000
,
0001
0000
0001
0000
0100
0010
0100
0000
0001
0000
0001
0000
1000
0000
0000
0000
,
1100
0100
1000
0001
0100
0100
0010
0010
,
1000
0100
1000
0000
0001
0000
0100
0000
0010
0000
0000
0000
1000
0000
0000
0000
,
0100
0000
0000
0000
0001
1000
0000
0000
0010
0000
0010
0000
0100
0000
0001
1000
,
0000
0001
0000
0000
1000
0000
0000
0000
0010
1000
0010
0000
1000
0000
0001
0100
,
0000
0001
0000
0000
1000
0000
0000
0000
0100
1000
0100
0000
1000
0000
0001
0010
,
0000
0001
0000
0000
1000
0000
0000
0000
0010
0000
1000
0000
0100
0000
0010
0000
,
0001
0000
1000
0000
0010
0100
0000
0001
1000
0000
1000
0000
0010
0000
0000
0000
,
1000
0100
0000
0000
1100
0000
0000
0000
0001
0000
0001
0000
0100
0000
0000
0000
,
0001
1000
0000
0000
1001
0000
0000
0000
1000
0000
1000
0000
0001
0000
0000
0000
,
0010
0001
0000
0000
0011
0000
0000
0000
1000
0000
0100
0000
0010
0000
0001
0000
,
0000
0100
0010
0100
0020
0000
1030
0000
,
1000
0100
1000
0100
0020
0000
0031
0000
,
0001
0100
0001
0100
0020
0000
1030
0000
,
1000
0001
1000
0001
0100
0001
1010
0000
,
1000
0100
0011
0000
1000
0001
1000
0001
,
0100
0010
1000
0100
0010
0001
0010
0001
,
0100
0100
0000
0001
1000
0001
1000
0010
,
0100
0100
0001
1000
0200
0000
0320
0000
,
0032
0000
0103
0000
1001
1000
0010
0100
,
0001
1000
0001
1000
0010
0100
0001
0010
,
0100
1000
0100
1000
0010
0100
0001
1000
,
0010
0100
0010
0100
0001
0100
1010
0000
,
1000
0100
0011
0000
1000
0100
0001
0100
,
0010
0001
1000
0001
1000
0010
0001
0010
,
0100
0001
1000
0001
1000
0100
0010
0001
,
0100
0010
1000
0001
0010
0010
0100
0100
,
1000
0100
0010
0002
0000
0000
0100
0000
,
2003
0000
0010
0001
,
3200
0000
0010
0010
,
0320
0000
0000
0000
0031
0000
1000
1000
,
0000
0000
0000
0000
1001
0100
1000
0010
,
0100
0000
0100
0000
0001
1000
0001
0000
0100
0000
0000
0000
1010
0000
1000
0000
,
0100
0010
0001
0000
1000
1000
0001
0001
,
0100
0001
0100
0000
0010
1000
0010
0000
1000
0000
0100
0000
0010
0000
0001
0000
,
0100
0000
0010
0000
1000
0001
0000
1000
0010
0000
0100
0000
0001
0000
1000
0000
,
0100
0000
0100
0000
0010
0000
0001
0100
0001
0000
1000
0000
0010
0000
0000
0000
,
1010
0000
0001
0000
0100
0000
0001
0000
1000
0100
1000
0000
0010
0000
0100
0000
,
0001
0001
1000
0010
0200
0000
1000
0000
,
0010
0001
0301
0000
;

//---------------dance-single - ----------------
#NOTEDATA:;
#CHARTNAME:;
#STEPSTYPE:dance-single;
#DESCRIPTION:;
#CHARTSTYLE:;
#DIFFICULTY:Challenge;
#METER:10;
#RADARVALUES:0.709881,0.773421,0.213358,0.178945,0.732986,665.000000,31.000000,26.000000,0.000000,0.000000,0.000000,0.000000,0.000000,0.709881,0.773421,0.213358,0.178945,0.732986,665.000000,31.000000,26.000000,0.000000,0.000000,0.000000,0.000000,0.000000;
#CREDIT:Ben Speirs;
#NOTES:
0000
0000
0000
0000
,
0000
0000
0000
0000
,
0000
0000
0000
0000
,
0000
0000
0000
0000
0000
0000
0000
0000
0000
0000
0000
0000
1000
0000
0100
1000
0000
0010
0100
0000
0001
1000
0000
0001
,
0010
0000
0100
1000
0000
0001
0000
0000
2100
0000
0000
0000
3001
0000
0000
0101
0000
0000
0100
0000
0000
0000
0000
0000
,
0010
1000
0000
0010
0000
0000
1000
0000
1100
0000
0100
0000
1000
0000
0000
0000
,
0001
0100
0000
0001
0000
0000
1000
0000
1010
0000
0010
0000
0100
0000
0000
0000
,
0001
0000
0000
1000
0000
0000
0000
0000
0000
0001
0000
0000
0000
0000
0000
0000
0000
0000
1000
0000
0000
0000
0000
0000
0010
0000
0000
0000
0100
0000
0001
0000
0000
0000
0000
0000
1000
0000
0000
0000
0000
0000
1100
0000
0000
0000
0000
0000
,
0001
0000
0000
0101
0000
0000
0100
0000
0010
0000
0000
1000
0001
0000
0000
0100
0000
0000
0101
0000
0000
0000
0000
0000
,
0010
1000
0010
1000
0100
0000
0000
0000
1000
0000
0100
0000
1100
0000
0000
0000
,
1000
0100
1000
0100
0010
0000
0000
0000
0001
0000
0100
0000
0101
0000
0000
0000
,
1000
0000
0000
0001
0000
0000
1000
0000
0000
0001
0000
0000
1000
0000
0000
0000
0000
0000
0000
0000
0000
0000
0000
0000
0001
0000
0000
0000
0100
0000
0010
0000
0000
0000
1000
0000
0001
0000
0000
0000
1000
0000
0100
0000
0000
0000
0010
0000
,
0000
0000
0001
0010
0000
0001
1000
0000
0010
0100
0000
0001
2000
0000
0000
0000
0000
0000
3100
0000
0000
1000
0000
0000
,
0010
0010
0100
0001
0000
1000
0001
1000
,
0010
0010
0100
0100
0001
0010
0100
1000
,
0001
0001
1000
1000
1010
0100
0002
0000
,
0103
0000
0000
0010
0000
1000
0100
0000
1000
0100
0000
1000
0200
0000
0000
0000
0000
0000
1300
0000
0000
0010
0000
0000
,
0100
0000
0001
0000
1000
0000
0001
0000
0000
0000
0100
0000
0100
0000
0000
0001
,
1000
0001
0000
1001
1000
0010
0100
0000
,
0001
0010
0100
0000
1000
0000
0001
0000
0101
0000
0100
0000
0020
0000
0000
0000
,
1030
0000
0000
0000
0000
0000
0100
0000
0000
0000
0010
0000
0001
0000
0000
0000
0010
0000
0001
0000
0000
0000
0010
0000
0001
0000
0000
0100
0000
0000
0010
0000
0000
0000
0000
0000
1000
0000
0000
0000
0000
0000
0001
0000
0000
0000
0000
0000
,
1000
0100
0010
0000
0001
0000
1000
0000
0010
0100
0001
0000
0100
0000
0010
0000
,
1000
0100
0010
0000
0001
0000
1000
0000
0010
0100
0001
0000
1000
0000
0100
0000
,
0010
0001
1000
0000
0010
0000
0100
0000
0101
0000
0100
0000
0020
0000
0000
0000
,
1030
0000
0000
0000
0000
0000
0001
0000
0000
0000
0100
0000
0010
0000
0000
0000
1000
0000
0001
0000
0000
0000
0100
0000
0010
0000
0000
1000
0000
0000
0001
0000
0000
0000
0000
0000
0010
0000
0000
0000
0000
0000
0001
0000
0000
0000
0000
0000
,
1000
0100
0010
0000
0001
0000
1000
0000
0010
0100
0001
0000
1000
0000
0010
0000
,
1000
0100
0010
0000
0001
0000
1000
0000
0001
0100
0010
0000
1000
0000
0001
0000
,
0010
0001
1000
0000
0010
0000
0100
0001
2000
0000
0000
0000
0000
0000
0000
0000
,
3100
0000
0000
0000
0001
1000
0001
1000
0010
0100
0001
0010
0100
1000
0001
0100
,
0010
0000
0100
0000
0001
0100
0010
1000
0001
0000
1000
0000
0100
1000
0000
0001
,
0100
0001
1000
0000
0010
0000
0100
0000
0101
0000
0101
0000
1000
0100
1000
0100
,
0010
0000
0000
0001
0000
0000
1000
0000
0000
0010
0000
0000
0100
0000
0000
0001
0000
0000
1000
0000
0000
0100
0000
0000
0010
0000
0000
0000
0001
0000
1000
0000
0000
0000
0000
0000
0010
0000
0000
0000
0000
0000
1010
0000
0000
0000
0000
0000
,
0001
0000
0000
0000
0000
0000
0101
0000
0000
0000
0000
0000
1000
0000
0000
0000
0100
0000
0000
0000
0000
0000
1000
0000
0001
0000
0000
0100
0000
0000
0010
0000
0000
0100
0000
0000
0001
0000
0000
0100
0000
0000
0010
0000
0000
1000
0000
0000
,
0100
0000
0000
0000
0000
0000
1000
0000
0000
0000
0000
0000
0001
0000
0000
0010
0000
0000
0001
0000
0010
0000
0100
0000
1000
0000
0000
0000
0000
0000
0001
0000
0000
0000
0000
0000
0100
0000
0000
0010
0000
0000
0100
0000
0000
0000
0000
0000
,
0001
1000
0001
1000
0100
1000
0001
0000
1000
0100
1000
0001
0010
0001
1000
0010
,
0100
0000
0000
0001
0000
0000
1000
0000
0000
0100
0000
0000
0010
0000
0000
0001
0000
0000
1000
0000
0000
0000
0000
0000
0001
0000
0000
0000
0010
0000
0001
0000
0000
0000
0100
0000
0010
0000
0000
0000
1000
0000
0001
0000
0000
0000
1000
0000
,
0100
0000
0010
0001
0000
1000
0000
0000
0012
0000
0000
0000
1003
0000
0100
0010
0000
0100
0010
0000
0000
0001
0000
0100
,
0000
0000
0001
0010
0000
0100
1000
0000
0000
1001
0000
0000
0001
0000
0010
0100
0000
0010
0100
0000
0000
1000
0000
0010
,
0000
0000
1000
0100
0000
0010
0001
0000
0000
1001
0000
0000
1000
0000
0010
0100
0000
0001
1000
0000
0000
0001
0000
0100
,
0000
0000
0001
0010
0000
0100
1000
0000
0000
0001
0000
0000
1000
0000
0010
0100
0000
0000
0001
0000
0000
0011
0000
0000
,
1000
0000
0000
1010
0000
0000
0001
0000
1000
0000
0000
0010
0100
0000
0001
0010
0000
0001
0010
0000
0000
0001
0000
0010
,
0100
0000
0100
1000
0000
1000
0010
0000
0000
0100
0000
0000
0010
0000
1000
0100
0000
1000
0100
0000
0000
1000
0000
0100
,
0010
0000
0010
0001
0000
0001
0100
0000
0000
0010
0000
0000
0100
0000
0001
1000
0000
0001
1000
0000
0000
0001
0000
0010
,
0100
0000
1000
0010
0000
0100
0001
0000
0000
1000
0000
0000
0001
0000
0100
0001
0000
1000
0100
0000
1000
0010
0000
0100
,
0000
0000
0001
0010
0000
0100
1000
0000
0010
0100
0000
0001
2000
0000
0000
0000
0000
0000
0000
0000
0000
0000
0000
0000
,
3200
0000
0302
0000
,
0023
0000
1030
0001
,
0100
0001
1000
0000
0010
1000
0100
0000
,
0010
0000
0000
0001
0000
1000
0100
0000
1000
0100
0000
1000
0200
0000
0000
0000
0000
0000
1300
0000
0000
0010
0000
0000
,
0100
0000
0001
0000
0200
0000
0301
0010
,
0200
0000
1300
0000
1002
0000
0103
0010
,
2000
3001
2200
0000
,
3300
0000
0000
0000
0000
0000
0000
0000
0001
0000
0100
0001
0100
0000
0001
1000
,
0001
0000
1000
0100
1000
0000
0001
0100
0001
0000
1000
0010
1000
0000
0001
0010
,
0001
0000
1000
0010
1000
0000
0001
0000
0101
0000
0100
0010
0100
0000
0010
1000
,
0010
0000
1000
0100
1000
0000
0001
1000
0001
0000
0100
0000
0010
0000
0000
0000
,
1000
0000
0000
0000
0000
0000
0001
0000
0000
0000
0100
0000
0010
0000
0000
0000
0100
0000
0010
0000
0000
0000
0100
0000
0010
0000
0000
0000
0000
0000
1000
0000
0000
0100
0000
0000
1000
0000
0000
0000
0000
0000
0001
0000
0000
0100
0000
0000
,
0001
0000
1000
0001
1000
0000
0001
0010
0001
0000
1000
0010
1000
0000
0001
0100
,
0001
0000
0100
0010
0100
0000
0001
0000
0101
0000
0100
0010
0100
0000
0010
1000
,
0010
0000
1000
0100
1000
0000
0001
0100
0001
0000
1000
0100
0010
0001
0100
0010
,
1000
0001
0010
0100
1000
0001
0100
0020
0000
0000
0000
0000
0000
0000
0000
0000
,
2030
0000
3002
0000
,
0023
0000
0032
0000
,
2003
0000
3020
0000
,
0030
0000
0000
0000
1000
0001
1000
0001
0100
0010
1000
0100
0010
0001
1000
0010
,
0100
0000
0010
0000
1000
0010
0100
0001
1000
0000
0001
0000
0010
0001
0000
1000
,
0010
1000
0001
0000
0100
0000
0010
0000
1010
0000
1010
0000
0001
0010
0001
0010
,
0100
0000
0000
1000
0000
0000
0001
0000
0000
0100
0000
0000
0010
0000
0000
1000
0000
0000
0001
0000
0000
0010
0000
0000
0100
0000
0000
0000
1000
0000
0001
0000
0000
0000
0000
0000
0100
0000
0000
0000
0000
0000
0101
0000
0000
0000
0000
0000
,
1000
0000
0000
0000
0000
0000
1010
0000
0000
0000
0000
0000
0001
0000
0000
0000
0010
0000
0000
0000
0000
0000
0001
0000
1000
0000
0000
0010
0000
0000
0100
0000
0000
0010
0000
0000
1000
0000
0000
0010
0000
0000
0100
0000
0000
0001
0000
0000
,
0010
0000
0000
0000
0000
0000
0001
0000
0000
0000
0000
0000
1000
0000
0000
0100
0000
0000
1000
0000
0100
0000
0010
0000
0001
0000
0000
0000
0000
0000
1000
0000
0000
0000
0000
0000
0010
0000
0000
0100
0000
0000
0010
0000
0000
0000
0000
0000
,
1000
0001
1000
0001
0010
0001
1000
0000
0001
0010
0001
1000
0100
1000
0001
0100
,
0010
1000
0001
0010
0100
1000
0001
0000
0100
0000
0010
0000
1000
0000
0100
0000
,
0010
0001
1000
0010
1001
0000
0000
0000
;

//---------------dance-double - ----------------
#NOTEDATA:;
#CHARTNAME:;
#STEPSTYPE:dance-double;
#DESCRIPTION:;
#CHARTSTYLE:;
#DIFFICULTY:Challenge;
#METER:10;
#RADARVALUES:0.655804,0.723523,0.137650,0.199593,0.598778,618.000000,20.000000,29.000000,0.000000,0.000000,0.000000,0.000000,0.000000,0.655804,0.723523,0.137650,0.199593,0.598778,618.000000,20.000000,29.000000,0.000000,0.000000,0.000000,0.000000,0.000000;
#CREDIT:Ben Speirs;
#NOTES:
// measure 0
00000000
00000000
00000000
00000000
,  // measure 1
00000000
00000000
00000000
00000000
,  // measure 2
00000000
00000000
00000000
00000000
,  // measure 3
00000000
00000000
00000000
00000000
00000000
00000000
00000000
00000000
00000000
00000000
00000000
00000000
00001000
00000000
00000100
00001000
00000000
00000010
00000100
00000000
00000010
00001000
00000000
00000001
,  // measure 4
00000010
00000000
00000100
00001000
00000000
00000001
00000000
00000000
00002100
00000000
00000000
00000000
00003010
00000000
00000000
00000010
00000000
00000000
00000100
00000000
00000000
00000001
00000000
00000000
,  // measure 5
00001000
00000100
00001000
00000000
00000001
00000000
00000100
00000000
00001000
00000000
00001000
00000000
00000100
00000000
00001000
00000000
,  // measure 6
00010000
00001000
00010000
00000000
00000100
00000000
00010000
00000000
00001000
00000000
00001000
00000000
00100000
00000000
00001000
00000000
,  // measure 7
01000000
00000000
00000000
00010000
00000000
00000000
01000000
00000000
00000000
00000000
00000000
00000000
00010000
00000000
00000000
00000000
00000000
00000000
10000000
00000000
00000000
00000000
00000000
00000000
00100000
00000000
00000000
00000000
10000000
00000000
00010000
00000000
00000000
00000000
00000000
00000000
00100000
00000000
00000000
00000000
00000000
00000000
00110000
00000000
00000000
00000000
00000000
00000000
,  // measure 8
10000000
00000000
00000000
10100000
00000000
00000000
00010000
00000000
01000000
00000000
00000000
00010000
10000000
00000000
00000000
11000000
00000000
00000000
01000000
00000000
00000000
00000000
00000000
00000000
,  // measure 9
10000000
00010000
10000000
00010000
10000000
00000000
00000000
00000000
00010000
00000000
01010000
00000000
01000000
00000000
00000000
00000000
,  // measure 10
00010000
10000000
00010000
10000000
00010000
00000000
00000000
00000000
00100000
00000000
00110000
00000000
00001000
00000000
00000000
00000000
,  // measure 11
00100000
00000000
00000000
00001000
00000000
00000000
00100000
00000000
00000000
00001000
00000000
00000000
00100000
00000000
00000000
00000000
00000000
00000000
00000000
00000000
00000000
00000000
00000000
00000000
00001000
00000000
00000000
00000000
00100000
00000000
00010000
00000000
00000000
00000000
00100000
00000000
00001000
00000000
00000000
00000000
00010000
00000000
00001000
00000000
00000000
00000000
00000100
00000000
,  // measure 12
00000000
00000000
00000010
00001000
00000000
00000001
00000010
00000000
00000001
00001000
00000000
00000010
00000200
00000000
00000000
00000000
00000000
00000000
00000301
00000000
00000000
00001000
00000000
00000000
,  // measure 13
00000200
00000000
00000310
00000000
00000001
00000000
00001000
00000100
,  // measure 14
00010000
00010000
00000100
00000100
00000020
00000000
00000031
00000000
,  // measure 15
00000100
00000001
00001000
00000000
00001100
00000100
00010000
00000000
,  // measure 16
00011000
00001000
00100000
00000000
20010000
00000000
30100000
00000000
,  // measure 17
10000000
01000000
00100000
00010000
00000000
01000000
00100000
00000000
,  // measure 18
10000000
00010000
00000000
10010000
10000000
01000000
00100000
00000000
,  // measure 19
00010000
10000000
00100000
00000000
01000000
00010000
00200000
00000000
,  // measure 20
00310000
00000000
10000000
00000000
00200000
00000000
00000000
00000000
10300000
00000000
01000000
10000000
01000000
00000000
10000000
00000000
,  // measure 21
00100000
00000000
01000000
00000000
00010000
00000000
00100000
00000000
00001000
00000000
00010000
00001000
00010000
00000000
00001000
00000000
,  // measure 22
00100000
00000000
00010000
00000000
01000000
00000000
00100000
00000000
10000000
00000000
00100000
01000000
00100000
00000000
01000000
00000000
,  // measure 23
00010000
00100000
00001000
00010000
00011000
00001000
00000200
00000000
,  // measure 24
00000310
00000000
00001000
00000000
00000001
00001000
00000001
00001000
00000010
00000000
00000100
00000000
00000001
00000000
00000010
00000000
,  // measure 25
00000100
00000100
00001000
00001000
00000010
00000100
00000001
00000010
,  // measure 26
00000100
00000000
00000010
00000000
00000001
00000000
00001000
00000000
00000010
00000100
00000001
00000000
00000100
00000000
00000010
00000000
,  // measure 27
00001000
00000100
00000010
00000000
00000001
00000000
00001000
00000000
00000200
00000000
00000000
00000000
00000000
00000000
00000000
00000000
,  // measure 28
00000300
00000000
00000000
00000000
00010000
00001000
00010000
00001000
00100000
00001000
00100000
00010000
10000000
00100000
01000000
00010000
,  // measure 29
10000000
00000000
01000000
00000000
10000000
00100000
01000000
00010000
10000000
00000000
00000000
00000000
00010000
01000000
00000000
00010000
,  // measure 30
10000000
00010000
10000000
00000000
00100000
01000000
00010000
00000000
10000000
00000000
11000000
00000000
00010000
00000000
01010000
00000000
,  // measure 31
10000000
00000000
00000000
01000000
00000000
00000000
00100000
00000000
00000000
00010000
00000000
00000000
10000000
00000000
00000000
00100000
00000000
00000000
01000000
00000000
00000000
00010000
00000000
00000000
10000000
00000000
00000000
00000000
01000000
00000000
10000000
00000000
00000000
00000000
00000000
00000000
00100000
00000000
00000000
00000000
00000000
00000000
00010000
00000000
00000000
00000000
00000000
00000000
,  // measure 32
00001000
00000000
00000000
00000000
00000000
00000000
00000010
00000000
00000000
00000000
00000000
00000000
00000001
00000000
00000000
00000000
00001000
00000000
00000000
00000000
00000000
00000000
00000010
00000000
00000100
00000000
00000000
00000001
00000000
00000000
00000100
00000000
00000000
00000010
00000000
00000000
00001000
00000000
00000000
00000100
00000000
00000000
00000010
00000000
00000000
00000001
00000000
00000000
,  // measure 33
00001000
00000000
00000000
00000000
00000000
00000000
00000001
00000000
00000000
00000000
00000000
00000000
00001000
00000000
00000000
00000100
00000000
00000000
00001000
00000000
00000100
00000000
00000010
00000000
00000001
00000000
00000000
00000000
00000000
00000000
00000100
00000000
00000000
00000000
00000000
00000000
00000010
00000000
00000000
00001000
00000000
00000000
00000001
00000000
00000000
00000000
00000000
00000000
,  // measure 34
00000010
00000001
00001000
00000000
00000100
00001000
00000001
00000000
00000100
00000010
00001000
00000100
00010000
00001000
00100000
00001000
,  // measure 35
01000000
00010000
01000000
00100000
10000000
01000000
00100000
00010000
20000000
00000000
00000000
00000000
01000000
00000000
00000000
00000000
,  // measure 36
00010000
00000000
00000000
00000000
00000000
00000000
30100000
00000000
01000000
00000000
00000000
00000000
00010000
00000000
10000000
00010000
00000000
10000000
00010000
00000000
00000000
01000000
00000000
00100000
,  // measure 37
00000000
00000000
10000000
01000000
00000000
00100000
00010000
00000000
00000000
10000000
00000000
00000000
00100000
00000000
01000000
00010000
00000000
00100000
00001000
00000000
00000000
00100000
00000000
00010000
,  // measure 38
00000000
00000000
01000000
00100000
00000000
10000000
01000000
00000000
00000000
00100000
00000000
00000000
00010000
00000000
01000000
00001000
00000000
00010000
00001000
00000000
00000000
00010000
00000000
00000100
,  // measure 39
00000000
00000000
00010000
00000100
00000000
00000010
00000001
00000000
00000000
00001000
00000000
00000000
00000010
00000000
00000100
00000001
00000000
00000000
00001000
00000000
00000000
00001100
00000000
00000000
,  // measure 40
00000001
00000000
00000000
00000101
00000000
00000000
00001000
00000000
00000010
00000000
00000000
00000100
00000001
00000000
00001000
00000100
00000000
00001000
00000001
00000000
00000000
00000100
00000000
00000010
,  // measure 41
00000000
00000000
00000010
00001000
00000000
00000100
00000010
00000000
00000000
00000001
00000000
00000000
00001000
00000000
00000100
00001000
00000000
00000100
00010000
00000000
00000000
00001000
00000000
00010000
,  // measure 42
00000000
00000000
00000100
00010000
00000000
00001000
00100000
00000000
00000000
00001000
00000000
00000000
00010000
00000000
00001000
00000100
00000000
00000010
00001000
00000000
00000000
00000100
00000000
00000010
,  // measure 43
00000000
00000000
00000001
00001000
00000000
00000010
00000100
00000000
00000000
00000001
00000000
00000000
00001000
00000000
00000100
00000010
00000000
00000001
00000100
00000000
00000010
00001000
00000000
00000100
,  // measure 44
00000000
00000000
00001000
00000001
00000000
00001000
00000100
00000000
00001000
00000001
00000000
00001000
00000020
00000000
00000000
00000000
00000000
00000000
00000000
00000000
00000000
00000000
00000000
00000000
,  // measure 45
00000230
00000000
00200300
00000000
,  // measure 46
20300000
00000000
32000000
00000000
,  // measure 47
03000020
00000000
00000000
00000000
00000031
00000100
00000020
00000000
,  // measure 48
00001030
00000010
00000200
00000000
00000301
00000000
00000101
00000000
,  // measure 49
00001000
00000100
00010000
00000000
00001000
00010000
00100000
00000000
,  // measure 50
10000000
01000000
00010000
01000000
10000000
00100000
01000000
00000000
,  // measure 51
00010000
00100000
00001000
00000000
00202000
00000000
00000000
00000000
,  // measure 52
00000000
00000000
00000000
00000000
00303000
00000000
00000000
00000000
00010000
00000000
00001000
00010000
00001000
00000000
00010000
00000100
,  // measure 53
00010000
00000000
00000100
00001000
00000100
00000000
00001000
00000001
00001000
00000000
00000010
00000000
00000100
00000000
00000001
00000000
,  // measure 54
00000010
00000000
00000100
00000000
00001000
00000000
00000001
00000000
00000100
00000000
00000010
00000100
00000010
00000000
00001000
00000010
,  // measure 55
00001000
00000000
00000100
00010000
00000100
00000000
00010000
00001000
00010000
00000000
00100000
00000000
20000000
00000000
00000000
00000000
,  // measure 56
31000000
00000000
00100000
00000000
00010000
10000000
00010000
10000000
00100000
00000000
01000000
00010000
01000000
00000000
00100000
10000000
,  // measure 57
00100000
00000000
10000000
01000000
10000000
00000000
00010000
00100000
00010000
00000000
10000000
00000000
00100000
00000000
01000000
00000000
,  // measure 58
00010000
00000000
00100000
00000000
00001000
00000000
00010000
00000000
00000100
00000000
00001000
00000010
00001000
00000000
00000001
00000100
,  // measure 59
00000001
00000000
00001000
00000000
00000100
00000000
00010000
00000000
00001000
00010000
00001000
00010000
00100000
10000000
01000000
00100000
,  // measure 60
01000000
00100000
00010000
01000000
00001000
00010000
00000010
00000200
00000000
00000000
00000000
00000000
00000000
00000000
00000000
00000000
,  // measure 61
00000302
00000000
00002003
00000000
,  // measure 62
00003200
00000000
00010000
00020300
,  // measure 63
00001000
00000000
00032000
00000000
00203000
00000000
00310000
00100000
,  // measure 64
00001000
00000000
00000000
00000000
00001000
00010000
00001000
00010000
00000100
00010000
00000100
00001000
00000001
00000100
00000010
00001000
,  // measure 65
00000001
00000000
00000010
00000000
00000001
00000100
00000010
00001000
00000001
00000000
00000000
00000000
00001000
00000010
00000000
00001000
,  // measure 66
00000001
00001000
00000001
00000000
00000100
00000010
00001000
00000000
00000001
00000000
00000011
00000000
00001000
00000000
00001010
00000000
,  // measure 67
00000001
00000000
00000000
00000010
00000000
00000000
00000100
00000000
00000000
00001000
00000000
00000000
00000001
00000000
00000000
00000100
00000000
00000000
00000010
00000000
00000000
00001000
00000000
00000000
00000001
00000000
00000000
00000000
00000010
00000000
00000001
00000000
00000000
00000000
00000000
00000000
00000100
00000000
00000000
00000000
00000000
00000000
00001000
00000000
00000000
00000000
00000000
00000000
,  // measure 68
00010000
00000000
00000000
00000000
00000000
00000000
01000000
00000000
00000000
00000000
00000000
00000000
10000000
00000000
00000000
00000000
00010000
00000000
00000000
00000000
00000000
00000000
01000000
00000000
00100000
00000000
00000000
10000000
00000000
00000000
00100000
00000000
00000000
01000000
00000000
00000000
00010000
00000000
00000000
00100000
00000000
00000000
01000000
00000000
00000000
10000000
00000000
00000000
,  // measure 69
00010000
00000000
00000000
00000000
00000000
00000000
10000000
00000000
00000000
00000000
00000000
00000000
00010000
00000000
00000000
00100000
00000000
00000000
00010000
00000000
00100000
00000000
01000000
00000000
10000000
00000000
00000000
00000000
00000000
00000000
00100000
00000000
00000000
00000000
00000000
00000000
01000000
00000000
00000000
00010000
00000000
00000000
10000000
00000000
00000000
00000000
00000000
00000000
,  // measure 70
01000000
10000000
00010000
00000000
00100000
00010000
10000000
00000000
00100000
01000000
00010000
00100000
00001000
00010000
00000100
00010000
,  // measure 71
00000010
00001000
00000010
00000100
00000001
00000010
00000100
00001000
00000002
00000000
00000000
00000000
00000010
00000000
00000000
00000000
,  // measure 72
00001000
00010003
00010010
00000000
;

//---------------dance-single - ----------------
#NOTEDATA:;
#CHARTNAME:;
#STEPSTYPE:dance-single;
#DESCRIPTION:;
#CHARTSTYLE:;
#DIFFICULTY:Medium;
#METER:6;
#RADARVALUES:0.344125,0.374236,0.130768,0.172063,0.000000,306.000000,19.000000,25.000000,0.000000,0.000000,0.000000,0.000000,0.000000,0.344125,0.374236,0.130768,0.172063,0.000000,306.000000,19.000000,25.000000,0.000000,0.000000,0.000000,0.000000,0.000000;
#CREDIT:Ben Speirs;
#NOTES:
0000
0000
0000
0000
,
0000
0000
0000
0000
,
0000
0000
0000
0000
,
0000
0000
2002
0000
,
0000
0000
3003
0000
1000
1000
0100
0000
,
1000
0000
0010
0000
0100
0100
0001
0000
,
1000
0000
0100
0000
0010
0010
0010
0000
,
0001
1000
0010
0100
,
0001
1000
0001
0000
1000
1000
0100
0000
,
1000
0000
0001
0000
0010
0010
0001
0000
,
1000
0000
0001
0000
0100
0100
0100
0000
,
0010
0000
1000
0000
0001
0010
0100
0000
,
1000
0010
0100
0000
0002
0000
0003
0000
,
0100
0100
0020
0030
,
1000
0100
2000
3000
,
0001
0000
1001
0010
,
1001
0100
0002
0013
,
0010
0001
2000
3100
,
0100
1000
0020
0130
,
0100
0000
0001
0000
1000
0100
1000
0000
,
0001
0100
0001
0000
1010
0000
0000
0000
,
0001
1000
0001
1000
0010
0000
0000
0000
,
1000
0100
1000
0000
0010
0000
0000
0000
,
0100
0001
0100
0001
1000
0000
0001
0000
,
0010
0010
1001
0000
,
0001
0100
0001
0000
1000
0000
1000
0000
,
0010
1000
0010
1000
0100
0000
0000
0000
,
1000
0100
0020
0000
,
0030
0000
0001
0010
,
1000
0000
0100
1000
0001
0000
0101
0000
,
1000
0001
0100
0000
0010
0010
0010
0010
,
0100
0100
0100
0100
0001
0000
1000
0000
,
0010
1000
0001
0000
0001
0000
0100
0000
,
1000
0010
1000
0000
0100
1000
0100
0000
,
1000
1100
0101
1000
,
0001
0010
0100
0000
2000
0000
0000
0000
,
0000
0000
3000
0000
0001
0001
1000
0000
,
0010
1000
0001
0000
1000
1000
0001
0000
,
0010
0001
1000
0000
0001
0001
1000
0000
,
0010
1000
0001
0000
1000
0000
0100
0000
,
0010
0000
0000
0000
0001
0100
0001
0000
,
1000
1000
0010
0000
1000
0100
1000
0000
,
0001
0001
0010
0000
0001
1000
0001
0000
,
1000
1000
0001
0000
1000
0000
0001
0000
,
0000
0100
0020
0030
,
1000
1000
0200
0300
,
0010
0010
0002
0003
,
0100
0100
1001
0000
,
0001
1000
0001
1000
0020
0000
0030
0000
,
0100
0010
2000
3000
,
0100
1000
0002
0003
,
0010
0001
0200
0000
,
0020
0330
0110
1001
,
1000
0100
1000
0000
0001
0100
0001
0000
,
0010
0010
0010
0000
0001
0000
1000
0000
,
0001
0100
0001
0000
1010
0000
1100
0000
,
0101
0000
0011
0000
1000
0001
1000
0000
,
0010
0100
0010
0000
0100
0001
0100
0000
,
0001
1000
0001
0000
1000
0000
0001
0000
,
0100
0010
0100
0000
0001
0000
0100
0000
,
0010
1000
0010
0000
2000
0000
0000
0000
,
3200
0000
0320
0000
,
0032
0000
0203
0000
,
0320
0000
2030
0100
,
3001
0000
0000
0000
1001
0001
1000
0000
,
0010
1000
0001
0000
0100
0000
0110
0000
,
0010
0000
1000
0000
0010
1000
0010
1000
,
0001
0100
0010
1000
0001
0000
0010
0000
,
0001
1000
1100
0100
,
1000
0001
1000
0000
0010
0010
0010
0000
,
0100
0001
1000
0000
0010
1000
0010
1000
,
0100
0010
0001
0000
0100
0000
0001
0000
,
1000
0010
1001
0000
;

//---------------dance-single - ----------------
#NOTEDATA:;
#CHARTNAME:;
#STEPSTYPE:dance-single;
#DESCRIPTION:;
#CHARTSTYLE:;
#DIFFICULTY:Easy;
#METER:3;
#RADARVALUES:0.216307,0.274440,0.075708,0.151415,0.000000,187.000000,11.000000,22.000000,0.000000,0.000000,0.000000,0.000000,0.000000,0.216307,0.274440,0.075708,0.151415,0.000000,187.000000,11.000000,22.000000,0.000000,0.000000,0.000000,0.000000,0.000000;
#CREDIT:Ben Speirs;
#NOTES:
0000
0000
0000
0000
,
0000
0000
0000
0000
,
0000
0000
0000
0000
,
0000
0000
2002
0000
,
0000
3003
1000
0000
,
0010
0000
0100
0000
,
0100
0000
0001
0000
,
1000
0000
0001
0010
,
0100
1000
0001
0000
,
0100
0000
0010
0000
,
1000
0000
0100
0000
,
1000
0000
0001
0010
,
0100
1000
0010
0000
,
0100
0100
0001
0000
,
0001
0001
1000
0000
,
1000
1000
0020
0030
,
0200
0300
0001
0000
,
1000
1000
0100
0000
,
0100
0100
0010
0000
,
0010
0010
0002
0003
,
2000
3000
1001
0000
,
0010
1000
0100
0000
,
1000
0001
0100
0000
,
0001
0010
0200
0300
,
0200
0300
1001
0000
,
0001
1000
0010
0000
,
0100
0001
0010
0000
,
0001
0010
0200
0000
,
0300
0000
1000
0001
,
0100
0100
0010
0010
,
1000
0001
0010
0010
,
0100
0100
1000
0000
,
0001
0000
0100
0001
,
1000
1000
0010
1000
,
0001
0001
0010
0001
,
1000
0100
2000
0000
,
3000
0000
0001
1000
,
0010
0000
0100
0001
,
1000
0000
0010
1000
,
0100
0000
1000
1000
,
0001
0001
0100
0010
,
1000
0000
0100
1000
,
0001
0000
0010
0001
,
0100
0000
0001
0001
,
1000
1000
0020
0000
,
0030
0000
0100
0000
,
0001
0000
1000
0000
,
0010
0000
1001
0000
,
1001
0000
2000
3000
,
0002
0003
0200
0300
,
0020
0030
1000
0000
,
0100
0000
0020
0000
,
0030
0000
1001
0000
,
0001
0001
0100
0000
,
0010
1000
0100
0000
,
1000
1000
0200
0300
,
0200
0300
1001
0000
,
1000
1000
0001
0000
,
0001
1000
0010
0000
,
0100
0100
0001
0000
,
1000
0000
0020
0000
,
0030
0000
0200
0000
,
0300
0000
0002
0000
,
0003
0000
2000
0000
,
3000
0000
1001
1001
,
1000
0001
0100
0100
,
0010
1000
0001
0001
,
1000
1000
0001
0010
,
0100
0000
1001
1001
,
1000
0001
1000
1000
,
0010
0100
0001
0001
,
0100
0100
0010
0000
,
1000
0000
0001
0000
;

//---------------dance-single - ----------------
#NOTEDATA:;
#CHARTNAME:;
#STEPSTYPE:dance-single;
#DESCRIPTION:;
#CHARTSTYLE:;
#DIFFICULTY:Beginner;
#METER:1;
#RADARVALUES:0.103238,0.174643,0.075708,0.000000,0.000000,94.000000,11.000000,0.000000,0.000000,0.000000,0.000000,0.000000,0.000000,0.103238,0.174643,0.075708,0.000000,0.000000,94.000000,11.000000,0.000000,0.000000,0.000000,0.000000,0.000000,0.000000;
#CREDIT:Ben Speirs;
#NOTES:
0000
0000
0000
0000
,
0000
0000
0000
0000
,
0000
0000
0000
0000
,
0000
0000
0000
0000
,
0000
0000
1000
0000
,
0000
0000
0001
0000
,
0000
0000
1000
0000
,
0000
0000
0010
0000
,
0010
0000
0100
0000
,
0000
0000
0001
0000
,
0000
0000
1000
0000
,
0000
0000
0010
0000
,
0010
0000
0010
0000
,
0000
0000
1000
0000
,
0000
0000
0001
0000
,
0000
0000
1001
0000
,
0000
0000
1000
0000
,
0000
0000
0001
0000
,
0000
0000
0100
0000
,
0000
0000
1001
0000
,
0000
0000
1000
1000
,
0000
0000
0010
0000
,
0010
0000
0010
0000
,
0000
0000
0100
0000
,
0000
0000
0001
0001
,
0000
0000
0010
0000
,
0010
0000
0010
0000
,
0000
0000
0100
0000
,
0000
0000
1000
1000
,
1000
0000
1000
0000
,
0000
0000
0001
0001
,
0001
0000
0001
0000
,
0000
0000
0100
0100
,
0100
0000
0100
0000
,
0000
0000
0001
0001
,
0001
0000
0001
0000
,
0000
0000
1001
0000
,
0000
0000
1001
0000
,
0000
0000
1001
0000
,
0000
0000
0010
0000
,
0010
0000
1001
0000
,
0000
0000
1001
0000
,
0000
0000
1001
0000
,
0000
0000
0010
0000
,
0000
0000
0100
0000
,
0000
0000
0001
0000
,
0000
0000
1000
0000
,
0000
0000
0010
0000
,
0010
0000
0010
0000
,
0000
0000
1000
0000
,
0000
0000
0001
0000
,
0000
0000
0100
0000
,
0000
0000
0001
0001
,
0000
0000
1000
1000
,
0000
0000
0010
0010
,
0000
0000
1001
0000
,
0000
0000
1000
1000
,
0000
0000
0001
0001
,
0000
0000
0100
0100
,
0000
0000
1001
0000
,
0000
0000
1000
0000
,
0000
0000
0000
0000
,
0000
0000
0001
0000
,
0000
0000
0000
0000
,
0000
0000
1001
0000
,
0000
0000
1000
0000
,
0000
0000
0010
0010
,
0010
0000
0010
0010
,
0010
0000
0010
0000
,
0000
0000
0100
0000
,
0100
0000
0100
0000
,
0000
0000
0001
0000
,
0000
0000
1000
0000
;
