#VERSION:0.82;
#TITLE:Light Up The Night;
#SUBTITLE:;
#ARTIST:The Protomen;
#TITLETRANSLIT:;
#SUBTITLETRANSLIT:;
#ARTISTTRANSLIT:;
#GENRE:Step-Man Stage!;
#ORIGIN:;
#CREDIT:;
#BANNER:Light Up The Night.png;
#BACKGROUND:Light Up The Night-bg.png;
#PREVIEWVID:;
#JACKET:jacket.png;
#CDIMAGE:;
#DISCIMAGE:;
#LYRICSPATH:;
#CDTITLE:;
#MUSIC:Light Up The Night.ogg;
#OFFSET:0.020000;
#SAMPLESTART:35.713936;
#SAMPLELENGTH:13.714000;
#SELECTABLE:YES;
#BPMS:0.000=168.000;
#STOPS:;
#DELAYS:;
#WARPS:;
#TIMESIGNATURES:0.000=4=4;
#TICKCOUNTS:0.000=4;
#COMBOS:0.000=1;
#SPEEDS:0.000=1.000=0.000=0;
#SCROLLS:0.000=1.000;
#FAKES:;
#LABELS:0.000=Song Start;
#BGCHANGES:0.000=Light Up The Night.avi=1.000=0=0=1=====,
99999=-nosongbg-=1.000=0=0=0 // don't automatically add -songbackground-
;
#KEYSOUNDS:;
#ATTACKS:
;

//---------------dance-single - ----------------
#NOTEDATA:;
#CHARTNAME:;
#STEPSTYPE:dance-single;
#DESCRIPTION:;
#CHARTSTYLE:;
#DIFFICULTY:Hard;
#METER:9;
#RADARVALUES:0.686057,0.716308,0.306684,0.313654,0.000000,600.000000,44.000000,45.000000,0.000000,0.000000,0.000000,0.000000,0.000000,0.686057,0.716308,0.306684,0.313654,0.000000,600.000000,44.000000,45.000000,0.000000,0.000000,0.000000,0.000000,0.000000;
#CREDIT:Ben Speirs;
#NOTES:
// measure 0
0000
0000
0000
0000
,  // measure 1
0000
0000
0000
0000
,  // measure 2
0000
0000
0000
0000
,  // measure 3
0000
0000
0000
0000
,  // measure 4
0010
0110
0001
0101
,  // measure 5
1000
0000
1100
0000
0001
0000
1001
0100
,  // measure 6
0100
0110
0010
1001
,  // measure 7
0100
0000
1100
0000
0001
0000
0101
2000
,  // measure 8
0000
3100
0100
1000
0010
0100
0001
0010
,  // measure 9
0010
0100
0010
0001
1000
0010
0100
0002
,  // measure 10
0000
0013
0100
2000
0000
0000
3001
0000
,  // measure 11
1000
0010
0100
0000
0001
0000
1010
0002
,  // measure 12
0000
0013
0010
0001
1000
1000
0010
0100
,  // measure 13
0100
0001
0010
0100
1000
1000
0010
0200
,  // measure 14
0000
0301
1000
0020
0000
0000
0130
0000
,  // measure 15
0001
1000
0001
0000
0100
0000
1010
0002
,  // measure 16
0000
0013
0010
0001
0100
0010
1000
0100
,  // measure 17
0100
0010
0100
1000
0001
0100
0010
1000
,  // measure 18
0100
0000
1000
0000
0001
0100
0010
0000
,  // measure 19
1000
0010
1000
0010
0100
0001
0100
0001
,  // measure 20
1000
0000
0100
0000
0010
0001
1000
0000
,  // measure 21
0001
0010
0100
1000
0010
0100
0001
1000
,  // measure 22
0000
1000
0100
0000
0010
0001
1000
0000
,  // measure 23
0010
1000
0001
0000
0100
0010
1000
0100
,  // measure 24
0100
0010
0001
0000
1000
0010
0100
0000
,  // measure 25
0001
0100
1000
0100
0001
0010
0100
1000
,  // measure 26
0101
0000
1100
0000
0001
0010
0100
1000
,  // measure 27
0001
0000
1000
0000
0010
0100
0001
1000
,  // measure 28
1000
0100
0010
0001
0001
1000
0010
0100
,  // measure 29
0100
0000
0001
0000
0100
0010
1000
1020
,  // measure 30
0000
1030
0001
0010
0100
1000
0001
0102
,  // measure 31
0000
0103
0001
0010
0100
1000
0010
0120
,  // measure 32
0000
0130
0001
1000
0000
1000
0010
0100
,  // measure 33
0001
0010
0100
1000
0010
0100
0001
1000
,  // measure 34
0002
0000
0013
0000
0001
1000
0010
0000
,  // measure 35
0200
0000
0301
0000
0100
0001
0010
0100
,  // measure 36
2000
0000
3010
0000
1000
0001
0100
0000
,  // measure 37
0020
0000
1030
0100
0010
0001
1000
0010
,  // measure 38
0101
1010
0001
0011
,  // measure 39
1000
0000
1001
0000
1000
0010
0100
0001
,  // measure 40
0000
0001
1000
0000
0100
0000
1100
0000
,  // measure 41
0001
0000
0101
0000
0100
0001
0010
0100
,  // measure 42
1000
0001
0100
0000
0010
0000
1010
0000
,  // measure 43
0100
0000
1001
0000
0001
0010
0100
1000
,  // measure 44
0000
1000
0010
0000
0100
0001
1000
0000
,  // measure 45
0010
1000
0100
0010
0001
0001
1000
0002
,  // measure 46
0000
0013
0100
2000
0000
3001
0100
2000
,  // measure 47
0000
3001
0010
2000
0000
3100
0010
0002
,  // measure 48
0000
1003
0010
0002
0000
1003
0100
0002
,  // measure 49
0000
0013
0100
2000
0000
3001
0100
0020
,  // measure 50
0000
1030
0100
1000
0010
0100
0001
2000
,  // measure 51
0000
3100
0010
0001
1000
0010
0100
0002
,  // measure 52
0000
0013
0100
0010
0001
1000
0010
0200
,  // measure 53
0000
0301
1000
0010
0100
0001
0010
2000
,  // measure 54
0000
3001
0100
2000
0000
3001
0100
2000
,  // measure 55
0000
3001
0010
2000
0000
3001
0010
0200
,  // measure 56
0000
1300
0001
1000
0100
0010
0001
0011
,  // measure 57
0000
0001
0010
0100
0010
0001
1000
0010
,  // measure 58
0100
0000
0101
0000
0010
1000
0100
0000
,  // measure 59
0010
0000
0110
0000
0010
0001
1000
0000
,  // measure 60
0010
0000
1010
0000
1000
0001
0100
0000
,  // measure 61
0001
1000
0010
0000
1000
0100
0010
0001
,  // measure 62
1010
0000
0011
0000
1000
0100
0010
0001
,  // measure 63
1000
0000
0001
0000
0100
0010
1000
0001
,  // measure 64
0001
0010
0100
1000
1000
0001
0100
0010
,  // measure 65
0010
0000
1000
0000
0010
0100
0001
0201
,  // measure 66
0000
0301
1000
0100
0010
0001
1000
2010
,  // measure 67
0000
3010
1000
0100
0010
0001
0100
0210
,  // measure 68
0000
0310
1000
0001
0000
0001
0100
0010
,  // measure 69
1000
0100
0010
0001
0100
0010
1000
0001
,  // measure 70
2000
0000
3100
0000
1000
0001
0100
0000
,  // measure 71
0020
0000
1030
0000
0010
1000
0100
0010
,  // measure 72
0002
0000
0103
0000
0001
1000
0010
0000
,  // measure 73
0100
0001
1000
0100
0010
0001
1000
0010
,  // measure 74
0101
0000
1010
0000
0001
1000
0010
0100
,  // measure 75
0001
1000
0010
0000
1000
0100
0010
0001
,  // measure 76
0001
0010
0100
1000
1000
0010
0100
0001
,  // measure 77
0001
1000
0010
0000
0100
0001
1000
1010
,  // measure 78
1000
0100
0010
0001
1000
0010
0100
0101
,  // measure 79
0100
0010
1000
0100
0010
0001
1000
1010
,  // measure 80
1000
0001
0010
0100
1000
0010
0100
0110
,  // measure 81
0100
0001
0010
0100
1000
0001
1000
0001
,  // measure 82
0200
0000
0310
0000
1000
0010
0100
0000
,  // measure 83
0002
0000
1003
0000
0001
0010
0100
1000
,  // measure 84
0020
0000
0130
0000
0001
0100
0010
0000
,  // measure 85
1000
0001
1000
0100
0010
0001
1000
0100
,  // measure 86
2001
0000
0100
0000
3001
1000
0100
0010
,  // measure 87
0002
0000
1003
0000
0010
1000
0001
0100
,  // measure 88
1000
0100
0001
0010
0100
1000
0010
0100
,  // measure 89
0001
1000
0001
0000
1000
0100
0010
0011
,  // measure 90
0010
0001
1000
0010
0100
0001
1000
1010
,  // measure 91
1000
0001
0010
0100
1000
0001
0100
0110
,  // measure 92
0100
0001
0010
0100
1000
0001
0010
0011
,  // measure 93
0010
0001
1000
0010
0100
0001
1000
0010
,  // measure 94
2000
0000
3001
0000
1000
0100
0010
0000
,  // measure 95
0002
0000
1003
0000
0001
0100
0010
0000
,  // measure 96
2000
0000
3010
0000
1000
0001
1000
0000
,  // measure 97
0010
1000
0100
0010
0001
1000
0010
0101
;

//---------------dance-double - ----------------
#NOTEDATA:;
#CHARTNAME:;
#STEPSTYPE:dance-double;
#DESCRIPTION:;
#CHARTSTYLE:;
#DIFFICULTY:Challenge;
#METER:9;
#RADARVALUES:0.638262,0.648088,0.132432,0.411236,0.000000,563.000000,19.000000,59.000000,0.000000,0.000000,0.000000,0.000000,0.000000,0.638262,0.648088,0.132432,0.411236,0.000000,563.000000,19.000000,59.000000,0.000000,0.000000,0.000000,0.000000,0.000000;
#CREDIT:Ben Speirs;
#NOTES:
00000000
00000000
00000000
00000000
,
00000000
00000000
00000000
00000000
,
00000000
00000000
00000000
00000000
,
00000000
00000000
00000000
00000000
,
00100000
00010000
10000000
00100000
,
01000000
00000000
00010000
00000000
10000000
00000000
01000000
00010000
,
00001000
00000100
00000001
00000010
,
00000100
00000000
00001000
00000000
00000010
00000000
00000100
00002001
,
00000000
00003100
00000100
00000010
00000010
00000001
00001000
00000010
,
00000010
00000100
00000100
00000001
00001000
00000100
00000010
00000002
,
00000000
00000000
00001003
00001000
00000100
00000000
00010000
00000000
,
00001000
00000000
01000000
00000000
00010000
00000000
00100000
10020000
,
00000000
00130000
00100000
01000000
01000000
10000000
00010000
01000000
,
01000000
00100000
00100000
10000000
00010000
00100000
01000000
20000000
,
00000000
00000000
30010000
00010000
00100000
00000000
00001000
00000000
,
00010000
00000000
00000010
00000000
00001000
00000000
00000100
00001002
,
00000000
00000013
00000010
00000100
00000100
00001000
00000010
00000100
,
00000100
00000001
00000010
00000100
00001000
00000100
00010000
00002000
,
00000000
00000000
00103000
00000000
00001000
00100000
00010000
00000000
,
10000000
00010000
10000000
00100000
01000000
00010000
10000000
00200000
,
00000000
00300000
01000000
00020000
00000000
10030000
01000000
00000000
,
00100000
00010000
10000000
00000000
00100000
00000000
01000000
20010000
,
00000000
31000000
01000000
00000000
10000000
01000000
10000000
00000000
,
00010000
01000000
00010000
00000000
10000000
00010000
10000000
00000000
,
01000000
00100000
00010000
00000000
00100000
00001000
00010000
00000000
,
00001000
00010000
00001000
00010000
00000100
00000010
00000001
00001000
,
00001010
00000000
00000101
00000000
00000001
00000010
00000100
00001000
,
00000010
00000000
00000100
00000000
00000001
00000100
00000010
00001000
,
00001000
00000010
00000100
00000001
00000001
00000010
00000100
00001000
,
00000001
00000000
00000010
00000000
00000001
00000010
00000100
00010000
,
00000000
00000010
00000010
00001000
00000010
00000100
00000010
00010000
,
00000000
00000100
00000100
00001000
00000100
00000010
00000100
00020000
,
00000000
00031000
00010000
00000200
00000000
00001300
00000100
00010000
,
00001000
00100000
00010000
01000000
00010000
00100000
01000000
10000000
,
00200000
00000000
01300000
00000000
00100000
01000000
00010000
00000000
,
20000000
00000000
31000000
00000000
10000000
01000000
00100000
00010000
,
02000000
00000000
03100000
00000000
01000000
00010000
00100000
00000000
,
00020000
00000000
10030000
01000000
00100000
00010000
10000000
00100000
,
02000000
00010000
00000000
10000000
,
00000000
00000000
03100000
00000000
01000000
00010000
10000000
01000000
,
00000000
01000000
00200000
00000000
00000000
00000000
10000000
00000000
,
00000000
00000000
00310000
00000000
00100000
00001000
00010000
00000010
,
00000020
00001000
00000000
00000001
,
00000000
00000000
00000130
00000000
00000010
00001000
00000001
00000010
,
00000000
00000010
00000200
00000000
00000000
00000000
00000001
00000000
,
00000000
00000000
00001300
00000000
00000100
00010000
00001000
02000000
,
00000000
03100000
10000000
00020000
00000000
00130000
01000000
20000000
,
00000000
31000000
00100000
00020000
00000000
10030000
00100000
02000000
,
00000000
03010000
00100000
00002000
00000000
01003000
00100000
00020000
,
00000000
00130000
10000000
02000000
00000000
03100000
00001000
00020000
,
00000000
00031000
00000100
00000002
00000000
00000013
00000100
00002000
,
00000000
00003001
00000100
00000020
00000000
00001030
00000100
00000002
,
00000000
00000103
00000010
00002000
00000000
00003010
00000001
00000200
,
00000000
00000310
00010000
00002000
00000000
00003010
00000001
00000200
,
00000000
00000310
00001000
00000200
00000000
00010300
00001000
00200000
,
00000000
00310000
10000000
00200000
00000000
01300000
00010000
20000000
,
00000000
31000000
00100000
00020000
00000000
10030000
00100000
20000000
,
00000000
30010000
01000000
00200000
00000000
10300000
01000000
00100000
,
00010000
00000000
10010000
00000000
10000000
10000000
01000000
00000000
,
00100000
00000000
01100000
00000000
00100000
00100000
00010000
00000000
,
01000000
00000000
10100000
00000000
00010000
01000000
00001000
00000000
,
00010000
00000000
00011000
00000000
00010000
00001000
01000000
00010000
,
01010000
00000000
10100000
00000000
10000000
01000000
00100000
00010000
,
01000000
00000000
00100000
00000000
10000000
00100000
01000000
00010000
,
00010000
01000000
00100000
10000000
10000000
01000000
00100000
00010000
,
10000000
00000000
01000000
00000000
10000000
01000000
00100000
00001000
,
00000000
01000000
01000000
00010000
01000000
00100000
01000000
00001000
,
00000000
00100000
00100000
00010000
00100000
01000000
00100000
00002000
,
00000000
00013000
00001000
00200000
00000000
00310000
00100000
00001000
,
00010000
00000100
00001000
00000010
00001000
00000100
00000010
00000001
,
00000200
00000000
00000310
00000000
00000100
00000010
00001000
00000000
,
00000002
00000000
00000013
00000000
00000001
00000010
00000100
00001000
,
00000020
00000000
00000130
00000000
00000010
00001000
00000100
00000000
,
00002000
00000000
00003001
00000010
00000100
00001000
00000001
00000100
,
00001010
00000000
00000101
00000000
00000001
00000010
00000100
00001000
,
00000010
00000000
00000100
00000000
00000001
00000100
00000010
00001000
,
00001000
00000010
00000100
00000001
00000001
00000010
00000100
00001000
,
00000001
00000000
00000010
00000000
00000001
00000010
00000100
00010000
,
00000000
00000010
00000010
00001000
00000010
00000100
00000010
00010000
,
00000000
00000100
00000100
00001000
00000100
00000010
00000100
00020000
,
00000000
00031000
00010000
00000200
00000000
00001300
00000100
00010000
,
00001000
00100000
00010000
01000000
00010000
00100000
01000000
10000000
,
00200000
00000000
01300000
00000000
00100000
01000000
00010000
00000000
,
20000000
00000000
31000000
00000000
10000000
01000000
00100000
00010000
,
02000000
00000000
03100000
00000000
01000000
00010000
00100000
00000000
,
00020000
00000000
10030000
01000000
00100000
00010000
10000000
00100000
,
02000000
00000000
03010000
00000000
10000000
01000000
00100000
00010000
,
10000000
00100000
01000000
00000000
00010000
01000000
00100000
10000000
,
10000000
00100000
01000000
00010000
00010000
00100000
01000000
10000000
,
10000000
00010000
01000000
00000000
00100000
10000000
01000000
11000000
,
00000000
10000000
00100000
10000000
00010000
01000000
00010000
00110000
,
00000000
00100000
00001000
00010000
00000100
00001000
00000001
00000101
,
00000000
00000100
00000010
00000100
00000001
00000010
00000100
00001100
,
00000000
00001000
00000100
00000010
00000001
00001000
00000010
00001010
,
00000002
00000000
00000103
00000000
00000010
00001000
00000100
00000000
,
00000020
00000000
00000031
00000000
00001000
00000100
00010000
00000000
,
00002000
00000000
00013000
00000000
00001000
01000000
00100000
00000000
,
10000000
00100000
01000000
00100000
10000000
01000000
00010000
00001000
;

//---------------dance-single - ----------------
#NOTEDATA:;
#CHARTNAME:;
#STEPSTYPE:dance-single;
#DESCRIPTION:;
#CHARTSTYLE:;
#DIFFICULTY:Medium;
#METER:7;
#RADARVALUES:0.474962,0.613979,0.202133,0.167282,0.000000,424.000000,29.000000,24.000000,0.000000,0.000000,0.000000,0.000000,0.000000,0.474962,0.613979,0.202133,0.167282,0.000000,424.000000,29.000000,24.000000,0.000000,0.000000,0.000000,0.000000,0.000000;
#CREDIT:Ben Speirs;
#NOTES:
0000
0000
0000
0000
,
0000
0000
0000
0000
,
0000
0000
0000
0000
,
0000
0000
0000
0000
,
2000
0100
0000
0100
,
0000
0000
0100
0000
0000
0000
3100
0010
,
0002
0100
0000
0100
,
0000
0000
0100
0000
0000
0000
0103
0020
,
0000
0100
0130
0000
0010
0000
0100
0000
,
0001
0000
0010
0000
0100
0000
1000
0100
,
1000
0010
1000
0001
,
0100
0000
0010
0000
1000
0000
0100
2000
,
0000
0001
3001
0000
1000
0000
0010
0000
,
0100
0000
0001
0000
1000
0000
0001
0010
,
0001
1000
0001
0100
,
0010
0000
1000
0000
0001
0000
0010
0002
,
0000
0100
0103
0000
0010
0000
0100
0000
,
0001
0000
1000
0000
0100
1000
0100
1000
,
0001
0100
0010
1000
,
0001
0000
0010
0000
0001
1000
0001
1000
,
0010
0100
0001
0010
,
0001
0000
1000
0000
0100
1000
0100
2000
,
0000
0001
3001
0000
1000
0000
0010
0000
,
0100
0000
0001
0000
1000
0000
0001
0010
,
0100
1000
0001
1000
,
0010
0100
0010
0000
1000
0100
0010
0001
,
0000
0000
1100
0000
0001
0010
0100
1000
,
0000
0000
0101
0000
1000
0100
1000
0001
,
0000
0001
0100
0010
0000
0010
1000
0100
,
0000
0000
0100
0000
1000
0100
0010
0001
,
0000
0000
1000
0000
0001
0100
0001
1000
,
0000
0000
0010
0000
1000
0010
0100
0001
,
0000
0010
0001
0010
0000
0001
1000
0001
,
0000
1000
0000
0001
0000
0100
0010
0100
,
0001
1000
0000
0100
,
0000
0000
1000
0000
0001
0010
0100
0000
,
1000
0010
0000
0100
,
0000
0000
0001
0000
1000
0100
1000
0001
,
0100
0010
1000
0100
,
0010
0000
0001
0000
1000
0100
1000
0001
,
0000
0001
0100
0000
0000
0000
0010
0000
,
0100
0000
0001
0000
1000
0100
1000
0000
,
0001
1000
0000
0010
,
1000
0000
0001
0000
0010
0001
0010
0100
,
0000
0100
1000
0000
0000
0000
0001
0000
,
1000
0100
1000
0000
0001
0100
0001
0000
,
2000
0000
3001
0000
0100
0010
1000
0000
,
0200
0000
0310
0000
0001
1000
0010
0000
,
0200
0000
0301
0000
1000
0100
0010
0000
,
0002
0000
1003
0000
0010
1000
0001
0200
,
0000
0310
1000
0200
0000
0310
0001
2000
,
0000
3010
0100
0002
0000
1003
0100
2000
,
0000
0000
0001
0000
0001
3000
0000
0002
,
0000
0000
1000
0000
1000
0003
0000
1001
,
0000
0000
0010
1000
0010
0000
0000
1001
,
0000
0000
0010
0001
0010
0000
0000
1100
,
0000
0001
0000
1000
0000
0010
0000
0101
,
0000
1000
0000
0001
0000
0010
0000
0001
,
1000
0100
0000
1000
,
0001
0000
0100
0000
0010
1000
0010
0000
,
0100
0001
0000
1000
,
0001
0000
0010
0000
0001
0010
0100
1000
,
0000
0000
0101
0000
1000
1000
0100
0000
,
1000
0000
0001
0000
0100
0010
0100
0001
,
0000
1000
0010
0100
,
0001
0000
1000
0000
0001
0000
0000
1100
,
0000
0000
0100
1000
0001
0000
0000
0101
,
0000
0000
0100
0001
1000
0000
0000
1010
,
0000
0001
0000
0011
0000
1000
0000
1001
,
0000
0110
0000
1001
0000
0000
1000
0100
,
0020
0031
1000
0001
,
0200
0310
1000
0001
,
0020
0031
1000
0010
,
1000
0001
1000
0001
1000
0100
0010
0001
,
2000
0000
0100
0100
,
3100
0000
0000
0000
1000
0100
0010
0001
,
0000
1000
0000
0001
0000
0100
0000
0010
,
0010
0000
0000
0000
0100
0000
0000
1001
,
0000
0000
1000
0100
0010
0001
0000
1001
,
0000
0000
0001
0100
0010
1000
0000
0101
,
0000
1010
0000
1100
0000
0011
0000
1000
,
0000
0001
0000
1000
0000
0010
0100
0010
,
2000
0100
0000
3100
,
1000
0100
0010
0000
0001
0000
1000
0000
,
0002
0100
0000
0103
,
0100
0010
1000
0000
0001
1000
0001
0000
,
2200
0000
3300
0000
0001
1000
0001
1000
,
0001
0000
0100
0000
0010
1000
0010
0100
,
0000
0000
0001
0000
1000
0000
0100
0010
,
0001
0000
1000
0000
0010
0100
0010
1000
,
0000
0000
0001
0000
0010
0100
0010
0001
,
0000
0000
0010
0000
0001
0010
0100
1000
,
0000
0000
0001
0000
1000
0010
0100
0001
,
0000
1000
0000
0010
0000
0100
0000
0000
,
1001
1001
0100
1000
,
1010
1010
1000
0001
,
0011
0011
1000
0001
,
0101
0000
1100
0000
1000
0100
0010
0001
;

//---------------dance-single - ----------------
#NOTEDATA:;
#CHARTNAME:;
#STEPSTYPE:dance-single;
#DESCRIPTION:;
#CHARTSTYLE:;
#DIFFICULTY:Easy;
#METER:5;
#RADARVALUES:0.301706,0.375688,0.076671,0.000000,0.000000,292.000000,11.000000,0.000000,0.000000,0.000000,0.000000,0.000000,0.000000,0.301706,0.375688,0.076671,0.000000,0.000000,292.000000,11.000000,0.000000,0.000000,0.000000,0.000000,0.000000,0.000000;
#CREDIT:Ben Speirs;
#NOTES:
0000
0000
0000
0000
,
0000
0000
0000
0000
,
0000
0000
0000
0000
,
0000
0000
0000
0000
,
0100
0010
0000
1000
,
0000
0001
0000
0010
,
0001
1000
0000
0100
,
0000
0000
1000
0000
0000
0000
0010
0010
,
0000
0100
0000
0001
,
0100
0001
1000
0100
,
0010
0001
1000
0000
,
0010
0000
1000
0000
0001
0000
0010
0010
,
0000
0001
0000
1000
,
0001
1000
0010
0100
,
0001
0010
0001
0000
,
1000
0000
0001
0000
1000
0000
0100
0100
,
0000
1000
0000
0010
,
1000
0000
0100
0000
0010
0000
0001
0001
,
0000
1000
0000
0001
,
0000
0000
0100
0000
0010
0000
1000
1000
,
0000
0100
0000
1000
,
0000
0000
0001
0000
0010
0000
0001
0001
,
0000
1000
0000
0010
,
0100
0010
1000
0100
,
0010
0001
1000
0010
,
0100
0100
0001
0001
,
1001
0000
1000
0100
,
0010
0000
0001
1000
,
0010
0010
0100
0100
,
0001
0000
0000
0000
1000
0000
0000
0001
,
0000
0000
1000
0000
1000
0000
0000
0100
,
0000
0000
0010
0000
0010
0000
0000
0001
,
0000
0000
0000
1000
0000
0000
0000
0010
,
0000
0100
0000
0001
0000
1000
0000
0000
,
0100
0000
1000
0000
,
0010
0000
0100
0001
,
1000
0000
0100
0000
,
0010
0000
0001
0000
1000
0000
0000
0010
,
0000
0100
0000
0100
,
0000
0000
0100
0000
0001
0000
1000
1000
,
0000
0100
0000
0010
,
0000
0000
0001
0000
1000
0000
0001
0001
,
0000
0100
0000
0001
,
0000
0000
1000
0000
0100
0000
0010
0010
,
0000
0001
0000
1000
,
0001
0000
0100
0000
0001
0000
0000
1000
,
0000
0100
0000
0010
0000
0000
0000
0001
,
0000
1000
0000
0010
0000
0000
0000
0100
,
0000
0001
0000
1000
0000
0000
0000
0100
,
0000
0010
0000
0001
0000
0000
0000
1000
,
0000
0000
0100
0000
1000
0000
0010
0010
,
0000
0000
0100
0000
0001
0000
1000
1000
,
0000
0000
0100
0000
0010
0000
0001
0001
,
0000
0000
1000
0000
0001
0000
0000
0100
,
0000
0000
0010
0000
1000
0000
0100
0100
,
0000
0000
0010
0000
0001
0000
1000
1000
,
0000
0000
0001
0000
1000
0000
0010
0010
,
0000
0100
0001
1000
,
0100
0010
0000
0010
,
0000
0010
0000
0010
,
0001
0100
0000
0100
,
0000
0100
0001
1000
,
1001
0000
1000
0001
,
0100
0000
0010
1000
,
0100
0010
0001
1000
,
0010
0000
0000
0000
1000
0000
0000
0001
,
0000
0000
1000
0000
0100
0000
0000
0010
,
0000
0000
0001
0000
1000
0000
0000
0010
,
0000
1000
0000
0001
0000
0000
0000
0100
,
0000
0001
0000
1000
0000
0100
0000
0000
,
1000
0000
0001
0000
,
0100
0000
0010
1000
,
0100
0000
0010
0000
,
0001
0000
1000
1000
,
0110
0000
0100
0001
,
1000
0000
0100
1000
,
0010
0010
0100
0001
,
1000
0000
0000
0000
0100
0000
0000
0010
,
0000
0000
0001
0000
1000
0000
0000
0010
,
0000
0000
0100
0000
0001
0000
0000
1000
,
0000
0100
0000
0010
0000
0000
0000
0001
,
0000
1000
0000
0010
0000
0100
0000
0000
,
0001
0000
1000
0000
,
0100
1000
0001
0000
,
0010
0000
0001
0000
,
1000
0010
0100
0000
,
1001
1001
0100
0100
,
1001
0000
1000
0100
,
0010
0001
1000
0010
,
0100
0000
0000
0000
0001
0000
0000
1000
,
0000
0000
0100
0000
0010
0000
0000
0001
,
0000
0000
0100
0000
0010
0000
0000
1000
,
0000
0000
0001
0000
1000
0000
0000
0010
,
0000
0100
0000
0001
0000
1000
0000
0000
,
1100
1100
0000
0010
,
0000
1000
0000
0001
,
0101
0101
0000
1000
,
0000
0001
1000
0100
,
1001
0000
0000
0000
;

//---------------dance-single - ----------------
#NOTEDATA:;
#CHARTNAME:;
#STEPSTYPE:dance-single;
#DESCRIPTION:;
#CHARTSTYLE:;
#DIFFICULTY:Beginner;
#METER:2;
#RADARVALUES:0.168278,0.238465,0.013940,0.000000,0.000000,167.000000,2.000000,0.000000,0.000000,0.000000,0.000000,0.000000,0.000000,0.168278,0.238465,0.013940,0.000000,0.000000,167.000000,2.000000,0.000000,0.000000,0.000000,0.000000,0.000000,0.000000;
#CREDIT:Ben Speirs;
#NOTES:
0000
0000
0000
0000
,
0000
0000
0000
0000
,
0000
0000
0000
0000
,
0000
0000
0000
0000
,
0000
0100
0000
0100
,
0000
0001
0000
0001
,
0000
1000
0000
1000
,
0000
0010
0000
0000
,
1000
1000
0000
0000
,
0100
0000
0100
0000
,
0010
0000
0010
0000
,
0001
0000
0000
0000
,
0100
0100
0000
0000
,
0100
0000
0010
0000
,
1000
0000
1000
0000
,
0001
0000
0000
0000
,
0010
0010
0000
0000
,
0001
0000
0001
0000
,
0100
0000
0000
0000
,
0010
0000
0010
0000
,
1000
0000
0000
0000
,
0100
0000
0100
0000
,
0010
0010
0000
0000
,
0001
0000
0001
0000
,
1000
0000
0010
0000
,
0100
0000
0100
0000
,
1001
0000
0000
0000
,
0100
0000
0000
0000
,
1000
0000
1000
0000
,
0010
0000
0000
0000
,
0100
0100
0000
0000
,
0001
0001
0000
0000
,
1000
0000
1000
0000
,
0100
0100
0100
0100
,
0100
0000
0000
0000
,
1000
0000
0000
0000
,
0010
0000
0000
0000
,
0100
0000
0000
0000
,
0001
0001
0000
0001
,
0000
0001
0000
0000
,
1000
1000
0000
1000
,
0000
1000
0000
0000
,
0010
0010
0000
0010
,
0000
0010
0000
0000
,
0100
0100
0000
0100
,
0000
0100
0000
0000
,
0001
0000
1000
0000
,
0010
0000
0010
0000
,
1000
0000
0100
0000
,
0010
0000
0010
0000
,
0001
0000
0000
1000
,
1000
0000
0000
0010
,
0010
0000
0000
0100
,
0100
0000
0000
0001
,
0001
0000
0000
0000
,
1000
0000
0000
0000
,
0100
0000
0000
0000
,
0010
0000
0000
0000
,
0001
0000
0000
0000
,
1000
0000
0000
0000
,
0010
0000
0010
0000
,
0100
0100
0100
0100
,
0100
0000
0000
0000
,
0001
0000
0000
0000
,
1000
1000
0000
1000
,
1000
0000
0000
0000
,
0100
0100
0000
0000
,
0010
0010
0000
0000
,
0001
0000
1000
0000
,
0010
0010
0010
0010
,
0010
0000
0000
0000
,
0100
0000
0000
0000
,
0001
0000
0000
0000
,
1000
0000
0100
0100
,
0100
0000
0000
0000
,
1000
0000
0000
0000
,
0010
0010
0000
0010
,
0010
0000
0000
0000
,
0100
0100
0000
0000
,
0001
0001
0000
0000
,
1000
1000
0000
0000
,
0100
0100
0100
0100
,
0100
0000
0000
0000
,
0010
0000
0000
0000
,
0001
0000
0000
0000
,
1000
0000
0001
0000
,
1001
0000
0000
0000
,
1000
0000
0000
0000
,
0010
0010
0000
0010
,
0010
0000
0000
0000
,
1000
1000
0000
0000
,
0001
0001
0000
0000
,
0010
0010
0000
0000
,
0001
0001
0001
0001
,
0001
0000
0000
0000
,
1000
0000
0000
0000
,
0010
0000
0000
0000
,
0100
0000
0100
0100
;
