#TITLE:Walkie Talkie Man;
#SUBTITLE:;
#ARTIST:Steriogram;
#TITLETRANSLIT:;
#SUBTITLETRANSLIT:;
#ARTISTTRANSLIT:;
#CREDIT:;
#BANNER:Walkie Talkie Man-bn.png;
#BACKGROUND:Walkie Talkie Man-bg.png;
#LYRICSPATH:;
#CDTITLE:;
#MUSIC:Walkie Talkie Man.mp3;
#OFFSET:-0.540;
#SAMPLESTART:29.540;
#SAMPLELENGTH:14.360;
#SELECTABLE:YES;
#BPMS:0.000=140.940;
#STOPS:96.000=0.010
;
#BGCHANGES:3.800=Walkie Talkie Man.avi=1.000=1=0=0,
99999=-nosongbg-=1.000=0=0=0 // don't automatically add -songbackground-
;

//---------------dance-single - ----------------
#NOTES:
     dance-single:
     :
     Beginner:
     1:
     0.094,0.128,0.020,0.000,0.000:
0000
0000
0000
0000
,
0000
0000
0000
0000
,
0000
0000
0000
0000
,
0000
0000
0000
0000
,
0000
0000
0000
0000
,
0010
0000
0010
0000
,
0010
0000
0010
0000
,
0100
0000
0100
0000
,
0100
0000
0100
0000
,
1000
0000
0000
0000
,
0001
0000
0000
0000
,
0100
0000
0100
0000
,
0100
0000
0000
0000
,
0010
0000
0000
0000
,
1000
0000
0000
0000
,
0001
0000
0000
0000
,
1000
0000
1000
0000
,
1000
0000
0000
0000
,
0100
0100
0100
0000
,
0000
0000
0000
0000
,
0010
0000
0010
0000
,
0010
0000
0000
0000
,
0001
0001
0001
0000
,
0000
0000
0000
0000
,
1000
0000
0000
0000
,
1001
0000
0000
0000
,
0100
0000
0000
0000
,
0010
0000
0000
0000
,
0100
0000
0000
0000
,
1000
0000
1000
0000
,
0000
0000
0000
0000
,
0001
0000
0001
0000
,
0000
0000
0000
0000
,
0100
0000
0100
0000
,
0000
0000
0000
0000
,
0010
0000
0010
0000
,
0010
0000
0000
0000
,
1000
0000
1000
0000
,
1000
0000
1000
0000
,
1000
0000
1000
0000
,
1000
0000
0000
0000
,
0001
0000
0001
0000
,
0001
0000
0001
0000
,
0001
0000
0001
0000
,
0001
0000
0000
0000
,
0100
0000
0000
0000
,
0010
0000
0000
0000
,
1000
0000
0000
0000
,
0001
0000
0001
0000
,
0001
0000
0000
0000
,
0100
0000
0000
0000
,
0010
0000
0000
0000
,
1001
0000
0000
0000
;

//---------------dance-single - ----------------
#NOTES:
     dance-single:
     :
     Medium:
     7:
     0.318,0.369,0.078,0.078,0.005:
0000
0000
0000
0000
,
0000
0000
0000
0000
,
0000
0000
0000
0000
,
0000
0000
0000
0000
,
0000
0000
0000
0000
,
0010
0000
1000
0000
0100
1000
0001
0000
,
0100
0001
1000
0000
0010
0100
0001
0000
,
0010
0000
0001
0000
1000
0010
0100
0000
,
0010
1000
0100
0000
0010
0001
0100
0000
,
0010
0010
1000
1000
,
0100
0100
0010
0010
,
0001
0100
0001
0000
1000
0100
1000
0000
,
0010
0100
0010
0000
1000
0001
1000
0000
,
0010
0010
1000
1000
,
0001
0001
0100
0100
,
0010
0100
0010
0000
1000
0001
1000
0000
,
1100
1100
0101
0101
,
0020
1000
0130
0000
,
1000
0001
1000
0000
0002
0000
0103
0000
,
0010
0000
0100
0000
0001
0100
0001
0000
,
1000
0100
2000
3100
,
1000
0000
0010
0000
0100
0000
0010
1000
,
0100
0010
0002
0103
,
0010
0000
0100
0001
1000
0000
0100
0000
,
1000
0001
0000
0010
0000
0001
0000
0100
,
0010
1000
0100
0010
,
0002
0103
2000
3100
,
0010
1000
0010
0100
,
0001
1000
0001
1000
0000
0001
1000
0000
,
0100
0000
1000
0000
,
0010
0000
0100
0000
,
0010
0000
1000
0000
,
0001
0000
1000
0001
,
0010
0000
0001
0000
,
0100
0000
0010
0000
,
0100
0000
0001
0000
,
1001
0000
0000
0000
,
0100
1000
0010
0100
,
0001
0010
0100
0000
0010
0001
0100
0000
,
0010
1000
0001
0100
,
0010
1000
0100
0000
1000
0100
0010
0000
,
0001
1000
0001
0000
1000
0001
1000
0000
,
0010
0100
0010
0000
0100
0010
0100
0000
,
0001
0000
0100
0000
0010
0100
0001
0000
,
1000
0100
1000
0100
0010
0001
0010
0001
,
1000
0100
0010
0001
,
0100
0000
0010
0000
0100
0010
0100
0010
,
0100
0001
1000
0010
,
0100
0000
0000
0001
1000
0001
1000
0001
,
0100
0010
1000
0001
,
1000
0000
0010
0000
0100
0010
1000
0000
,
0001
1000
0100
0010
,
2002
0000
0000
0000
,
0000
0000
0000
0000
,
0000
0000
0000
0000
,
0000
0000
0000
0000
,
0000
0000
0000
0000
,
0000
0000
0000
0000
0000
0000
3003
0000
0000
0000
0000
0000
0000
0000
0000
0110
0000
0000
0000
0000
0000
0000
0110
0000
;

//---------------dance-single - ----------------
#NOTES:
     dance-single:
     :
     Hard:
     12:
     0.503,0.511,0.314,0.029,0.015:
0000
0000
0000
0000
,
0000
0000
0000
0000
,
0000
0000
0000
0000
,
0000
0000
0000
0000
,
0000
0000
0000
0000
0000
0001
1000
0001
,
0100
0010
1000
0100
1000
0010
0100
0001
,
1000
0010
0001
0100
0001
0010
0100
0010
,
0001
0100
1000
0010
1000
0100
0010
0001
,
1000
0010
0100
0001
1000
0001
0100
0000
,
1000
0010
0100
0001
1000
0010
0100
0001
,
1000
0001
0100
0010
1000
0001
0100
0010
,
1000
0100
1000
0100
1000
0001
1000
0001
,
0100
0001
0100
0001
0000
0101
0000
1100
,
0100
1000
0010
0100
0001
1000
0100
0010
,
0001
1000
0010
0001
0010
1000
0100
1000
,
0010
0100
0001
1000
0100
1000
0001
0100
,
0101
0000
1100
0000
0010
0010
0100
0100
,
0110
0000
0101
0000
1100
0000
0001
1000
,
1100
1001
0101
1001
,
0010
0000
0100
0001
1000
0100
0010
0001
,
0000
1100
0000
1000
0001
0001
0100
0100
,
0010
0000
0110
0000
0101
0000
1000
0010
,
0100
0110
1010
1100
,
1000
0000
0001
0010
0100
1000
0001
0100
,
0000
0101
0000
1100
0000
1001
0000
0110
,
0010
1000
0100
1000
0001
0100
1000
0100
,
0010
1000
0100
0001
0100
1000
0010
0100
,
0001
0010
1000
0010
0001
1000
0010
0100
,
0002
0000
0000
0000
,
0103
0100
0000
0010
1010
0000
0000
0000
,
0001
0001
0000
0100
0101
0000
0000
0000
,
1000
1000
0000
0100
1100
0000
0000
0000
,
0010
0010
0000
0100
0010
0100
0001
1000
,
0100
0100
0000
1000
1100
0000
0000
0000
,
0001
0000
0001
0000
0000
0000
0100
0000
0101
0000
0000
0100
0000
0000
0100
0000
,
0000
0010
0010
0000
0100
0001
1000
0100
,
1100
0000
0010
0010
0001
0001
0100
0100
,
0010
1000
0100
0001
0100
1000
0010
0100
,
0010
1000
0100
0010
0001
1000
0010
0001
,
0010
1000
0100
1000
0001
0100
1000
0100
,
0001
0010
0100
0010
0001
1000
0010
0100
,
0001
1000
0100
0010
0001
1000
0010
0100
,
0010
0010
1000
1000
0100
1000
0010
0100
,
0001
0010
1000
0010
0001
1000
0010
0100
,
0000
0110
0000
0101
0001
0001
1000
1000
,
0100
1000
0010
0100
0010
1000
0100
0010
,
0001
1000
0010
0001
0010
1000
0100
1000
,
0010
0100
0010
1000
0100
1000
0010
0100
,
0001
1000
0010
0100
0001
0001
0100
0100
,
0001
0010
0100
0010
0001
1000
0010
0100
,
0010
1000
0100
0001
0100
1000
0010
0100
,
0010
1000
0100
1000
0001
0100
0010
1000
,
2002
0000
0000
0000
,
0000
0000
0000
0000
,
0000
0000
0000
0000
,
0000
0000
0000
0000
,
0000
0000
0000
0000
,
0000
0000
0000
3003
0000
0000
0000
0000
0110
0000
0000
0110
;

//---------------dance-single - ----------------
#NOTES:
     dance-single:
     :
     Easy:
     3:
     0.220,0.256,0.108,0.029,0.005:
0000
0000
0000
0000
,
0000
0000
0000
0000
,
0000
0000
0000
0000
,
0000
0000
0000
0000
,
0000
0000
0000
0000
,
0010
0000
1000
0000
,
0100
0100
0100
0000
,
1000
0000
0001
0000
,
0010
0010
0010
0000
,
0001
0100
0010
1000
,
0100
1000
0001
0100
,
0010
0100
0001
0010
,
0100
1000
0010
0000
,
1000
0010
0100
0001
,
1000
0001
0010
0100
,
1000
0010
0100
0010
,
1000
0001
0100
0000
,
0010
1000
0100
0000
,
1000
0001
0100
0000
,
0001
0010
0100
0000
,
0010
0001
1000
0000
,
0010
0100
0001
0000
,
0100
0010
1000
0000
,
0001
1000
0100
0000
,
1000
0010
0100
0001
,
0100
0100
0010
0010
,
1000
1000
0001
0001
,
1000
1000
0100
0100
,
0020
0000
0000
0030
,
0001
0000
0101
0000
,
1000
0000
1100
0000
,
0010
0000
0110
0000
,
0100
0000
0101
0000
,
1000
0000
1001
0000
,
0001
0000
0011
0000
,
0100
0000
0110
0000
,
1001
0000
0000
0000
,
0100
1000
0010
0100
,
0001
0010
0100
1000
,
0010
0100
0010
1000
,
0001
0010
0001
0000
,
0100
0001
1000
0100
,
0010
0001
1000
0010
,
0100
0010
1000
0001
,
1000
0000
0100
0100
,
0100
0000
1000
0000
,
0010
0000
1000
0000
,
0001
0000
0010
0000
,
0001
0100
0010
1000
,
0100
0000
1000
0000
,
0001
0000
0010
0001
,
0100
0000
0010
0000
,
2002
0000
0000
0000
,
0000
0000
0000
0000
,
0000
0000
0000
0000
,
0000
0000
0000
0000
,
0000
0000
0000
0000
,
0000
0000
0000
0000
0000
0000
3003
0000
0000
0000
0000
0000
0000
0000
0000
0110
0000
0000
0000
0000
0000
0000
0110
0000
;

//---------------dance-single - ----------------
#NOTES:
     dance-single:
     :
     Challenge:
     16:
     0.663,0.880,0.461,0.029,0.436:
0000
0000
0000
0000
,
0000
0000
0000
0000
,
0000
0000
0000
0000
,
0000
0000
0000
0000
,
0000
0000
0000
0000
0000
0001
1000
0001
,
0100
0000
0010
0000
1000
0000
0100
1000
0100
0000
1000
0000
0010
0000
0100
0001
,
0100
0000
0010
0000
1000
0000
0001
1000
0001
0000
0010
0000
0100
0000
1000
0000
,
0010
0000
0100
0000
0001
0000
1000
0100
1000
0000
0010
0000
0100
0000
0001
1000
,
0001
0100
0010
1000
0010
0100
0001
0000
,
1000
0100
1000
0100
0010
0100
0010
0100
1000
0001
1000
0001
0100
0001
0100
0001
,
0010
0100
0010
0100
0001
0100
0001
0100
1000
0010
1000
0010
0100
0001
0100
0000
,
0001
0010
0100
1000
0010
0000
1000
0000
0100
0010
0001
1000
0100
0000
0010
0001
,
0010
0000
0100
0010
0000
0100
0010
0000
0100
0000
1100
0000
0000
0000
1001
0000
,
0100
0010
1000
0001
0100
0000
0010
0000
0100
0001
1000
0100
0010
0000
0001
0000
,
1000
0000
0010
1000
0010
0100
0001
0010
0100
1000
0010
0100
0010
0000
0000
0000
,
1000
0001
1000
0000
0010
0000
0100
0000
0001
1000
0100
0000
1000
0000
0110
0000
,
0101
0000
1010
0000
0110
0110
1010
1010
,
0100
0000
0001
1000
0100
0000
1000
0010
,
0001
0000
0010
0000
1000
0000
0100
0010
0100
0010
0100
0000
0010
0000
0100
0000
,
0010
0000
0001
0010
0100
1000
0010
0100
,
0001
1000
0100
0000
0000
0000
1000
0000
1010
0000
1010
0000
1001
0000
1001
0000
,
0101
0000
0010
0100
0001
0000
0010
0100
,
1000
0000
0001
0000
1000
0000
0001
0100
0001
0100
0001
0000
0100
0000
0001
0000
,
1000
0000
0100
1000
0010
0100
0001
1000
,
0100
1100
0000
1001
0000
0110
0000
0101
,
0100
0010
1000
0001
0100
0010
1000
0100
,
0010
0001
1000
0010
0001
0010
1000
0100
,
1000
0010
1000
0100
0010
0001
0100
0010
,
2000
0010
0010
0010
0000
0010
3010
0000
,
0010
0000
1000
0000
0000
0000
0001
0000
0101
0000
0000
0000
0000
0000
0010
0100
,
0010
0000
0010
0000
0000
0000
0100
0000
0110
0000
0000
0000
0000
0000
0100
0001
,
1000
0000
1000
0000
0000
0000
0010
0000
0110
0000
0000
0000
0000
0000
0000
1000
,
0100
0000
0100
0000
0000
0000
1000
0000
0001
0000
0010
0001
0000
0010
0001
0000
,
0100
0000
0100
0000
0000
0000
0010
0000
1010
0000
0000
0000
0000
0000
0100
0001
,
1000
0000
1000
0000
0000
0000
0010
0000
0110
0000
0000
0101
0000
0000
1010
0000
,
0000
0100
0100
0000
0101
0000
0000
0100
,
1001
0000
1010
1010
1001
1001
0101
0101
,
0001
0010
0001
0010
0100
0010
0100
0010
0001
1000
0001
1000
0010
1000
0010
1000
,
0100
0010
0100
0010
1000
0010
1000
0010
0001
0100
0001
0100
0010
1000
0010
0000
,
1000
0100
0010
0001
0100
0000
0001
0000
0010
0100
1000
0001
0010
0000
0100
1000
,
0100
0000
0010
0100
0000
0010
0100
0000
0010
0000
0001
1000
0001
0000
0000
0000
,
0010
0100
0001
1000
0010
0000
0100
0000
0010
1000
0001
0010
0100
0000
1000
0000
,
0001
0000
0100
0001
0100
0010
1000
0100
0010
0001
0100
0010
0100
0000
0001
0100
,
0001
1000
0001
0000
0100
0000
0010
0000
1000
0001
0000
0001
1000
0000
0010
0000
,
0000
0110
0000
0101
1100
1001
1010
0110
,
0101
0100
0010
1000
0100
1000
0010
0100
,
0001
0010
1000
0010
0001
1000
0100
1000
,
0010
0100
0001
0010
0100
1000
0010
0100
,
0001
1000
0000
0010
0110
0110
1001
1001
,
0100
1000
0010
0100
0001
1000
0100
1000
,
0001
0000
0100
0000
0010
0000
1000
0100
0010
0001
1000
0000
0010
0000
0100
0000
,
0001
0100
0010
1000
0100
0010
0001
0100
,
0220
0000
0000
0000
,
0000
0000
0000
0000
,
0000
0000
0000
0000
,
0000
0000
0000
0000
,
0000
0000
0000
0000
,
0000
0000
0000
0000
0000
0000
0330
0000
0000
0000
0000
0000
0000
0000
0000
1001
0000
0000
0000
0000
0000
0000
1001
0000
;

//---------------dance-couple - ----------------
#NOTES:
     dance-couple:
     :
     Hard:
     1:
     0.000,0.000,0.000,0.000,0.000: // measure 1
00000000
00000000
00000000
00000000
;
