#TITLE:Good Time;
#ARTIST:Owl City & Carly Rae Jepsen;
#FILE:Good Time.mp3;
#BPM:125.980;
#GAP:40;
#SAMPLESTART:45.760;
#SAMPLELENGTH:14.340;
#SINGLE:BEGINNER:1:
00000000
;
#SINGLE:ANOTHER:7:
00000000
00000000
00000000
00000000
8!8020A062
60424082
8!8020A000
42864!40B0
2!2080A048
40626040
6!60809028
20424080
2!2080A026
20848040
60000000
28464!40B0
40206040
206040B0
60204060
204060B0
80208420
4!40108!80A0
40608020
42864!4040
84848020
60208000
46464060
80201000
82828040
60802000
48482820
62628!80A0
60204080
60200480
60204080
60200000
A0402042
40626080
60402048
40828040
60802082
80686020
80000000
28462!20A0
40206040
206040B0
60204060
204060B0
80208420
80208620
82826260
42424000
84848020
80406000
86868060
20804020
42424080
40802060
82826260
84842!20A0
68204280
B0B0B000
48208260
A0B01000
42408260
3010B000
84248260
86282!2030
40000000
;
#SINGLE:MANIAC:11:
00000000
00000000
00000000
00000000
80A03024
80426082
80604010
84246!6030
80307064
20426240
80703046
20848260
8090B042
60248020
8262462!20
A4289010
80402864!4
2076!620B0
80262846!6
20B2!260A0
70642862
82846460
42624826
(828282828000B000)
34862!203!60
B!40201000
76428!809!60
328870B0
A4628!807!40
B!60203000
48684620
42621090
4!40108!80A0
4!40100628
20B08036
80462826
(0000280042006040)
20426240
(8000280026008020)
60828640
(6000420082008020)
60824084
2868246!60
38421090
20828464!4
2076!62090
20646824!4
80B2!28030
28424826
2!2080A!8040
72868248
(464646464000A000)
(7020604082006200)
(8400280064000000)
(9020804062008200)
(602040802!20808200)
(8040208068002400)
(8200640028000000)
68248260
(20804020100300B0)
(6028206260004200)
(2800860062!2008000)
(3042406260002800)
84246!60B0
(8042406260002800)
(8400460062008000)
26642860
(2080406028282828)
;
#SINGLE:BASIC:5:
00000000
00000000
00000000
00000000
40204020
80608060
2!20002000
80808000
40802060
40108040
60802040
60308020
60802040
80A04060
2!20000020
80808000
B0004020
60204000
40006020
40206000
60004080
20804000
20806040
80200000
80208020
A0A0A000
40604060
B000B000
20402040
10101000
80602080
40602!2020
80208020
60200000
80402080
20B00000
00404020
60204060
00808060
20804080
00202060
20804020
8!80008000
60406000
40802060
80A06040
80406020
80702040
80206040
60308020
80804040
2080B000
20402040
10101000
80608060
90009000
20802080
A0A0A000
40802060
80204!4040
20408020
60406080
20408020
80406080
20408020
60402080
60408020
80402!20A0
;
