#TITLE:1985;
#ARTIST:Bowling For Soup;
#FILE:1985.mp3;
#BPM:120.000;
#GAP:780;
#SAMPLESTART:52.160;
#SAMPLELENGTH:16.180;
#FREEZE:756.000=1980.000;
#SINGLE:BEGINNER:1:
00000000
00000000
80000000
40000000
80000000
20000000
60000000
B0000000
B0000000
20200000
20200000
80800000
80800000
40400000
40400000
60600000
60600000
80000000
60000000
40000000
80000000
20002000
20000000
60006000
60000000
40000000
A0000000
80808000
80000000
40000000
60000000
20202000
20000000
80008000
80008000
80000000
40000000
60000000
20202020
20000000
80000000
40004000
40000000
80000000
40000000
60000000
B000B000
B0000000
00002020
20002000
00006000
00004000
00008080
80008000
00002000
20002000
;
#SINGLE:ANOTHER:8:
00000000
00000000
82006400
24242000
46002800
26262600
86004800
22002200
22002200
80424060
20828040
60868020
40646040
88408280
44602820
66806460
88204240
8!807!401!2010
8!807!40B!6030
82608240
64208640
8!80A!203!6090
6!60B!401!2010
84608240
88004400
66002200
80406020
82804848
20604020
80604000
60802040
82828200
80406460
00220088
00446640
82006200
42424200
86004800
42862820
6!604040B0
2!208080A0
42408460
A030B!B0B0
80424080
20626040
60B0A0B0
22008800
44602060
40802820
62628040
60802040
60004020
80602828
28002060
46408800
44007700
;
#SINGLE:MANIAC:11:
00000000
00000000
42046208
42688!8080
62084604
28648208
46082400
BB00AA00
1100BB00
33626420
77828460
AA826420
99648260
BB262480
33842860
77624260
9924628!80
(7080262620802060)
(4000282820806000)
(2080424240802000)
(8046408020604000)
84262240
84688660
28264280
BB227766
(A0A04!4000B!60003828)
26042604
68486482
64026804
(6080204080208484)
62084604
26862802
84084620
33267782
BBAA3310
62084604
28648208
26082400
64868424
803010B0
80A03010
66448260
46402!20A!80
9!60208030
4!40206070
2!208060A0
BB803340
AAB08406
84064262
46284608
42064286
(2080262640800020)
64068424
82082602
(6040800020206868)
(2020484820200000)
;
#SINGLE:BASIC:3:
00000000
00000000
40004000
4!40400000
60006000
6!60600000
20002000
2!20202!2020
2!20202!2020
80800000
40400000
60600000
20200000
88800000
44400000
66600000
44400000
20004000
80004000
80002000
60008000
60004000
80004000
60008000
20204040
80802020
60604040
80406040
20208080
60402000
40406060
80604020
80802020
44406660
44406660
20002000
2!20200000
60006000
6!60604!4040
2!2000A000
8!80009000
6!60003000
2!2000A000
8!80407000
4!40201000
6!6040B000
88002200
60B04040
60602060
40608080
20204060
80006060
40402040
60802020
80806660
44406600
;
