#TITLE:The Middle;
#ARTIST:Jimmy Eat World;
#FILE:The Middle.mp3;
#BPM:162.040;
#GAP:80;
#SAMPLESTART:70.400;
#SAMPLELENGTH:14.360;
#SINGLE:BEGINNER:1:
00000000
00000000
00000000
00000000
00000000
00000000
00000000
00000000
80000000
40004000
40000000
60000000
80000000
60006000
60000000
40000000
80000000
40004000
40000000
60000000
80000000
60006000
60000000
40000000
00808000
00000000
00404000
00000000
00606000
00000000
00200020
00200000
80000000
40000000
60000000
80008000
80000000
60000000
40000000
80000000
20000000
80008000
80000000
40000000
60000000
40004000
40000000
20000000
00404000
00000000
00808000
00000000
00202000
00000000
00600060
00600000
00808000
00000000
00606000
00000000
00404000
00000000
40004000
;
#SINGLE:ANOTHER:6:
00000000
00000000
00000000
00000000
00000000
00000000
00000000
000000B0
20802060
40242040
60208040
60282064
60408020
80406042
40804060
20802820
60208040
60424080
40608020
40828046
40204080
20626082
80608020
40604846
00B0A000
60208484
00703000
40608282
00901000
80406262
00B000A0
00900424
20408020
60464084
80208020
60406464
20408020
80406086
80602080
20604640
20408020
80406028
20608020
40646464
80208040
60402086
80602080
40604642
00109000
40602626
00301000
40608282
00901000
80406262
00A000B0
00A00424
00301000
80406464
00A09000
80204646
00A03000
40602828
40604286
;
#SINGLE:MANIAC:8:
00000000
00000000
00000000
00000000
00000000
00000000
00000000
000000B!40
1!20108460
48462!20A!80
A!20308640
84642862
2!20A!807!40B0
40846242
8!80A06280
40646424
6!60308260
86464!401!20
A!80904620
84262482
8!80A!203!6096
40842624
8!80702480
(2060200080406048)
40B!407062
(4020804020406086)
80B!603082
(6020804060802042)
40B!401042
(4060208020604082)
80B082A0
62304286
8!80902640
62648!80A!20
A!80702460
26468248
8!80A!203!60B0
60284262
482!20A460
42462840
62626262
82826824
82828282
42428464
82828282
62626824
82828282
(6020602080406028)
203!60B046
(4080206040602084)
803!603086
(8020408020604084)
80B!401048
(6080402040802062)
601082A0
64B08428
00B!609042
48268486
00B!401084
64826284
00A!203028
26484682
A0901463
;
#SINGLE:BASIC:4:
00000000
00000000
00000000
00000000
00000000
00000000
00000000
00000000
8!80007000
60402080
6!60003000
60402080
2!2000A000
60806040
2!20001000
80406020
8!8000A000
60208020
6!60009000
60802080
8!80009000
20804020
4!40007000
40802060
00B0B000
20804060
00B0B000
80604020
00B0B000
80406020
00B000A0
00B000A0
6!60003000
80206040
4!40001000
40802080
8!8000A000
80206040
4!40001000
40802060
6!60009000
60802080
8!8000A000
80602080
8!8000A000
80206040
4!40001000
40602080
00A0A000
40802060
00A0A000
60802040
00A0A000
40208060
00A000B0
00A000B0
00101000
20402040
00303000
60206020
00A0A000
20802080
A000B00B
;
