#TITLE:Good Feeling;
#SUBTITLE:;
#ARTIST:Flo Rida;
#TITLETRANSLIT:;
#SUBTITLETRANSLIT:;
#ARTISTTRANSLIT:;
#GENRE:;
#CREDIT:;
#BANNER:Good Feeling-bn.png;
#BACKGROUND:Good Feeling-bg.png;
#LYRICSPATH:;
#CDTITLE:;
#MUSIC:Good Feeling.mp3;
#OFFSET:-0.080;
#SAMPLESTART:82.540;
#SAMPLELENGTH:14.340;
#SELECTABLE:YES;
#BPMS:0.000=128.000
;
#STOPS:
;
#BGCHANGES:;
#KEYSOUNDS:;
#ATTACKS:;

//---------------dance-single - ----------------
#NOTES:
     dance-single:
     :
     Beginner:
     1:
     0.090,0.104,0.026,0.000,0.000,70.000,3.000,0.000,0.000,0.000,0.000,0.090,0.104,0.026,0.000,0.000,70.000,3.000,0.000,0.000,0.000,0.000: // measure 0
0000
0000
0000
0000
,  // measure 1
0000
0000
0000
0000
,  // measure 2
0000
0000
0000
0000
,  // measure 3
0000
0000
0000
0000
,  // measure 4
0010
0000
0000
0000
,  // measure 5
0010
0000
0000
0000
,  // measure 6
0010
0000
0000
0000
,  // measure 7
0010
0000
0000
0000
,  // measure 8
0100
0000
0000
0000
,  // measure 9
1000
0000
0000
0000
,  // measure 10
0001
0000
0000
0000
,  // measure 11
1001
0000
0000
0000
,  // measure 12
0100
0000
0100
0000
,  // measure 13
0000
0000
0000
0000
,  // measure 14
1000
0000
1000
0000
,  // measure 15
0000
0000
0000
0000
,  // measure 16
0001
0000
0001
0000
,  // measure 17
0000
0000
0000
0000
,  // measure 18
0010
0000
0010
0000
,  // measure 19
0000
0000
0000
0000
,  // measure 20
0001
0000
0001
0000
,  // measure 21
0001
0000
0000
0000
,  // measure 22
0100
0000
0100
0000
,  // measure 23
0100
0000
0000
0000
,  // measure 24
0010
0000
0010
0000
,  // measure 25
0010
0000
0000
0000
,  // measure 26
1000
0000
1000
0000
,  // measure 27
1000
0000
0000
0000
,  // measure 28
0100
0000
0000
0000
,  // measure 29
1000
0000
0000
0000
,  // measure 30
0010
0000
0000
0000
,  // measure 31
1000
0000
0000
0000
,  // measure 32
0001
0000
0000
0000
,  // measure 33
0010
0000
0000
0000
,  // measure 34
0001
0000
0000
0000
,  // measure 35
0100
0000
0000
0000
,  // measure 36
0110
0000
0000
0000
,  // measure 37
0100
0000
0000
0000
,  // measure 38
0010
0000
0000
0000
,  // measure 39
1000
0000
0000
0000
,  // measure 40
0100
0000
0000
0000
,  // measure 41
0010
0000
0000
0000
,  // measure 42
0001
0000
0000
0000
,  // measure 43
1000
0000
0000
0000
,  // measure 44
1001
0000
0000
0000
,  // measure 45
0100
0100
0000
0000
,  // measure 46
0100
0000
0000
0000
,  // measure 47
1000
1000
0000
0000
,  // measure 48
0010
0000
0000
0000
,  // measure 49
0010
0010
0000
0000
,  // measure 50
0100
0000
0000
0000
,  // measure 51
0001
0001
0000
0000
,  // measure 52
0001
0000
0001
0000
,  // measure 53
0001
0000
0000
0000
,  // measure 54
0100
0000
0100
0000
,  // measure 55
0100
0000
0000
0000
,  // measure 56
0010
0000
0010
0000
,  // measure 57
0010
0000
0000
0000
,  // measure 58
1000
0000
1000
0000
,  // measure 59
1000
0000
0100
0000
,  // measure 60
0010
0000
0000
0000
;

//---------------dance-single - ----------------
#NOTES:
     dance-single:
     :
     Medium:
     9:
     0.414,0.420,0.147,0.338,0.000,278.000,17.000,39.000,0.000,0.000,0.000,0.414,0.420,0.147,0.338,0.000,278.000,17.000,39.000,0.000,0.000,0.000: // measure 0
0000
0000
0000
0000
,  // measure 1
0000
0000
0000
0000
,  // measure 2
0000
0000
0000
0000
,  // measure 3
0000
0000
0000
0000
,  // measure 4
2010
0000
0000
0000
3200
0000
0000
0310
,  // measure 5
0020
0000
0032
0203
,  // measure 6
0320
0000
0230
0000
,  // measure 7
0302
0000
0023
0000
,  // measure 8
0230
2300
3020
0032
,  // measure 9
0023
0230
0302
2003
,  // measure 10
3200
0000
0010
0310
0020
0000
0001
0031
,  // measure 11
0001
1000
0010
0110
,  // measure 12
0001
0100
1000
0000
0010
0000
0100
0000
,  // measure 13
0010
0000
1000
0000
0100
1000
0001
0000
,  // measure 14
2000
3001
0020
0130
,  // measure 15
2000
3010
0002
0103
,  // measure 16
0010
0100
0010
0000
1000
0000
0001
0000
,  // measure 17
0010
0001
0100
0000
0010
0100
0010
1000
,  // measure 18
1000
0000
0001
0000
1000
0100
1000
0000
,  // measure 19
0010
1000
0010
1001
,  // measure 20
0100
0001
0100
0000
0010
1000
0001
0000
,  // measure 21
0010
0100
0010
0000
0001
1000
0010
0000
,  // measure 22
1000
0100
1000
0000
0001
1000
0100
0000
,  // measure 23
1000
0001
1000
0000
0010
0100
0001
0000
,  // measure 24
2000
0100
0010
3010
,  // measure 25
0002
1000
0100
0103
,  // measure 26
0010
0100
0010
0000
1000
0100
1000
0000
,  // measure 27
0001
1000
0010
0110
,  // measure 28
1001
1001
0100
0100
,  // measure 29
1000
0010
0001
0100
,  // measure 30
0110
0110
1001
1001
,  // measure 31
0010
0001
0100
1000
,  // measure 32
0010
1000
0100
0000
2000
0000
3001
0000
,  // measure 33
0100
0010
1000
0000
0002
0000
0013
0000
,  // measure 34
0100
0010
0001
0000
0200
0000
0310
0000
,  // measure 35
1000
0010
0100
0000
0020
0000
1030
0000
,  // measure 36
0100
1000
0100
1000
0001
1000
0001
0000
,  // measure 37
0100
0001
0100
0001
1000
0001
1000
0000
,  // measure 38
0010
1000
0010
1000
0100
1000
0100
0000
,  // measure 39
0001
1000
0001
1000
0001
0100
0001
0000
,  // measure 40
0010
1000
0100
0100
,  // measure 41
1000
0001
0010
0010
,  // measure 42
0001
0100
1000
0000
0010
0000
0010
0000
,  // measure 43
1000
0100
0001
0000
0010
0000
0010
0000
,  // measure 44
0101
0000
0101
0000
1100
0000
0010
1000
,  // measure 45
0100
0000
1000
0000
0001
0100
1000
0100
,  // measure 46
0001
1000
0001
1000
,  // measure 47
0020
0130
0020
0130
,  // measure 48
0001
0000
1000
1000
0100
0100
0010
0010
,  // measure 49
0002
0203
0320
2030
,  // measure 50
3200
0000
0010
0010
0020
0300
0001
0001
,  // measure 51
0032
0100
1000
0013
,  // measure 52
1100
0000
1001
0000
0010
1000
0001
0000
,  // measure 53
1000
0001
0100
0000
0010
0100
0101
0000
,  // measure 54
0010
0010
1000
0100
,  // measure 55
1000
0001
0100
0000
0010
0000
1001
0000
,  // measure 56
0100
0000
0010
0000
1000
0100
0010
0000
,  // measure 57
0001
1000
0010
0000
1000
0001
0100
0000
,  // measure 58
0010
0010
0010
0000
0100
0001
1000
0000
,  // measure 59
0010
1000
0001
0010
0100
1000
0010
0100
,  // measure 60
0001
0002
0000
0000
0003
0000
0000
0000
;

//---------------dance-single - ----------------
#NOTES:
     dance-single:
     :
     Hard:
     13:
     0.567,0.576,0.165,0.069,0.243,431.000,19.000,8.000,0.000,0.000,0.000,0.567,0.576,0.165,0.069,0.243,431.000,19.000,8.000,0.000,0.000,0.000: // measure 0
0000
0000
0000
0000
,  // measure 1
0000
0000
0000
0000
,  // measure 2
0000
0000
0000
0000
,  // measure 3
0000
0000
0000
0000
,  // measure 4
0101
0000
0000
0000
1000
0000
0100
1000
,  // measure 5
0001
0000
0000
0000
0001
0100
1000
0100
,  // measure 6
0001
0001
0000
0000
0100
0000
1000
0010
,  // measure 7
0001
0000
1000
0000
0000
0000
0100
0010
,  // measure 8
0100
0000
0001
0100
1000
0100
0010
1000
,  // measure 9
0100
0100
1000
1000
0010
1000
0001
0010
,  // measure 10
0100
0000
0010
0001
0100
0010
1000
0100
,  // measure 11
1100
0000
0000
0000
0110
0000
0000
0000
1001
0000
0000
0100
0001
0000
1000
0000
,  // measure 12
0100
0000
0010
0000
0001
0000
0000
0000
1000
0000
0001
1000
0001
0000
0010
0001
,  // measure 13
1000
0010
1000
0000
0100
1000
0001
0010
,  // measure 14
0100
0010
0001
1000
0010
1000
0100
0010
,  // measure 15
0001
0000
0100
0000
0010
0000
0100
0000
0000
0000
0001
0000
1000
0100
1000
0000
,  // measure 16
0000
0000
0010
0100
0010
0000
1000
0000
0100
0000
1000
0000
0001
0000
0000
0000
,  // measure 17
0100
0010
0100
0001
1000
0100
0010
0100
,  // measure 18
1000
0000
0000
0000
0010
0000
0100
0001
0100
0000
0010
0000
1000
0000
0000
0000
,  // measure 19
0001
1000
0001
0000
1000
0000
0010
0000
0100
0000
0000
0000
0021
0000
0000
0000
,  // measure 20
0130
0000
1000
0000
0010
0100
0000
0001
0100
0000
0010
0000
1000
0000
0000
0000
,  // measure 21
0010
0000
0100
0000
0001
0000
1000
0100
0000
1000
0001
0000
1000
0000
0000
0000
,  // measure 22
0010
0000
0100
0000
0001
0000
1000
0010
0000
0100
0001
0000
1000
0000
0000
0000
,  // measure 23
0010
0000
0100
0000
0001
0000
1000
0100
0000
1000
0001
0000
0010
0000
0000
0000
,  // measure 24
0001
0000
1000
0100
1000
0000
0010
0000
0000
0000
0100
0001
0100
0000
0010
0000
,  // measure 25
0000
0000
1000
0001
1000
0000
0100
0000
1000
0000
0010
0000
0100
0000
0010
0000
,  // measure 26
1000
0100
0001
1000
0010
0100
0001
0010
,  // measure 27
1000
0010
0001
1000
0100
0001
1001
0000
,  // measure 28
1001
0000
0000
0000
0110
0000
0000
0000
0001
0100
1000
0000
0010
0000
0000
0000
,  // measure 29
1000
0100
1000
0001
0010
0100
1000
0000
,  // measure 30
0010
0000
1000
0000
0001
0000
0000
0000
1000
0100
0001
0000
0010
0000
0000
0000
,  // measure 31
0001
0100
0010
0100
0001
1000
0100
0000
,  // measure 32
1000
0000
0010
0000
1000
0100
1000
0000
0010
0000
0100
0000
0001
1000
0001
0000
,  // measure 33
0010
0000
0100
0000
1000
0001
1000
0000
0010
0000
1000
0000
0010
0100
0010
0000
,  // measure 34
1000
0000
0010
1000
0100
1000
0001
0010
,  // measure 35
0100
0000
0010
0000
0001
0000
1000
0000
0010
0000
0100
0000
0010
1000
0001
0000
,  // measure 36
0000
0010
1000
0100
1000
0001
0010
0000
,  // measure 37
0001
0000
1000
0100
1000
0000
0010
0100
0010
0000
1000
0000
0001
0000
0000
0000
,  // measure 38
0100
0000
0010
0000
1000
0010
0001
0000
0010
0000
0010
0000
0100
0000
0000
0000
,  // measure 39
0001
0100
1000
0001
0010
1000
0001
0000
,  // measure 40
0000
1000
1001
0110
0000
0001
0011
1100
,  // measure 41
0000
0000
0100
0010
0100
0000
1000
0000
0010
0000
1000
0000
1001
0000
0101
0000
,  // measure 42
0000
0000
0010
0000
1000
0000
0100
0000
0010
0001
1000
0000
0010
0000
0100
0000
,  // measure 43
0001
1000
0100
0000
1000
0000
0010
0100
0001
0000
1000
0000
1100
0000
0000
0000
,  // measure 44
2001
0000
0000
0000
0001
0000
0000
0000
0100
0000
0000
0000
0100
3000
0010
0000
,  // measure 45
0020
0000
0100
0000
1030
0100
1000
0001
,  // measure 46
1000
0010
0100
0100
0001
0001
1000
1000
,  // measure 47
0100
0100
0010
0010
0001
0001
0100
0000
,  // measure 48
0010
0100
0001
1000
0100
1000
0001
1000
,  // measure 49
0010
0000
0010
1000
0000
1000
0100
0000
0100
0010
0000
0010
0001
0000
1000
0000
,  // measure 50
0100
0000
0000
0000
1000
0000
0001
0000
0100
0000
0010
0000
1000
0100
0010
0000
,  // measure 51
0001
2000
0000
3002
0000
0003
0000
0000
,  // measure 52
0101
0000
0100
0000
0010
1000
0100
0000
0010
0000
0001
0000
1000
0010
0100
0000
,  // measure 53
0001
0000
1000
0100
1000
0000
0000
0000
0001
0000
0100
0000
1001
0000
0000
0000
,  // measure 54
1010
0000
1000
0000
0100
0010
0001
0000
1000
0000
0010
0000
1000
0001
0100
0000
,  // measure 55
0010
0000
1000
0000
0001
0010
1000
0000
0010
0000
0001
0000
1000
0100
0010
0000
,  // measure 56
0001
0000
1000
0000
0010
1000
0100
0000
0010
0000
0001
0000
1000
0010
0001
0000
,  // measure 57
0010
1000
0000
1000
0100
0000
0010
0000
0001
1000
0100
1000
0200
0000
0000
0310
,  // measure 58
0001
0000
1000
0000
0010
1000
0100
0000
1000
0000
0010
0000
0100
0010
1000
0000
,  // measure 59
0100
0000
1000
0000
0001
0010
0100
0000
0010
0000
0001
0000
1000
0100
0001
0100
,  // measure 60
0020
0200
0000
0330
0000
0000
0000
0000
;

//---------------dance-single - ----------------
#NOTES:
     dance-single:
     :
     Easy:
     5:
     0.235,0.209,0.026,0.147,0.000,170.000,3.000,17.000,0.000,0.000,0.000,0.235,0.209,0.026,0.147,0.000,170.000,3.000,17.000,0.000,0.000,0.000: // measure 0
0000
0000
0000
0000
,  // measure 1
0000
0000
0000
0000
,  // measure 2
0000
0000
0000
0000
,  // measure 3
0000
0000
0000
0000
,  // measure 4
0020
0000
0000
2030
,  // measure 5
3002
0000
0000
2003
,  // measure 6
3200
0000
0000
0320
,  // measure 7
0032
0000
0000
0203
,  // measure 8
0320
0000
0000
0230
,  // measure 9
0302
0000
0000
0023
,  // measure 10
0230
0000
0000
2300
,  // measure 11
0002
0000
0000
3003
,  // measure 12
0100
1000
0010
0000
,  // measure 13
1000
1000
0001
0000
,  // measure 14
0010
0001
0100
0000
,  // measure 15
0010
0010
0100
0000
,  // measure 16
0010
1000
0100
0000
,  // measure 17
1000
0001
1000
0000
,  // measure 18
0010
1000
0001
0000
,  // measure 19
0010
0001
0100
0000
,  // measure 20
0001
0001
0100
0100
,  // measure 21
0010
0010
0100
0100
,  // measure 22
0001
0001
0100
0100
,  // measure 23
0010
0010
0100
0100
,  // measure 24
0001
0000
1000
0000
,  // measure 25
0100
0000
1000
0000
,  // measure 26
0010
1000
0100
1000
,  // measure 27
0010
0100
0001
1000
,  // measure 28
1001
0000
0100
0000
,  // measure 29
0010
0001
0100
0000
,  // measure 30
0010
0010
0100
0001
,  // measure 31
1000
0100
0010
0001
,  // measure 32
1000
0000
0010
0000
,  // measure 33
1000
0100
0010
0001
,  // measure 34
0100
0100
0010
0100
,  // measure 35
0001
0010
0001
0000
,  // measure 36
1000
0100
0010
0001
,  // measure 37
1000
0100
0010
0001
,  // measure 38
1000
0100
0010
0001
,  // measure 39
1000
0100
0010
0001
,  // measure 40
0000
0100
0000
0001
,  // measure 41
0000
1000
0000
0010
,  // measure 42
0000
1000
0000
1001
,  // measure 43
0000
0110
0000
0000
,  // measure 44
0010
0010
0010
0000
,  // measure 45
1000
1000
1000
0000
,  // measure 46
0100
0100
0100
0000
,  // measure 47
0010
0010
0010
0000
,  // measure 48
1000
0001
0100
0010
,  // measure 49
0100
0100
0100
0100
,  // measure 50
0100
0000
0010
0000
,  // measure 51
1000
0000
0001
0000
,  // measure 52
1000
0010
1000
0000
,  // measure 53
0100
0010
0001
1000
,  // measure 54
0010
0100
0010
0000
,  // measure 55
1000
0010
0100
0001
,  // measure 56
0010
0001
0010
0000
,  // measure 57
0100
0100
0100
0100
,  // measure 58
1000
0000
0010
1000
,  // measure 59
0100
0000
0000
0000
1000
0000
0001
0100
,  // measure 60
0002
0200
0000
0303
0000
0000
0000
0000
;
