#VERSION:0.82;
#TITLE:Honey, I'm Good;
#SUBTITLE:;
#ARTIST:Andy Grammer;
#TITLETRANSLIT:;
#SUBTITLETRANSLIT:;
#ARTISTTRANSLIT:;
#GENRE:Pop;
#ORIGIN:;
#CREDIT:;
#BANNER:Honey I'm Good.png;
#BACKGROUND:Honey I'm Good-bg.png;
#PREVIEWVID:;
#JACKET:jacket.png;
#CDIMAGE:;
#DISCIMAGE:;
#LYRICSPATH:;
#CDTITLE:;
#MUSIC:Honey I'm Good.ogg;
#OFFSET:-0.150000;
#SAMPLESTART:94.564705;
#SAMPLELENGTH:13.714000;
#SELECTABLE:YES;
#BPMS:0.000=244.000,
96.000=122.000,
112.000=244.000,
304.000=122.000,
320.000=244.000;
#STOPS:;
#DELAYS:;
#WARPS:;
#TIMESIGNATURES:0.000=4=4;
#TICKCOUNTS:0.000=4;
#COMBOS:0.000=1;
#SPEEDS:0.000=1.000=0.000=0;
#SCROLLS:0.000=1.000;
#FAKES:;
#LABELS:0.000=Song Start;
#BGCHANGES:4.000=Honey I'm Good.avi=1.000=0=0=1=====,
99999=-nosongbg-=1.000=0=0=0 // don't automatically add -songbackground-
;
#KEYSOUNDS:;
#ATTACKS:
;

//---------------dance-single - ----------------
#NOTEDATA:;
#CHARTNAME:;
#STEPSTYPE:dance-single;
#DESCRIPTION:;
#CHARTSTYLE:;
#DIFFICULTY:Hard;
#METER:9;
#RADARVALUES:0.808678,1.000000,0.470558,0.365210,0.056186,687.000000,67.000000,52.000000,0.000000,0.000000,0.000000,0.000000,0.000000,0.808678,1.000000,0.470558,0.365210,0.056186,687.000000,67.000000,52.000000,0.000000,0.000000,0.000000,0.000000,0.000000;
#CREDIT:;
#NOTES:
0000
0000
0000
0000
,
0000
0000
0000
0000
,
0000
0000
0000
0000
,
0000
0000
0000
0000
,
0000
0000
0000
0000
,
0000
0000
0000
0000
,
1000
0000
0001
0000
,
1000
0100
0010
0001
1000
0000
0001
0000
,
0100
0000
0010
0100
0010
0000
0100
0000
,
0001
0000
0010
0000
0100
0000
1000
0001
,
1000
0000
0001
0100
0001
0000
1000
0000
,
0010
0000
0100
0001
1000
0000
0010
0000
,
0100
0000
0001
0100
0001
0000
1000
0000
,
0001
0000
0010
0000
0001
0100
0001
0000
,
1000
0000
0100
1000
0100
0000
1000
0000
,
0010
0000
0100
0001
1000
0000
0010
0000
,
1010
0000
1000
0001
0010
0000
0002
0000
,
0100
0103
0010
1000
,
0001
0000
1000
0100
0010
0000
0001
0000
,
1000
0000
0010
0100
0001
0000
0100
0000
,
0101
0000
0001
1000
0100
0000
2000
0000
,
0010
3010
0100
0001
,
1000
0000
0001
0010
0100
0000
1000
0000
,
0001
0000
0100
0010
1000
0000
0010
0000
,
0101
0000
1000
0001
0010
0000
0001
1000
,
0000
0000
0010
0100
0000
0010
0100
0000
0001
0000
0000
0000
1000
0100
1000
0000
,
0001
0000
0000
0000
1000
0000
0001
0000
0100
0000
0010
0100
0000
0100
0010
0000
,
1000
0000
0000
0001
0000
0000
0010
0000
0001
0000
0000
0000
1000
0000
0001
0000
,
0100
0101
1000
1100
,
0001
0010
0001
0000
1000
0000
1001
0000
,
1000
0100
0010
0100
0010
0001
1000
0001
,
1000
0000
0001
0000
0100
0000
0010
0100
,
0001
0000
0101
0000
1100
0000
0001
0010
,
0100
1000
0001
0000
0100
0000
0001
1000
,
0001
0100
0010
1000
,
1010
0000
1001
0000
0010
0000
0001
1000
,
0001
0100
2001
3010
,
0001
1000
0100
0000
1000
0000
1010
0000
,
0001
0100
0010
0100
0010
1000
0001
1000
,
0001
0000
0010
0000
0001
0000
1000
0001
,
0100
0000
0010
0000
0010
0000
1000
0010
,
1000
0010
0100
0000
0001
0000
1000
0000
,
0100
0010
0100
0000
0010
0000
0001
0000
,
1000
0100
0010
0001
0100
0010
1000
0001
,
0100
0010
1000
2100
,
3001
2100
3001
2100
,
3002
0103
0002
1003
,
0010
0100
0001
0010
0100
1000
0001
0100
,
0010
1000
0001
0012
,
1003
0012
1003
0012
,
2003
3010
2000
3001
,
1000
0010
0100
0001
0010
0100
1000
0001
,
0100
0010
1000
2010
,
3001
0012
1003
2001
,
3020
0130
0020
0130
,
0001
0100
0010
1000
0100
0010
0001
1000
,
0010
0100
0001
0102
,
1003
2010
3001
0012
,
2003
0000
3002
0000
,
0103
0010
0100
0010
0100
0000
0010
0000
,
2000
0100
0000
3100
,
0000
0000
1000
0100
1000
0010
0100
0001
,
2000
0001
0000
3001
,
0000
0000
0001
1000
0010
0100
0001
1000
,
0002
0010
0000
0013
,
0000
0000
0001
0010
0100
1000
0001
0100
,
0020
0100
0000
0130
,
0000
0000
0010
0100
0001
0010
0100
1000
,
0010
0100
0010
0001
,
0010
0000
0100
0010
0100
0001
0010
0100
,
1000
0100
1000
0001
,
1000
0000
0010
1000
0100
0010
0001
1000
,
0001
0100
0001
1000
,
0001
0000
0010
0001
0010
0100
1000
0001
,
0100
0001
1000
0001
,
0100
0000
0010
1000
0100
0000
0010
0000
,
1001
0000
0000
0000
0001
0000
0000
0000
1000
0100
1000
0000
0001
0000
0000
0000
,
1000
0100
0010
0100
0010
0001
1000
0001
1000
0000
0001
0000
0100
0000
0000
0001
,
0000
0000
1000
0000
1000
0000
0000
0001
0100
0001
0100
0000
0010
0000
0000
1000
,
0100
0000
0010
0000
0001
0000
0100
0000
0010
0000
1000
0000
0001
0000
0010
0001
,
1000
0010
1002
0103
,
1000
0001
0010
0000
0001
0000
0101
0000
,
1000
0010
0100
0010
0100
0001
1000
0001
,
1000
0000
0100
0000
1000
0000
0001
1000
,
0010
0000
0100
0000
0100
0000
0001
0100
,
0001
0100
0010
0000
1000
0000
0001
0000
,
0010
0100
0010
0000
0100
0000
1000
0000
,
0001
0010
0100
1000
0010
0100
0001
1000
,
1020
0130
1020
0130
,
0010
1000
0100
0000
0010
0000
1001
0000
,
0001
0010
0100
1000
0001
0100
0010
1000
,
0001
0000
0100
0000
0010
0000
0100
0001
,
1000
0000
1010
0000
0011
0000
1000
0100
,
0010
0001
1000
0000
0001
0000
0100
0010
,
0100
0000
0101
0000
1100
0000
0001
0010
,
0100
0000
0110
0000
0011
0000
1000
0001
,
0010
0001
2100
3001
,
1000
0010
0100
0000
0001
0000
1001
0000
,
1000
0100
0010
0001
0100
0010
1000
0001
,
0100
0000
0101
0000
1100
0000
0001
0010
,
0100
0000
0110
0000
0110
0000
0010
0001
,
0010
0001
1000
0000
0010
0000
1000
0010
,
1000
0000
0001
0100
0001
0000
1000
0000
,
0001
0010
0100
1000
0001
0100
0010
1000
,
0001
0000
0100
0010
0100
0000
0001
0100
,
0001
0000
1000
0100
1000
0000
0001
0000
,
2001
3010
1002
0013
,
0001
0010
0100
1000
0001
0000
0100
0000
,
0010
0000
1000
0010
1000
0000
0001
1000
,
0001
0000
0100
0001
0100
0000
0001
0000
,
2001
3100
1002
0103
,
0001
0010
0100
1000
0001
0000
0100
0000
,
0010
1000
0010
1000
0100
0000
0010
0001
,
0010
0001
0100
0000
0010
1000
0010
1000
,
0200
0310
0200
0310
,
0001
0010
0100
1000
0001
0000
0100
0000
,
0010
1000
0010
1000
0001
0000
0010
0001
,
0010
0001
1000
0000
0001
1000
0001
1000
,
0020
0130
0020
0130
,
0001
0010
0100
1000
0001
0000
0100
0000
,
0101
0000
1000
0000
0000
0001
0100
0000
,
0101
0110
1010
1100
,
1002
0013
2001
3010
,
1010
0000
0110
0000
1001
0000
1000
0001
,
0010
0000
0001
0000
0000
1000
0010
0000
,
1010
0110
0101
0011
,
2001
3100
1002
0103
,
0101
0000
0110
0000
1001
0000
0001
1000
,
0010
0000
0100
0000
0001
1000
0001
0000
,
0200
0320
2030
3001
,
2100
3001
0102
1003
,
0001
0010
0100
0000
1000
0000
0010
0100
,
0000
0000
0010
0000
1000
0001
1000
0000
,
0020
0230
0302
1003
,
0001
0100
0010
1000
0100
0010
0001
1000
,
0010
0100
0002
0000
,
1003
0000
0000
0000
;

//---------------dance-double - ----------------
#NOTEDATA:;
#CHARTNAME:;
#STEPSTYPE:dance-double;
#DESCRIPTION:;
#CHARTSTYLE:;
#DIFFICULTY:Challenge;
#METER:9;
#RADARVALUES:0.802658,1.000000,0.456512,0.470558,0.056186,668.000000,65.000000,67.000000,0.000000,0.000000,0.000000,0.000000,0.000000,0.802658,1.000000,0.456512,0.470558,0.056186,668.000000,65.000000,67.000000,0.000000,0.000000,0.000000,0.000000,0.000000;
#CREDIT:Ben Speirs;
#NOTES:
00000000
00000000
00000000
00000000
,
00000000
00000000
00000000
00000000
,
00000000
00000000
00000000
00000000
,
00000000
00000000
00000000
00000000
,
00000000
00000000
00000000
00000000
,
00000000
00000000
00000000
00000000
,
00010000
00000000
00010000
00000000
,
00001000
00010000
00000100
00001000
00000010
00000000
00000100
00000000
,
00000001
00000000
00001000
00000100
00001000
00000000
00000001
00000000
,
00000100
00000000
00000010
00000000
00001000
00000000
00000001
00000010
,
00000001
00000000
00001000
00000010
00001000
00000000
00000001
00000000
,
00000100
00000000
00000010
00001000
00000100
00000000
00010000
00000000
,
00001000
00000000
00010000
00001000
00010000
00000000
00001000
00100000
,
00001000
00100000
00010000
10000000
,
00100000
00000000
01000000
00100000
01000000
00000000
00010000
00000000
,
10000000
00000000
00100000
10000000
00010000
00000000
00100000
00000000
,
00010000
00000000
01000000
00100000
01000000
00000000
00200000
00000000
,
10000000
10300000
00100000
10000000
,
01000000
00000000
00100000
01000000
00100000
00000000
00020000
00000000
,
00100000
00130000
00010000
00100000
,
00001000
00000000
00010000
00001000
00010000
00000000
00000200
00000000
,
00001000
00001300
00000010
00001000
,
00000001
00000000
00000100
00000010
00000100
00000000
00000001
00000000
,
00001000
00000100
00000010
00000001
00000100
00000000
00000010
00000000
,
00001010
00000000
00001000
00000100
00001100
00000000
00000100
00010000
,
00000000
00000000
00001000
00010000
00000000
00010000
00001000
00000000
00200000
00000000
00000000
00000000
00310000
01000000
00010000
00000000
,
20000000
00000000
00000000
00000000
30100000
00000000
10000000
00000000
01000000
00000000
01000000
00100000
00000000
00100000
00010000
00000000
,
01000000
00000000
00000000
00010000
00000000
00000000
00100000
00000000
00002000
00000000
00000000
00000000
00003000
00000000
00000000
00000000
,
00101000
00100000
00110000
00100000
,
00001000
00100000
00010000
00000000
00100000
00000000
00101000
00000000
,
00100000
00001000
00010000
00001000
00010000
00000100
00001000
00000010
,
00000100
00000000
00000010
00000000
00001010
00000000
00001000
00000010
,
00000100
00000000
00000101
00000000
00001100
00000000
00000001
00000010
,
00000100
00001000
00000001
00000000
00000100
00000000
00000010
00000000
,
00001000
00001100
00010000
00010100
,
00001000
00000000
00101000
00000000
00100000
00000000
00010000
01000000
,
00100000
10000000
10020000
01030000
,
00010000
00100000
01000000
00000000
10000000
00000000
11000000
00000000
,
00010000
01000000
00010000
01000000
00100000
10000000
00100000
10000000
,
01000000
00000000
00100000
00000000
00010000
00000000
01000000
00100000
,
01000000
00000000
00010000
00000000
00100000
00000000
00010000
00100000
,
00001000
00010000
00000100
00000000
00001000
00000000
00000010
00000000
,
00000100
00000010
00001000
00000001
,
00001000
00000100
00000010
00000001
00000100
00000000
00000010
00000000
,
00001000
00000100
00000010
00001002
,
00000103
00002001
00003100
00001002
,
00000203
00000310
00000200
00000310
,
00000100
00000001
00000010
00000100
00001000
00000010
00000100
00001000
,
00010000
00001000
00010000
00012000
,
00013000
00021000
00031000
00012000
,
00203000
00301000
00200000
00310000
,
00100000
00010000
01000000
00100000
10000000
01000000
00100000
00010000
,
10000000
00100000
01000000
02100000
,
03010000
01200000
10300000
01100000
,
10020000
01030000
20000000
31000000
,
00010000
00100000
01000000
10000000
00100000
01000000
00010000
00100000
,
00001000
00010000
00001000
00021000
,
00030100
00012000
00103000
00001000
,
00020000
00000000
00032000
00000000
,
00013000
00001000
00100000
00010000
01000000
00000000
00100000
00000000
,
20000000
01000000
00000000
31000000
,
00000000
00000000
10000000
01000000
00100000
00010000
01000000
00100000
,
02000000
00010000
00000000
03010000
,
00000000
00000000
01000000
00010000
00100000
00001000
00010000
00000100
,
00002000
00000100
00000000
00003100
,
00000000
00000000
00001000
00000100
00000010
00000001
00000100
00000010
,
00000200
00000001
00000000
00000301
,
00000000
00000000
00000001
00000100
00000010
00001000
00000100
00000010
,
00000001
00000100
00000001
00000010
,
00000001
00000000
00000100
00000001
00000100
00000000
00000010
00001000
,
00000100
00010000
00000100
00001000
,
00000100
00000000
00010000
00001000
00010000
00000000
00001000
00100000
,
00010000
01000000
00010000
00100000
,
00010000
00000000
01000000
00010000
10000000
00000000
01000000
10000000
,
00100000
01000000
00100000
10000000
,
00100000
00000000
01000000
00100000
01000000
00000000
00010000
00000000
,
20010000
00000000
00000000
00000000
30020000
00000000
00000000
00000000
01030000
00100000
01000000
00000000
00200000
00000000
00000000
00000000
,
10300000
01000000
10000000
01000000
00100000
01000000
00100000
00010000
10000000
00000000
00100000
00000000
01000000
00000000
00000000
00010000
,
00000000
00000000
00100000
00000000
00100000
00000000
00000000
00010000
00100000
00001000
00100000
00000000
00001000
00000000
00000000
00010000
,
00001000
00000000
00010000
00000000
00000100
00000000
00001000
00000000
00000010
00000000
00000100
00000000
00000001
00000000
00001000
00000100
,
00000010
00000001
00002001
00003010
,
00001000
00000100
00000010
00000000
00000001
00000000
00000011
00000000
,
00001000
00000010
00001000
00000010
00000100
00000001
00000100
00000001
,
00000010
00000000
00000100
00000000
00001000
00000000
00000010
00000100
,
00000010
00000000
00001000
00000000
00000100
00000000
00001000
00000100
,
00010000
00001000
00100000
00000000
00010000
00000000
01000000
00000000
,
00100000
01000000
00010000
10000000
,
00010000
00100000
01000000
10000000
00100000
00000000
01000000
00010000
,
01010000
01000000
01100000
01000000
,
00100000
10000000
01000000
00000000
10000000
00000000
10010000
00000000
,
10000000
01000000
00100000
00010000
01000000
00100000
00010000
00001000
,
00100000
00000000
00010000
00000000
00110000
00000000
00100000
00001000
,
00010000
00000000
00011000
00000000
00010100
00000000
00000100
00001000
,
00000010
00000100
00000001
00000000
00001000
00000000
00000010
00001000
,
00000100
00001100
00000110
00000011
,
00001001
00000000
00001010
00000000
00000101
00000000
00000001
00000100
,
00000010
00001000
00001200
00010300
,
00000100
00010000
00001000
00000000
00100000
00000000
00101000
00000000
,
00001000
00010000
00100000
00010000
00100000
10000000
01000000
00100000
,
01000000
00000000
00100000
00000000
00010000
00000000
00100000
00010000
,
10000000
00000000
11000000
00000000
01010000
00000000
10000000
01000000
,
00100000
00010000
01000000
00000000
01100000
00000000
00100000
10000000
,
01000000
10000000
00010000
01000000
,
00010000
00100000
00001000
00010000
00000100
00000000
00001000
00000010
,
00001000
00000100
00000010
00001002
,
00000103
00002001
00003100
00001002
,
00000203
00000310
00000200
00000310
,
00000100
00000001
00000010
00000100
00001000
00000010
00000100
00001000
,
00010000
00001000
00010000
00012000
,
00013000
00021000
00031000
00012000
,
00203000
00301000
00200000
00310000
,
00100000
00010000
01000000
00100000
10000000
01000000
00100000
00010000
,
10000000
01000000
10000000
01000000
00100000
00000000
00010000
01000000
,
00010000
01000000
00100000
00000000
10000000
01000000
00100000
00000000
,
02200000
03300000
20020000
30030000
,
00010000
01000000
00100000
10000000
01000000
00100000
00010000
01000000
,
00001000
00010000
00001000
00010000
00000100
00000000
00010000
00001000
,
00010000
00001000
00100000
00000000
00001000
00010000
00000100
00000000
,
00020200
00030300
00202000
00303000
,
00001000
00100000
00001000
00010000
00000100
00001000
00000010
00000100
,
00000001
00000000
00000100
00000000
00000000
00000001
00000100
00000000
,
00000110
00001010
00010100
00011000
,
00210000
00000000
00302000
00000000
,
00103000
00001000
00100000
00000000
00010000
00000000
01000000
00100000
,
10000000
00000000
00010000
00000000
00000000
10000000
01000000
00000000
,
11000000
01100000
00110000
00101000
,
00012000
00000000
00023000
00000000
,
00030100
00001000
00000010
00000000
00000100
00000000
00000001
00001000
,
00000010
00000000
00000100
00000000
00000001
00000100
00001000
00000000
,
00020000
00032000
00023000
00032000
,
00203000
00310000
00200000
00310000
,
00100000
00010000
10000000
00000000
00100000
00000000
10000000
01000000
,
00010000
00000000
01000000
00000000
10000000
00100000
00010000
00000000
,
00002000
00023000
00032000
00023000
,
00030100
00001000
00000010
00000100
00000001
00000010
00000100
00001000
,
00000010
00000100
00000002
00000000
,
00001003
00000000
00000000
00000000
;

//---------------dance-single - ----------------
#NOTEDATA:;
#CHARTNAME:;
#STEPSTYPE:dance-single;
#DESCRIPTION:;
#CHARTSTYLE:;
#DIFFICULTY:Medium;
#METER:7;
#RADARVALUES:0.470558,0.668614,0.182605,0.133442,0.000000,424.000000,26.000000,19.000000,0.000000,0.000000,0.000000,0.000000,0.000000,0.470558,0.668614,0.182605,0.133442,0.000000,424.000000,26.000000,19.000000,0.000000,0.000000,0.000000,0.000000,0.000000;
#CREDIT:Ben Speirs;
#NOTES:
// measure 0
0000
0000
0000
0000
,  // measure 1
0000
0000
0000
0000
,  // measure 2
0000
0000
0000
0000
,  // measure 3
0000
0000
0000
0000
,  // measure 4
0000
0000
0000
0000
,  // measure 5
0000
0000
0000
0000
,  // measure 6
0010
0000
0010
0000
,  // measure 7
2002
0000
0000
3003
,  // measure 8
1000
0000
0000
0100
0000
0000
1000
0000
,  // measure 9
0001
0000
1000
0000
,  // measure 10
0001
0000
0000
0100
0000
0000
0001
0000
,  // measure 11
1000
0000
0000
0010
0100
0000
0001
0000
,  // measure 12
1000
0000
0000
0010
0000
0000
1000
0000
,  // measure 13
0001
0000
1000
0000
,  // measure 14
0001
0000
0000
0010
0000
0000
0001
0000
,  // measure 15
1000
0000
0000
0010
0100
0000
0001
0000
,  // measure 16
1000
0100
1000
0001
,  // measure 17
1000
0000
0010
0000
,  // measure 18
1000
0100
0010
0001
,  // measure 19
0100
0000
0000
0001
1000
0000
0000
0000
,  // measure 20
0001
0100
0010
1000
,  // measure 21
0001
0000
1000
0000
,  // measure 22
0001
0010
0100
1000
,  // measure 23
0001
0100
0100
0010
,  // measure 24
2000
3100
0002
0013
,  // measure 25
0001
0000
0010
0001
0200
0000
0310
0000
,  // measure 26
2000
3010
0002
0013
,  // measure 27
0001
0010
0100
1000
0001
0000
0000
0000
,  // measure 28
1100
0000
0101
0000
,  // measure 29
1000
0001
1000
0000
0001
0000
0000
0000
,  // measure 30
1000
0100
0010
0001
,  // measure 31
0100
0100
0010
1000
,  // measure 32
0001
0000
1001
0000
,  // measure 33
1000
0010
0100
0000
,  // measure 34
0001
0010
0100
1000
,  // measure 35
0001
0000
0100
0000
0010
0000
1000
0001
,  // measure 36
1000
0000
1001
0000
,  // measure 37
0001
0100
0001
0000
1000
0000
0000
0000
,  // measure 38
0001
0010
0100
1000
,  // measure 39
0001
0100
0010
1000
,  // measure 40
0001
1000
1000
0000
,  // measure 41
0100
1000
0100
0000
1000
0000
0000
0000
,  // measure 42
0100
1000
0010
0000
,  // measure 43
1010
0000
0011
0000
,  // measure 44
0100
0000
0000
1001
,  // measure 45
0000
0110
0000
1001
,  // measure 46
2000
0000
3002
0000
,  // measure 47
0103
0010
0100
0000
0001
0000
1000
0100
,  // measure 48
1000
0000
0000
1100
,  // measure 49
0000
0101
0000
1100
,  // measure 50
0002
0000
2003
0000
,  // measure 51
3010
0100
0010
0000
1000
0000
0010
0100
,  // measure 52
0010
0000
0000
0110
,  // measure 53
0000
0110
0000
0001
,  // measure 54
0200
0000
0320
0000
,  // measure 55
1030
0001
1000
0000
0001
0000
1000
0100
,  // measure 56
1000
0000
0000
1100
,  // measure 57
0000
0011
0000
1000
,  // measure 58
0002
0000
2003
0000
,  // measure 59
3010
0000
0000
0000
,  // measure 60
0000
1000
0000
1000
,  // measure 61
0000
0100
0010
0001
,  // measure 62
0000
0100
0000
0100
,  // measure 63
0000
0001
0100
0010
,  // measure 64
0000
1000
0000
1000
,  // measure 65
0000
0010
1000
0100
,  // measure 66
0000
0010
0000
0010
,  // measure 67
0000
0001
0010
0100
,  // measure 68
1000
0001
1000
0001
,  // measure 69
0000
0100
0000
0100
,  // measure 70
0010
1000
0010
1000
,  // measure 71
0000
0100
0000
0100
,  // measure 72
0010
0001
0010
0001
,  // measure 73
0000
0100
0000
0100
,  // measure 74
0001
1000
0001
1000
,  // measure 75
0000
0010
1000
0001
,  // measure 76
0200
0300
0020
0030
,  // measure 77
1000
0100
0001
0010
,  // measure 78
2000
3000
0002
0003
,  // measure 79
0100
0100
0010
0010
,  // measure 80
1000
0000
1001
0000
,  // measure 81
0001
0100
0001
0000
1000
0000
0000
0000
,  // measure 82
0001
0010
0100
1000
,  // measure 83
0010
0100
0001
1000
,  // measure 84
0001
0100
0100
0000
,  // measure 85
0001
1000
0001
0000
1000
0000
0000
0000
,  // measure 86
0001
0010
0100
1000
,  // measure 87
0010
0100
0010
0000
,  // measure 88
0110
0000
1001
0000
,  // measure 89
1000
0100
1000
0000
0001
0000
0000
0000
,  // measure 90
1000
0100
0010
0001
,  // measure 91
0100
0010
1000
0000
,  // measure 92
0001
0010
0100
0000
,  // measure 93
0010
0001
0100
0000
,  // measure 94
0001
0100
0010
1000
,  // measure 95
0001
0000
0010
0000
0100
0000
1000
0001
,  // measure 96
1000
0000
1010
0000
,  // measure 97
0001
0010
0001
0000
0010
0000
0000
0000
,  // measure 98
0001
0010
0100
1000
,  // measure 99
0010
0100
0001
1000
,  // measure 100
0001
0100
0100
0000
,  // measure 101
0001
1000
0001
0000
1000
0000
0000
0000
,  // measure 102
0001
0010
0100
1000
,  // measure 103
0010
0100
0001
0000
,  // measure 104
1000
0100
0010
0001
,  // measure 105
0100
0010
1000
0001
,  // measure 106
0010
1000
0010
0001
,  // measure 107
0100
0010
1000
0000
,  // measure 108
0001
1000
0010
0100
,  // measure 109
0001
1000
0001
0010
,  // measure 110
0100
1000
0100
0001
,  // measure 111
0100
0010
0001
0000
,  // measure 112
0100
0001
0010
0100
,  // measure 113
1000
0001
0100
0010
,  // measure 114
1010
0000
0011
0000
,  // measure 115
0001
1000
0001
0000
1000
0000
0010
0100
,  // measure 116
0010
0000
0100
0010
,  // measure 117
1000
0100
0010
0001
,  // measure 118
0011
0000
1010
0000
,  // measure 119
0001
1000
0001
0000
1000
0000
0010
0100
,  // measure 120
0010
0000
0000
1000
,  // measure 121
0100
0010
0001
1000
,  // measure 122
0010
0000
0100
0000
,  // measure 123
0001
1000
0001
0000
1000
0000
0010
0100
,  // measure 124
0010
0000
0000
0000
,  // measure 125
0100
0001
0010
0100
,  // measure 126
1000
0000
0001
0000
,  // measure 127
1000
0100
1000
0000
0010
0000
0100
0010
,  // measure 128
0100
0000
0000
0001
,  // measure 129
0100
0010
1000
0100
,  // measure 130
0010
0000
0001
0000
,  // measure 131
1000
0100
1000
0000
0010
0000
1000
0001
,  // measure 132
1000
0000
0000
0001
,  // measure 133
1000
0010
0100
0001
,  // measure 134
1000
0000
0001
0000
,  // measure 135
0010
0001
0100
0000
,  // measure 136
1001
0000
0000
0000
;

//---------------dance-single - ----------------
#NOTEDATA:;
#CHARTNAME:;
#STEPSTYPE:dance-single;
#DESCRIPTION:;
#CHARTSTYLE:;
#DIFFICULTY:Easy;
#METER:4;
#RADARVALUES:0.259861,0.429824,0.014047,0.091302,0.000000,244.000000,2.000000,13.000000,0.000000,0.000000,0.000000,0.000000,0.000000,0.259861,0.429824,0.014047,0.091302,0.000000,244.000000,2.000000,13.000000,0.000000,0.000000,0.000000,0.000000,0.000000;
#CREDIT:Ben Speirs;
#NOTES:
0000
0000
0000
0000
,
0000
0000
0000
0000
,
0000
0000
0000
0000
,
0000
0000
0000
0000
,
0000
0000
0000
0000
,
0000
0000
0000
0000
,
0001
0000
0001
0000
,
0200
0000
0300
0000
,
0001
0000
0001
0000
,
0100
0000
0001
0000
,
1000
0000
1000
0000
,
0100
0000
1000
0000
,
0010
0000
0010
0000
,
0100
0000
0010
0000
,
1000
0000
1000
0000
,
0100
0010
0001
0000
,
0100
0000
0100
0000
,
0001
0000
1000
0000
,
0010
0000
0010
0000
,
1000
0000
0001
0000
,
0010
0000
0010
0000
,
0001
0000
1000
0000
,
0010
0000
0010
0000
,
1000
0100
0010
0000
,
0200
0300
2000
3000
,
0010
1000
0002
0003
,
0010
0001
0100
0100
,
0010
0010
0010
0000
,
1000
0000
0000
0000
,
0001
0000
0000
0000
,
0100
0000
0010
0000
,
0100
0000
0001
0000
,
1000
0000
0000
0000
,
1000
0000
0000
0000
,
0001
0001
0001
0000
,
1000
1000
1000
0000
,
0010
0000
0010
0000
,
0100
0000
0100
0000
,
0001
0000
1000
0000
,
0100
0000
0100
0000
,
0010
0000
0010
0000
,
0001
0000
1000
0000
,
0010
0010
0010
0000
,
0100
0100
0100
0000
,
0002
0000
0003
0000
,
0001
0000
0001
0000
,
0100
0000
0100
0000
,
0010
0100
0010
0000
,
2000
0000
3000
0000
,
0100
0000
0100
0000
,
1000
0000
1000
0000
,
0010
1000
0010
0000
,
2000
0000
3000
0000
,
0001
0000
0001
0000
,
0100
0000
0100
0000
,
0001
1000
0001
0000
,
0200
0000
0300
0000
,
0010
0000
0010
0000
,
0200
0000
0000
0300
,
0000
0000
0000
0000
,
0002
0000
0000
0000
,
0003
0000
0100
0000
,
0020
0000
0000
0000
,
0030
0000
1000
0000
,
0200
0000
0000
0000
,
0300
0000
1000
0000
,
0020
0000
0000
0000
,
0030
0000
0100
0000
,
0001
1000
0000
1000
,
0000
0001
0000
0001
,
0000
0100
0000
0100
,
0000
0010
0000
0010
,
0000
1000
0000
0100
,
0000
0010
0000
0001
,
0000
0100
0000
0100
,
0000
0010
0000
1000
,
1000
0000
0000
0000
,
0001
0000
0000
0000
,
0100
0000
0100
0000
,
0010
1000
0100
0010
,
0001
0000
0000
0000
,
1000
0000
0000
0000
,
0010
0000
1000
0000
,
0100
0000
0010
0000
,
0001
0000
0000
0000
,
1000
0000
0000
0000
,
0010
0010
0010
0000
,
0100
0100
0100
0000
,
0000
0000
1001
0000
,
0000
0000
0001
0000
,
0000
0000
1000
0000
,
0010
0100
0010
0000
,
0000
0000
1000
0000
,
0000
0000
0001
0000
,
0000
0000
1000
0000
,
0100
0100
0100
0000
,
0000
0000
1001
0000
,
0000
0000
1000
0000
,
0000
0000
0001
0000
,
1000
0010
1000
0000
,
0000
0000
0001
0000
,
0000
0000
1000
0000
,
0100
0100
0100
0000
,
0010
0010
0010
0000
,
0001
0000
0000
0000
,
0100
0000
0100
0000
,
0010
0000
0010
0000
,
1000
0010
1000
0000
,
0100
0000
0000
0000
,
1000
0000
1000
0000
,
0001
0000
0001
0000
,
0100
0001
0100
0000
,
0010
0000
0000
0000
,
0100
0000
0100
0000
,
0001
0000
0001
0000
,
1000
0100
1000
0000
,
0001
0000
0000
0000
,
0010
0000
0010
0000
,
0001
0000
0001
0000
,
1000
0001
1000
0000
,
0000
0000
0000
0000
,
0010
0000
1000
0000
,
0100
0000
0100
0000
,
0010
0000
0010
0000
,
0000
0000
0001
0000
,
1000
0000
1000
0000
,
0010
0000
0010
0000
,
0100
0010
0100
0000
,
0001
0000
0000
0000
,
0100
0100
0100
0000
,
0010
0000
0010
0000
,
1000
0000
0001
0000
,
0000
0000
0000
0000
,
1000
1000
1000
0000
,
0100
0000
0100
0000
,
1000
0000
0001
0000
,
0100
0000
0000
0000
;

//---------------dance-single - ----------------
#NOTEDATA:;
#CHARTNAME:;
#STEPSTYPE:dance-single;
#DESCRIPTION:;
#CHARTSTYLE:;
#DIFFICULTY:Beginner;
#METER:2;
#RADARVALUES:0.125415,0.238791,0.007023,0.000000,0.000000,124.000000,1.000000,0.000000,0.000000,0.000000,0.000000,0.000000,0.000000,0.125415,0.238791,0.007023,0.000000,0.000000,124.000000,1.000000,0.000000,0.000000,0.000000,0.000000,0.000000,0.000000;
#CREDIT:Ben Speirs;
#NOTES:
0000
0000
0000
0000
,
0000
0000
0000
0000
,
0000
0000
0000
0000
,
0000
0000
0000
0000
,
0000
0000
0000
0000
,
0000
0000
0000
0000
,
0000
0000
0000
0000
,
0000
0000
0000
0000
,
1000
0000
1000
0000
,
1000
0000
0000
0000
,
1000
0000
0000
0000
,
0000
0000
0000
0000
,
0001
0000
0001
0000
,
0001
0000
0000
0000
,
0001
0000
0000
0000
,
0000
0000
0000
0000
,
0100
0000
0100
0000
,
0100
0000
0000
0000
,
0100
0000
0000
0000
,
0000
0000
0000
0000
,
0001
0000
0001
0000
,
0001
0000
0000
0000
,
0001
0000
0000
0000
,
0000
0000
0000
0000
,
1000
0000
0000
0000
,
0010
0000
0100
0000
,
0001
0000
0000
0000
,
1000
0000
0000
0000
,
0010
0000
0000
0000
,
0000
0000
0000
0000
,
0100
0000
0100
0000
,
0100
0000
0000
0000
,
0001
0000
0000
0000
,
0000
0000
0000
0000
,
1000
0000
1000
0000
,
1000
0000
0000
0000
,
0010
0000
0000
0000
,
0000
0000
0000
0000
,
1000
0000
1000
0000
,
1000
0000
0000
0000
,
0100
0000
0000
0000
,
0000
0000
0000
0000
,
0010
0000
0010
0000
,
0010
0000
0000
0000
,
0001
0000
0000
0000
,
0001
0000
0000
0000
,
0100
0000
0100
0000
,
0100
0000
0000
0000
,
0001
0000
0000
0000
,
1000
0000
0000
0000
,
0010
0000
0010
0000
,
0010
0000
0000
0000
,
1000
0000
0000
0000
,
0001
0000
0000
0000
,
1000
0000
1000
0000
,
1000
0000
0000
0000
,
0100
0000
0000
0000
,
1000
0000
0000
0000
,
0010
0000
0000
0000
,
0000
0000
0000
0000
,
1001
0000
0000
0000
,
0000
0000
0000
0000
,
0100
0000
0000
0000
,
0000
0000
0000
0000
,
0001
0000
0000
0000
,
0000
0000
0000
0000
,
1000
0000
0000
0000
,
0000
0000
0000
0000
,
0010
0000
0000
0000
,
0010
0000
0000
0000
,
0100
0000
0000
0000
,
0100
0000
0000
0000
,
0001
0000
0000
0000
,
0001
0000
0000
0000
,
1000
0000
0000
0000
,
1000
0000
0000
0000
,
0010
0000
0000
0000
,
0000
0000
0000
0000
,
0100
0000
0000
0000
,
0001
0000
1000
0000
,
0010
0000
0000
0000
,
0000
0000
0000
0000
,
1000
0000
1000
0000
,
1000
0000
0000
0000
,
0100
0000
0000
0000
,
0000
0000
0000
0000
,
0010
0000
0010
0000
,
0010
0000
0000
0000
,
0001
0000
0000
0000
,
0000
0000
0000
0000
,
0100
0000
0000
0000
,
0010
0000
0000
0000
,
1000
0000
0000
0000
,
0000
0000
0000
0000
,
0100
0000
0100
0000
,
0100
0000
0100
0000
,
0100
0000
0000
0000
,
0000
0000
0000
0000
,
1000
0000
0000
0000
,
0001
0000
0000
0000
,
0100
0000
0000
0000
,
0000
0000
0000
0000
,
0010
0000
0010
0000
,
0010
0000
0010
0000
,
0010
0000
0000
0000
,
0000
0000
0000
0000
,
1000
0000
1000
0000
,
0000
0000
0000
0000
,
0100
0000
0000
0000
,
0000
0000
0000
0000
,
0010
0000
0010
0000
,
0000
0000
0000
0000
,
0001
0000
0000
0000
,
0000
0000
0000
0000
,
0100
0000
0100
0000
,
0000
0000
0000
0000
,
0010
0000
0000
0000
,
0000
0000
0000
0000
,
1000
0000
1000
0000
,
0000
0000
0000
0000
,
0001
0000
0000
0000
,
0000
0000
0000
0000
,
0100
0000
0000
0000
,
0100
0000
0000
0000
,
0010
0000
0000
0000
,
0000
0000
0000
0000
,
1000
0000
0000
0000
,
1000
0000
0000
0000
,
0100
0000
0000
0000
,
0000
0000
0000
0000
,
1000
0000
1000
0000
,
1000
0000
1000
0000
,
1000
0000
0000
0000
,
0000
0000
0000
0000
,
0001
0000
0001
0000
,
0001
0000
0001
0000
,
0001
0000
0000
0000
;
