#TITLE:Taking Over Me;
#ARTIST:Lawson;
#FILE:Taking Over Me.mp3;
#BPM:114.000;
#GAP:40;
#SAMPLESTART:50.560;
#SAMPLELENGTH:14.540;
#SINGLE:BEGINNER:1:
00000000
00000000
00000000
00000000
80000000
40004000
20000000
80008000
A0000000
40002000
80000000
60002000
60000000
40008000
40000000
20004000
B0000000
80008000
40000000
60006000
20000000
80008000
20000000
40004000
B0000000
00000000
80808000
00000000
20202000
00000000
60006000
60000000
40004000
40000000
80000000
00000000
20002000
20202000
20002000
20202000
00000000
B0008000
40002000
40006000
80000000
A0008000
60004000
80004000
20202000
;
#SINGLE:ANOTHER:5:
00000000
00000000
00000000
00000000
8!807!401!2020
40628000
2!203!609!8080
60824000
A0206040
20204082
60208080
40604000
10204080
20628000
A0206040
20862000
8!80A04060
20804060
4!40108040
60802000
8!80902080
20642000
4!40104080
40826000
A0B0A000
00424240
B0A0B000
00686860
B0A0B000
00282820
8!80004!4080
2!20001000
4!40006!6040
8!80009000
B!B0000000
000000B0
80804020
806!602!2030
80206040
204!408!8040
2!2000A000
80602280
4!401!20A!8080
60408840
6!609!80A!2020
80602280
4!407!80A!2020
80406640
2!20A!809!6000
30000000
;
#SINGLE:MANIAC:8:
00000000
00000000
00000000
00000000
(800820026!60003000)
80402860
(400460062!2000A000)
60208420
04242020
(0080608060060060)
02828080
(0040204020020020)
00482840
68288!8080
00862840
24822!2020
04246820
08628260
08642480
02842460
00284240
82688!8080
00682860
48288!8070
(400460062!20000000)
28262840
(600640042!20000000)
28682460
(400460062!20000000)
28264820
7!7070B!B0B0
A!20324080
1!1010A!A0A0
B!40728460
A!A0000000
000000A0
60204040
80482000
80406060
80642!2080
80808!80A0
B0B0A0A0
6!60384!4040
10109090
20846!6060
70301090
B0A0B!B0B0
109070B0
A0301!4000
6!6000B000
;
#SINGLE:BASIC:3:
00000000
00000000
00000000
00000000
80402000
40402000
40608000
60602000
8!80008000
20802000
6!60006000
20602000
80402000
40208000
60802000
80204000
B0002000
80004000
60004000
20208060
40006000
40008000
40002000
40402000
80808000
00604060
20202000
00406040
20202000
00406040
80002000
B0000000
60004000
A0000000
40000000
40000000
60606060
60606000
40404040
40400000
00000000
80402020
40808000
40602020
60808000
20208060
20208000
40402080
80204000
B0000000
;
