#VERSION:0.82;
#TITLE:True;
#SUBTITLE:(NickB's Wicked Turmoil Mix);
#ARTIST:SGX ft. Sekhret Hush remixed by NickB;
#TITLETRANSLIT:;
#SUBTITLETRANSLIT:;
#ARTISTTRANSLIT:;
#GENRE:Electronic;
#ORIGIN:;
#CREDIT:;
#BANNER:True (Nick B's Wicked Turmoil Mix).png;
#BACKGROUND:True (Nick B's Wicked Turmoil Mix)-bg.png;
#PREVIEWVID:;
#JACKET:jacket.png;
#CDIMAGE:;
#DISCIMAGE:;
#LYRICSPATH:;
#CDTITLE:;
#MUSIC:True (NickB's Wicked Turmoil Mix).ogg;
#OFFSET:-0.018000;
#SAMPLESTART:103.394989;
#SAMPLELENGTH:13.714000;
#SELECTABLE:YES;
#BPMS:0.000=130.000,
156.000=131.000,
160.000=130.000,
256.000=260.000,
257.000=130.000;
#STOPS:256.000=0.240;
#DELAYS:;
#WARPS:;
#TIMESIGNATURES:0.000=4=4;
#TICKCOUNTS:0.000=4;
#COMBOS:0.000=1;
#SPEEDS:0.000=1.000=0.000=0;
#SCROLLS:0.000=1.000;
#FAKES:;
#LABELS:0.000=Song Start;
#BGCHANGES:8.000=True (NickB's Wicked Turmoil Mix).avi=1.000=0=0=1=====,
99999=-nosongbg-=1.000=0=0=0 // don't automatically add -songbackground-
;
#KEYSOUNDS:;
#ATTACKS:
;

//---------------dance-single - ----------------
#NOTEDATA:;
#CHARTNAME:;
#STEPSTYPE:dance-single;
#DESCRIPTION:;
#CHARTSTYLE:;
#DIFFICULTY:Hard;
#METER:9;
#RADARVALUES:0.548804,0.685283,0.093874,0.086653,0.259960,507.000000,13.000000,12.000000,0.000000,0.000000,0.000000,0.000000,0.000000,0.548804,0.685283,0.093874,0.086653,0.259960,507.000000,13.000000,12.000000,0.000000,0.000000,0.000000,0.000000,0.000000;
#CREDIT:Ben Speirs;
#NOTES:
0000
0000
0000
0000
,
0000
0000
0000
0000
,
0000
0000
0000
0000
,
0000
0000
0000
0000
,
1000
0100
1000
0001
0001
0100
0001
0000
,
0100
0010
0100
0010
1000
0100
0010
0000
,
0001
0010
0001
1000
1000
0010
1000
0000
,
0010
0100
0010
0100
0001
0010
0100
0000
,
2100
0100
0010
3001
,
1000
0001
0000
0100
0000
0010
0000
1000
,
0002
0010
0100
1003
,
0001
1000
0000
0010
0000
0100
0000
0001
,
0010
0001
0000
1000
0100
1000
0000
0001
,
0100
0001
0000
0100
0010
0100
0000
0010
,
1000
0100
0000
0100
0010
0001
0000
0001
,
1000
1000
0010
0010
0100
0100
0001
0000
,
1000
0100
0010
0000
1000
0100
0010
0000
,
0001
0000
1000
0000
0001
0000
0000
0000
1000
0000
0000
0010
0000
0000
0100
0000
,
0001
0010
0100
0000
0001
0010
0100
0000
,
0010
0000
0001
0000
0100
0000
0000
0000
0001
0000
0000
0100
0000
0000
0010
0000
,
1000
0001
0100
0000
1000
0001
0100
0000
,
0001
0000
1000
0000
0100
0000
0000
0000
1000
0000
0000
0100
0000
0000
0010
0000
,
0001
0100
0010
0000
0001
0100
0010
0000
,
0100
0001
1000
0010
0100
0001
1000
0000
,
0100
1000
0010
0010
0100
0001
1000
1000
,
0100
0000
1000
0000
0001
0000
0001
0000
0010
0000
0000
0010
0001
0000
0100
0000
,
0010
1000
0100
0100
1000
0001
0100
0100
,
0010
0000
1000
0000
0001
0000
0001
0000
1000
0000
0000
1000
0010
0000
0100
0000
,
0001
0010
0011
0000
0001
1000
1001
0000
,
1000
0000
0100
0000
1100
0000
0000
0000
0100
0000
0000
1000
0010
0000
0100
0000
,
0001
0010
0011
0000
1000
0010
1010
0000
,
0001
1000
0010
0100
0001
1000
0100
0000
,
1000
0000
1000
0000
0100
1000
0000
0000
0010
0000
1000
0000
0002
0000
0000
0000
,
0003
0000
0010
0000
0001
1000
0010
0000
,
0100
0000
0100
0000
0001
1000
0000
0000
0010
0000
1000
0000
0200
0000
0000
0000
,
0300
0000
1000
0100
0010
0000
0001
0000
,
0100
0000
0001
0000
1000
0001
0000
0000
0100
0000
0010
0000
1000
0000
0000
0000
,
0100
0000
2000
0000
3010
0010
0010
0000
,
0100
0000
0100
0000
0001
1000
0000
0000
0010
0000
1000
0000
0100
0000
0000
0000
,
1000
0001
0010
0000
0001
0001
0100
0000
,
0001
1000
0001
1000
0000
0000
0001
0000
1000
0000
0010
0000
0100
0000
0001
0000
,
1000
0010
0100
0000
0001
0010
0100
0000
,
1000
0001
1000
0001
0000
0000
1000
0000
0100
0000
0010
0000
0001
0000
1000
0000
,
0100
0000
0010
0000
0001
0000
0000
0000
0100
0000
0000
0100
0001
0000
1000
0000
,
0010
0100
0010
0100
0000
0000
0001
0000
1000
0000
0010
0000
0100
0000
0001
0000
,
1000
0010
0100
0000
0001
1000
0010
0000
,
1000
0100
1000
0100
0000
0000
1000
0000
0010
0000
0100
0000
0001
0000
1000
0000
,
0001
0100
0001
0100
0001
0100
0001
0100
0001
0100
0001
0100
0010
0000
0000
0000
,
0202
0000
0000
0303
,
0100
0001
1000
0000
0010
1000
0100
0000
,
2200
0000
0000
3300
,
0100
1000
0010
0000
1000
0001
0010
0000
,
0001
0000
0020
0000
1000
0000
1000
0000
1000
0000
1000
0030
0010
0000
0001
0000
,
0000
1000
0000
0010
0000
0100
0000
0001
,
1000
0000
0200
0000
0001
0000
0001
0000
0001
0000
0001
0300
0100
0000
1000
0000
,
0010
0100
0010
0000
0100
0000
0001
0000
1000
0100
1000
0000
0001
0000
0000
0000
,
1000
0000
0010
0000
0100
0000
0001
0000
1000
0000
0010
0000
1000
0001
1000
0000
,
0010
0000
1000
0000
0100
0000
0010
0000
0001
0000
0000
0001
0100
0000
0010
0000
,
1000
0000
0001
0000
0100
0000
0010
0000
1000
0000
0001
0000
0010
0100
0010
0000
,
0001
0000
1000
0000
0010
0000
0100
0000
0001
0000
0000
0001
0100
0000
0010
0000
,
1000
0100
1000
0100
1000
0100
1000
0100
1000
0100
1000
0100
1000
0100
1000
0000
,
0000
1100
0000
0101
0000
0011
0000
1010
,
0001
0010
0001
0010
0001
0010
0001
0010
0001
0010
0001
0010
0001
0010
0001
0000
,
0100
0000
0010
0000
0100
0000
0010
0000
0100
0000
0010
0000
1000
0001
1000
0001
,
0100
0000
1001
1000
0100
1000
0010
0100
,
0001
0000
0010
0000
0100
0000
0010
0000
0001
0000
0100
0010
0100
0000
0001
0000
,
1000
0010
1000
0010
1000
0010
1000
0010
1000
0010
1000
0010
1000
0010
1000
0000
,
0001
0000
1000
0000
0010
0000
0100
0000
0001
0000
0010
0100
0010
0000
0001
0000
,
0100
0001
0100
0001
0100
0001
0100
0001
0100
0001
0100
0001
0100
0001
0100
0000
,
0001
0000
0100
0000
0010
0000
1000
0000
0001
0000
1000
0100
1000
0000
0010
0000
,
0100
0010
0100
0010
0100
0010
0100
0010
0100
0010
0100
0010
0100
0010
0100
0000
,
0010
0000
0100
0000
0001
0000
0010
0000
0100
0000
0000
1000
0001
0000
1000
0000
,
0020
0000
0001
0000
1000
0000
0100
0100
,
0130
0000
0000
0000
;

//---------------dance-single - ----------------
#NOTEDATA:;
#CHARTNAME:;
#STEPSTYPE:dance-single;
#DESCRIPTION:;
#CHARTSTYLE:;
#DIFFICULTY:Challenge;
#METER:11;
#RADARVALUES:0.820111,0.896139,0.166085,0.122759,0.902638,755.000000,23.000000,17.000000,0.000000,0.000000,0.000000,0.000000,0.000000,0.820111,0.896139,0.166085,0.122759,0.902638,755.000000,23.000000,17.000000,0.000000,0.000000,0.000000,0.000000,0.000000;
#CREDIT:Ben Speirs;
#NOTES:
0000
0000
0000
0000
,
0000
0000
0000
0000
,
0000
0000
0000
0000
,
0000
0000
0000
0000
,
1000
0000
0100
0010
0001
0000
1000
0001
1000
0000
0001
0000
0100
0000
0000
0000
,
0001
0000
0100
0000
0010
0100
0010
0000
1000
0000
0010
1000
0010
0000
1000
0000
,
0001
0000
0010
0100
1000
0000
0001
1000
0001
0000
1000
0000
0010
0000
0010
0000
,
1000
0100
0000
0100
0010
0001
1000
0001
1000
0001
0100
0000
0110
0000
0110
0000
,
2002
0000
0000
3003
,
0010
1000
0001
0010
0001
1000
0010
0100
,
2002
0000
0000
3003
,
0001
1000
0010
1000
0100
0010
0001
0100
,
0010
0000
1000
0000
0000
0000
1000
0000
0100
0010
0001
0000
0000
0000
0001
0000
,
0100
0010
1000
0000
0000
0000
1000
0000
0010
0100
0010
0000
0100
0010
0100
0000
,
0001
0000
0010
0000
0000
0000
0010
0000
0100
1000
0010
0000
0000
0000
0010
0000
,
0100
0001
0100
0000
0010
0100
0010
0000
1000
0100
1000
0000
0001
0000
0000
0000
,
1000
0100
0010
0001
1000
0000
0000
0000
1000
0100
0010
0001
1000
0000
0000
0000
,
0001
0000
0100
0000
0100
0000
0010
0000
1000
0000
0100
1000
0100
0000
0010
0000
,
0001
0010
0100
1000
0001
0000
0000
0000
0001
0010
0100
1000
0001
0000
0000
0000
,
1000
0000
0001
0000
0001
0000
0100
0000
0010
0000
1000
0100
1000
0000
0001
0000
,
0100
0010
0100
0001
1000
0000
0000
0000
0010
0100
0010
1000
0001
0000
0000
0000
,
1000
0000
0010
0000
0100
0000
0001
0000
1000
0000
0010
0100
0010
0000
1000
0000
,
0001
0100
0010
1000
0001
0000
0000
0000
0001
0010
0100
1000
0001
0000
0000
0000
,
0001
0010
0000
0010
0100
1000
0001
1000
0001
1000
0010
0000
0110
0000
0110
0000
,
0001
0100
0010
0000
0100
0001
0010
0000
0001
0100
0010
0000
0100
0001
0010
0000
,
0001
0000
0100
0000
0010
0000
1000
0000
0001
0000
0010
0100
0010
0000
0001
0000
,
1000
0100
0010
0000
0100
1000
0010
0000
1000
0100
0010
0000
0100
1000
0010
0000
,
1000
0000
0100
0000
0010
0000
0001
0000
1000
0000
0010
0100
0010
0000
0100
0000
,
0001
1000
0010
0000
1000
0001
0010
0000
0001
1000
0100
0000
1000
0001
0100
0000
,
0001
0000
1000
0000
0010
0000
0100
0000
0001
0000
1000
0100
1000
0000
0001
0000
,
1000
0100
0001
0000
0001
0100
1000
0000
1000
0010
0001
0000
0001
0010
1000
0000
,
0100
0000
1000
0000
0010
0000
0100
0000
0001
0000
0000
0001
0100
0000
0010
0000
,
1000
0100
1000
0001
0100
0001
1000
0100
1000
0001
0100
0001
1000
0100
1000
0001
,
0100
0001
1000
0100
1000
0001
0100
0001
1000
0100
1000
0001
0100
0001
1000
0010
,
1000
0001
0010
0001
1000
0010
1000
0001
0010
0001
1000
0010
1000
0001
0010
0001
,
1000
0010
1000
0001
0010
0001
1000
0010
1000
0001
0010
0001
1000
0100
1000
0010
,
0100
0010
1000
0100
1000
0010
0100
0010
1000
0100
1000
0010
0100
0010
1000
0100
,
1000
0010
0100
0010
1000
0100
1000
0010
0100
0010
1000
0100
1000
0010
0100
0010
,
1000
0001
1000
0010
0100
0010
1000
0001
1000
0010
0100
0010
1000
0001
1000
0010
,
0100
0010
1000
0001
1000
0010
0100
0010
1000
0001
1000
0010
0100
0010
1000
0001
,
1000
0100
0010
0001
1000
0000
0001
0000
0100
0001
0100
0001
1000
0000
0101
0000
,
0100
0001
0100
0001
1000
0000
0001
0000
0100
0010
0100
0000
0001
0000
1000
0000
,
0001
0010
0100
1000
0001
0000
0100
0000
0010
1000
0010
1000
0100
0000
1010
0000
,
0010
1000
0010
1000
0100
0000
1010
0000
0010
1000
0010
1000
0100
0000
1000
0000
,
0001
0010
0100
1000
0001
0000
1000
0000
0010
1000
0010
1000
0001
0000
1010
0000
,
0010
1000
0010
1000
0001
0000
1000
0000
0010
0100
0010
0000
1000
0000
0001
0000
,
1000
0100
1000
0100
0010
0001
0010
0001
1000
0010
1000
0010
0100
0001
0100
0001
,
1000
0100
0010
0001
0100
0010
1000
0100
0010
0001
0100
0010
1000
0001
0100
0010
,
2000
0100
0100
0100
0100
0100
0100
3100
,
0000
1100
0000
0110
0000
0011
0000
1001
,
0002
0100
0100
0100
0100
0100
0100
0103
,
0000
0101
0000
0110
0000
1010
0000
1001
,
0002
0100
0203
0010
0320
1000
2030
3100
,
0000
1100
0000
0110
0000
0011
0000
1001
,
2000
0010
3020
0100
0230
0001
0302
0013
,
0001
0000
1000
0000
0001
0000
1000
0000
0001
0000
1000
0000
0001
0000
1000
0000
0010
0100
0010
0000
0100
0010
0100
0000
0002
0000
0000
0000
2003
0000
0000
0000
,
3100
1000
0100
0010
0100
1000
0100
0010
0100
1000
0100
0010
0100
1000
0010
0000
,
0100
0000
0001
0000
1000
0000
0010
0000
0100
0000
0001
1000
0010
0000
0100
0000
,
0001
0100
0001
0010
0001
0100
0001
0010
0001
0100
0001
0010
0001
0100
0001
0000
,
0010
0000
0100
0000
0010
0000
0001
0000
1000
0000
0010
0100
0001
0000
0100
0000
,
0010
1000
0010
0100
0010
1000
0010
0100
0010
1000
0010
0100
0010
1000
0010
0000
,
1000
0000
0100
0000
1000
0000
0010
0000
0100
0000
0001
1000
0010
0000
0100
0000
,
0001
0010
0100
1000
0001
0100
0010
1000
0100
0010
0001
1000
0010
0100
0001
0000
,
0100
0000
0010
1000
0010
0000
0100
0001
0100
0000
0001
0000
1000
0100
0010
0001
,
0100
0000
0000
0000
0001
0100
0010
1000
0100
0010
0001
0100
0010
1000
0100
0010
,
0001
0000
1000
0010
1000
0000
0001
0100
0001
0000
1000
0100
1000
0000
0001
0000
,
1000
0100
0010
0001
0100
0010
1000
0100
0010
0001
1000
0010
0100
0001
1000
0000
,
0010
0000
1000
0100
1000
0000
0001
0100
0001
0000
1000
0001
1000
0000
0010
0000
,
1000
0100
0010
0001
0100
0010
0100
0001
0010
0100
0010
0001
1000
0010
0100
0000
,
0001
0000
1000
0010
1000
0000
0001
1000
0001
0000
1000
0100
1000
0000
0001
0000
,
1000
0100
0010
0001
0100
0010
1000
0100
0010
0001
0100
0010
1000
0001
1000
0001
,
0100
0010
0100
0010
0100
0010
0100
0010
0100
0000
0010
1000
0001
0000
1000
0000
,
2100
0000
0001
0000
0010
0000
0001
0100
,
3010
0000
0000
0000
;

//---------------dance-double - ----------------
#NOTEDATA:;
#CHARTNAME:;
#STEPSTYPE:dance-double;
#DESCRIPTION:;
#CHARTSTYLE:;
#DIFFICULTY:Challenge;
#METER:9;
#RADARVALUES:0.626173,0.711640,0.093874,0.064990,0.458540,585.000000,13.000000,9.000000,0.000000,0.000000,0.000000,0.000000,0.000000,0.626173,0.711640,0.093874,0.064990,0.458540,585.000000,13.000000,9.000000,0.000000,0.000000,0.000000,0.000000,0.000000;
#CREDIT:Ben Speirs;
#NOTES:
00000000
00000000
00000000
00000000
,
00000000
00000000
00000000
00000000
,
00000000
00000000
00000000
00000000
,
00000000
00000000
00000000
00000000
,
00010000
00000000
00001000
00000000
00010000
00000000
00000100
00001000
00000100
00000000
00001000
00000000
00000010
00000000
00000000
00000000
,
00000100
00000010
00001000
00001000
00000100
00010000
00010000
00000000
,
00001000
00000000
00010000
00000000
00001000
00000000
00100000
00010000
00100000
00000000
00010000
00000000
01000000
00000000
00000000
00000000
,
00100000
00000000
01000000
00000000
00010000
00000000
00010000
00000000
00100000
01000000
00100000
00000000
00010000
00000000
01000000
00000000
,
00002000
00000100
00010000
00000100
,
00010000
00000000
00000100
00000000
00013000
00001000
00010000
00001000
,
00020000
00100000
00001000
00100000
,
00001000
00000000
00100000
00000000
00031000
00010000
00001000
00010000
,
00100000
10000000
00000000
10000000
01000000
00010000
00000000
00010000
,
00001000
00000100
00000000
00000100
00000001
00000010
00000000
00000010
,
00001000
00010000
00000000
00010000
00100000
10000000
00000000
10000000
,
01000000
01000000
00100000
00100000
00010000
10000000
00100000
00000000
,
10000000
01000000
10000000
00000000
00010000
00000000
00000000
00000000
10000000
01000000
10000000
00000000
00010000
00000000
00000000
00000000
,
10000000
00000000
00100000
00000000
01000000
00000000
00010000
00000000
00100000
00000000
00000000
00100000
00010000
00000000
00100000
00000000
,
00001000
00010000
00001000
00000000
00010000
00000000
00000000
00000000
00001000
00010000
00001000
00000000
00010000
00000000
00000000
00000000
,
00001000
00000000
00010000
00000000
00000100
00000000
00001000
00000000
00000010
00000000
00000000
00000010
00001000
00000000
00000001
00000000
,
00001000
00000100
00001000
00000000
00000001
00000000
00000000
00000000
00001000
00000100
00001000
00000000
00000001
00000000
00000000
00000000
,
00001000
00000000
00000010
00000000
00000100
00000000
00000001
00000000
00000010
00000000
00000000
00000010
00000100
00000000
00001000
00000000
,
00000010
00000100
00001000
00010000
00100000
10000000
01000000
00100000
,
00010000
10000000
00010000
10000000
00010000
10000000
00010000
00000000
10000000
00000000
00100000
00000000
00100000
00000000
00100000
00000000
,
10000000
01000000
11000000
01000000
00100000
01000000
01100000
00100000
,
00010000
00000000
01000000
00000000
01010000
00000000
01000000
00000000
00010000
00000000
00000000
01000000
00010000
00000000
01000000
00000000
,
00001000
00010000
00011000
00010000
00000100
00001000
00001100
00001000
,
00000010
00000000
00000100
00000000
00000110
00000000
00000100
00000000
00000010
00000000
00000000
00001000
00000100
00000000
00000010
00000000
,
00000001
00001000
00000001
00001000
00000010
00000000
00000100
00000000
00000001
00000010
00000001
00000000
00000100
00000000
00000010
00000000
,
00001000
00000100
00000100
00010000
00001000
00100000
00010000
01000000
,
00100000
10000000
00100000
10000000
00010000
00000000
00100000
00000000
00010000
10000000
00010000
00000000
10000000
00000000
00100000
00000000
,
01000000
00000000
00010000
00000000
00010000
00000000
00100000
00000000
00010000
00100000
00010000
00000000
00100000
00000000
00001000
00000000
,
00010000
00001000
00000000
00010000
00001000
00000000
00010000
00001000
00000000
00010000
00001000
00000000
00010000
00001000
00000000
00010000
,
00001000
00000000
00010000
00001000
00000000
00010000
00001000
00000000
00010000
00001000
00000000
00010000
00001000
00000000
00010000
00001000
,
00100000
00001000
00000000
00100000
00001000
00000000
00100000
00001000
00000000
00100000
00001000
00000000
00100000
00001000
00000000
00100000
,
00001000
00000000
00100000
00001000
00000000
00100000
00001000
00000000
00100000
00001000
00000000
00100000
00001000
00000000
00100000
00001000
,
00010000
00000100
00000000
00010000
00000100
00000000
00010000
00000100
00000000
00010000
00000100
00000000
00010000
00000100
00000000
00010000
,
00000100
00000000
00010000
00000100
00000000
00010000
00000100
00000000
00010000
00000100
00000000
00010000
00000100
00000000
00010000
00000100
,
00010000
00001000
00000000
00010000
00001000
00000000
00010000
00001000
00000000
00010000
00001000
00000000
00010000
00001000
00000000
00010000
,
00001000
00000000
00010000
00001000
00000000
00010000
00001000
00000000
00010000
00001000
00000000
00010000
00001000
00000000
00010000
00000000
,
00000100
00010000
00000100
00010000
00000000
00000000
00000100
00000000
00001000
00000000
00000010
00000100
00000010
00000000
00000100
00000000
,
00000001
00000000
00000010
00000100
00000010
00000000
00000001
00000000
00001000
00000000
00000010
00000000
00000100
00000000
00000000
00000000
,
00000001
00001000
00000001
00001000
00000000
00000000
00000001
00000000
00000100
00000000
00000010
00001000
00000010
00000000
00001000
00000000
,
00000100
00000000
00010000
00000100
00010000
00000000
00001000
00000000
00100000
00000000
00100000
00000000
00010000
00000000
00000000
00000000
,
10000000
00100000
10000000
00100000
00000000
00000000
01000000
00000000
00010000
00000000
10000000
00010000
10000000
00000000
00100000
00000000
,
01000000
00000000
00010000
10000000
00010000
00000000
10000000
00000000
01000000
00000000
00100000
00000000
00010000
00000000
00000000
00000000
,
01000000
00010000
01000000
00000000
00100000
00000000
10000000
00000000
01000000
00100000
01000000
00000000
10000000
00000000
00010000
00000000
,
00100000
00010000
00100000
00010000
00100000
00010000
00100000
00010000
00100000
00001000
00100000
00001000
00100000
00001000
00100000
00000000
,
00002000
00010000
00010000
00010000
00010000
00010000
00010000
00013000
,
00000000
00000000
00000000
00000000
,
00020000
00001000
00001000
00001000
00001000
00001000
00001000
00031000
,
00000000
00000000
00000000
00000000
,
00002000
00100000
00100000
00100000
00100000
00100000
00100000
00103000
,
00000000
00000000
00000000
00000000
,
00020000
00000100
00000100
00000100
00000100
00000100
00000100
00030100
,
00011000
00011000
00011000
00011000
,
00001000
00000000
00100000
00000000
00001000
00000000
00100000
00000000
00010000
00000000
00100000
00000000
00001000
00100000
00001000
00000000
,
00100000
00000000
00010000
00000000
01000000
00000000
00100000
00000000
10000000
00000000
01000000
00100000
01000000
00000000
00100000
00000000
,
00010000
00000000
10000000
00000000
00010000
00000000
10000000
00000000
00010000
00000000
10000000
00000000
00100000
10000000
00100000
00000000
,
10000000
00000000
01000000
00000000
00100000
00000000
00010000
00000000
01000000
00000000
00100000
01000000
00100000
00000000
01000000
00000000
,
00010000
00000000
00100000
00000000
00010000
00000000
00100000
00000000
00010000
00000000
00100000
00000000
00001000
00100000
00001000
00000000
,
00100000
00000000
00001000
00000000
00010000
00000000
00000100
00000000
00001000
00000000
00000010
00001000
00000010
00000000
00001000
00000000
,
00000001
00000000
00000100
00000000
00000001
00000000
00000100
00000000
00000001
00000000
00000100
00000000
00000010
00000100
00000010
00000000
,
00000100
00000000
00000001
00000000
00000010
00000000
00000100
00000000
00001000
00000000
00000001
00000000
00000100
00000010
00000100
00000010
,
00001000
00000000
00000000
00000000
00000001
00000100
00000001
00000100
00000001
00000100
00000001
00000100
00000001
00000100
00000001
00000000
,
00000100
00000000
00000010
00000000
00001000
00000000
00000100
00000000
00010000
00000000
00001000
00010000
00001000
00000000
00100000
00000000
,
00010000
00100000
00010000
00100000
00010000
00100000
00010000
00100000
00010000
00100000
00010000
00100000
00010000
00100000
00010000
00000000
,
00100000
00000000
00010000
00000000
01000000
00000000
00100000
00000000
10000000
00000000
01000000
10000000
01000000
00000000
10000000
00000000
,
00100000
01000000
00100000
01000000
00100000
01000000
00100000
01000000
00100000
01000000
00100000
01000000
00100000
01000000
00100000
00000000
,
10000000
00000000
00100000
00000000
01000000
00000000
00010000
00000000
00100000
00000000
00010000
00100000
00010000
00000000
00100000
00000000
,
00001000
00010000
00001000
00010000
00001000
00010000
00001000
00010000
00001000
00010000
00001000
00010000
00001000
00010000
00001000
00010000
,
00000200
00020300
00032000
00103000
,
00011000
00000000
00010100
00000000
00101000
00000000
00010000
00000100
,
01000000
00000000
00000000
00000000
;

//---------------dance-single - ----------------
#NOTEDATA:;
#CHARTNAME:;
#STEPSTYPE:dance-single;
#DESCRIPTION:;
#CHARTSTYLE:;
#DIFFICULTY:Medium;
#METER:6;
#RADARVALUES:0.340423,0.421712,0.129980,0.043327,0.000000,306.000000,18.000000,6.000000,0.000000,0.000000,0.000000,0.000000,0.000000,0.340423,0.421712,0.129980,0.043327,0.000000,306.000000,18.000000,6.000000,0.000000,0.000000,0.000000,0.000000,0.000000;
#CREDIT:Ben Speirs;
#NOTES:
0000
0000
0000
0000
,
0000
0000
0000
0000
,
0000
0000
0000
0000
,
0000
0000
0000
0000
,
0001
0000
1000
0000
0010
0010
0100
0000
,
0000
0000
0001
0000
0100
0010
1000
0000
,
0001
0000
1000
0000
0100
0100
0010
0000
,
0000
0000
0010
0000
0001
1000
0010
0100
,
0002
0000
0003
0000
,
2000
0000
3000
0000
,
0020
0000
0030
0000
,
0200
0000
0300
0000
,
0001
0001
0000
1000
0000
0001
0000
0100
,
0000
0100
0000
0010
0010
0000
0010
0000
,
1000
1000
0000
0100
0000
1000
0000
0001
,
0000
0100
0000
0010
0010
0000
0010
0000
,
1000
0100
1000
0000
0100
1000
0100
0000
,
0000
0000
1000
0000
0010
1000
0001
0000
,
0100
0001
0100
0000
0001
0100
0001
0000
,
0000
0000
0100
0000
0001
1000
0010
0000
,
1000
0001
1000
0000
0001
1000
0001
0000
,
0000
0000
1000
0000
0010
1000
0100
0000
,
0010
0010
0001
1000
,
0010
0100
0001
0000
0010
0001
1000
0000
,
0000
0000
1100
0000
0100
1000
0010
0000
,
0100
0001
1000
0001
,
0000
0000
0101
0000
0100
0001
1000
0000
,
0001
0100
0010
0010
,
0000
0000
1010
0000
1000
0100
0010
0000
,
0001
1000
0010
0010
,
0000
0000
0101
0000
0100
0001
1000
0000
,
0010
1000
0001
0000
0010
0001
0100
0000
,
0010
1000
0010
1000
0010
0000
0000
0000
,
1000
0000
0001
0000
,
1000
0100
1000
0100
1000
0000
0000
0000
,
0100
0000
1000
0000
,
0001
0010
0001
0010
0001
0000
0000
0000
,
0100
0000
0000
0000
0010
0010
0000
0000
,
0100
0001
0100
0001
0100
0000
0000
0000
,
0001
0000
0000
0000
1000
1000
0000
0000
,
0010
1000
0001
0000
0010
0001
1000
0000
,
0010
1000
0001
0000
0000
0000
0000
0000
,
0001
1000
0100
0000
1000
0001
0100
0000
,
0001
1000
0100
0000
1000
1000
0001
0000
,
1000
0100
1000
0000
0001
0100
0001
0000
,
1000
0001
1000
0000
0000
0000
0000
0000
,
0001
0100
0001
0000
1000
0100
1000
0000
,
0001
0010
0100
1000
0010
0100
0001
0000
,
1000
0100
1000
0100
1000
0100
0100
0100
,
0000
0000
0000
0000
,
0001
0100
0001
0100
0001
0100
0100
0100
,
0000
0000
0000
0000
,
1000
0010
1000
0010
1000
0010
0010
0010
,
0000
0000
0000
0000
,
0001
0010
0001
0010
0001
0010
0010
0010
,
0000
0000
0000
0000
,
0011
0000
0110
0000
1100
0000
0001
0001
,
0100
0000
0010
0000
0100
0001
1000
0000
,
1010
1100
0101
0011
,
1001
0000
1001
0000
0100
0100
0000
0000
,
0001
0100
0001
0000
1000
0100
1000
0000
,
0010
0010
1000
0001
,
1001
0110
1001
1001
,
0000
0000
1000
0100
0010
0001
0100
0100
,
0000
0000
1001
0000
0010
1000
0100
0000
,
1000
0001
0100
0000
0001
1000
0010
0000
,
0100
0100
0100
0000
0001
1000
0001
0000
,
2000
3200
0310
0000
,
0001
0010
0001
0000
0100
0001
0100
0000
,
0010
0000
1000
0000
0010
1000
0001
0000
,
1000
1000
0100
0000
0010
0010
0001
0000
,
1000
0100
0010
0000
0001
1000
0010
0000
,
0100
0000
0100
0000
0100
0000
0100
0001
,
1000
0000
0000
0000
;

//---------------dance-single - ----------------
#NOTEDATA:;
#CHARTNAME:;
#STEPSTYPE:dance-single;
#DESCRIPTION:;
#CHARTSTYLE:;
#DIFFICULTY:Easy;
#METER:3;
#RADARVALUES:0.188780,0.263570,0.014442,0.064990,0.000000,172.000000,2.000000,9.000000,0.000000,0.000000,0.000000,0.000000,0.000000,0.188780,0.263570,0.014442,0.064990,0.000000,172.000000,2.000000,9.000000,0.000000,0.000000,0.000000,0.000000,0.000000;
#CREDIT:Ben Speirs;
#NOTES:
// measure 0
0000
0000
0000
0000
,  // measure 1
0000
0000
0000
0000
,  // measure 2
0000
0000
0000
0000
,  // measure 3
0000
0000
0000
0000
,  // measure 4
1000
0001
0100
0100
,  // measure 5
0000
0001
0010
0000
,  // measure 6
0001
1000
0010
0010
,  // measure 7
0000
1000
0100
0000
,  // measure 8
2000
0000
3000
0000
,  // measure 9
0002
0000
0003
0000
,  // measure 10
0200
0000
0300
0000
,  // measure 11
0020
0000
0030
0000
,  // measure 12
1000
1000
0000
0000
,  // measure 13
0001
0001
0000
0000
,  // measure 14
0100
0100
0000
0000
,  // measure 15
0010
0100
0010
0000
,  // measure 16
1000
0010
1000
0010
,  // measure 17
0000
0000
0000
0000
,  // measure 18
1000
0100
1000
0100
,  // measure 19
0000
0000
0000
0000
,  // measure 20
0010
0001
0010
0001
,  // measure 21
0000
0000
0000
0000
,  // measure 22
0001
0000
1000
0000
,  // measure 23
0010
0100
0001
0000
,  // measure 24
1000
0100
1000
0010
,  // measure 25
1000
0000
0000
0000
,  // measure 26
0001
0100
0001
0010
,  // measure 27
0001
0000
0000
0000
,  // measure 28
0100
0100
0010
0010
,  // measure 29
1000
0000
0000
0000
,  // measure 30
0100
0100
0010
0010
,  // measure 31
0001
0000
1000
0000
,  // measure 32
0000
0010
1000
0001
,  // measure 33
0000
0000
0100
0000
,  // measure 34
0000
0001
1000
0100
,  // measure 35
0000
0000
1000
0000
,  // measure 36
0000
0010
0100
0001
,  // measure 37
0000
0000
0100
0000
,  // measure 38
0000
0001
1000
0100
,  // measure 39
0000
0000
1000
0000
,  // measure 40
0010
0010
0100
0100
,  // measure 41
0010
0010
0000
0000
,  // measure 42
1000
1000
0100
0100
,  // measure 43
1000
1000
0100
0000
,  // measure 44
1000
1000
0001
0001
,  // measure 45
1000
1000
0000
0000
,  // measure 46
0001
0001
0100
0100
,  // measure 47
0010
1000
0100
0010
,  // measure 48
0002
0000
0003
0000
,  // measure 49
0100
0000
0000
0000
,  // measure 50
0020
0000
0030
0000
,  // measure 51
1000
0000
0000
0000
,  // measure 52
2000
0000
3000
0000
,  // measure 53
0100
0000
0000
0000
,  // measure 54
2002
0000
3003
0000
,  // measure 55
0001
1000
0001
1000
,  // measure 56
0010
0010
0100
0100
,  // measure 57
0000
0001
1000
0000
,  // measure 58
0100
0100
1000
1000
,  // measure 59
0000
0001
0010
0000
,  // measure 60
0001
0001
0100
0100
,  // measure 61
0000
0001
1000
0000
,  // measure 62
0010
0010
0010
1000
,  // measure 63
0100
0100
0010
0001
,  // measure 64
0000
0000
0000
0000
,  // measure 65
0001
1000
0010
0000
,  // measure 66
0100
0100
0001
0001
,  // measure 67
1000
0001
0100
0000
,  // measure 68
0010
0010
1000
1000
,  // measure 69
0100
1000
0001
0000
,  // measure 70
0010
0010
0001
0001
,  // measure 71
0100
0001
1000
0000
,  // measure 72
0010
0010
0010
0010
,  // measure 73
1001
0000
0000
0000
;

//---------------dance-single - ----------------
#NOTEDATA:;
#CHARTNAME:;
#STEPSTYPE:dance-single;
#DESCRIPTION:;
#CHARTSTYLE:;
#DIFFICULTY:Beginner;
#METER:2;
#RADARVALUES:0.116569,0.210856,0.086653,0.000000,0.000000,101.000000,12.000000,0.000000,0.000000,0.000000,0.000000,0.000000,0.000000,0.116569,0.210856,0.086653,0.000000,0.000000,101.000000,12.000000,0.000000,0.000000,0.000000,0.000000,0.000000,0.000000;
#CREDIT:Ben Speirs;
#NOTES:
// measure 0
0000
0000
0000
0000
,  // measure 1
0000
0000
0000
0000
,  // measure 2
0000
0000
0000
0000
,  // measure 3
0000
0000
0000
0000
,  // measure 4
0000
0000
0001
0001
,  // measure 5
0000
0000
0100
0000
,  // measure 6
0000
0000
0010
0010
,  // measure 7
0000
0000
1000
0000
,  // measure 8
1000
0000
0000
0000
,  // measure 9
0100
0000
0000
0000
,  // measure 10
0010
0000
0000
0000
,  // measure 11
0001
0000
0000
0000
,  // measure 12
0100
0000
0000
0000
,  // measure 13
0010
0000
0000
0000
,  // measure 14
1000
0000
0000
0000
,  // measure 15
0001
0000
0000
0000
,  // measure 16
1000
1000
1000
0000
,  // measure 17
0000
0000
0000
0000
,  // measure 18
0010
0010
0010
0000
,  // measure 19
0000
0000
0000
0000
,  // measure 20
1000
1000
1000
0000
,  // measure 21
0000
0000
0000
0000
,  // measure 22
0001
0001
0001
0000
,  // measure 23
0000
0000
0000
0000
,  // measure 24
0000
0100
0000
0100
,  // measure 25
0000
0100
0000
0000
,  // measure 26
0000
0001
0000
0001
,  // measure 27
0000
0001
0000
0000
,  // measure 28
0000
1000
0000
1000
,  // measure 29
0000
1000
0000
0000
,  // measure 30
0000
0010
0000
0010
,  // measure 31
0000
0010
0000
0000
,  // measure 32
0100
0100
0000
0100
,  // measure 33
0000
0000
0000
0000
,  // measure 34
0001
0001
0000
0001
,  // measure 35
0000
0000
0000
0000
,  // measure 36
1000
1000
0000
1000
,  // measure 37
0000
0000
0000
0000
,  // measure 38
0010
0010
0000
0010
,  // measure 39
0000
0000
0000
0000
,  // measure 40
1001
0000
1001
0000
,  // measure 41
1001
0000
0000
0000
,  // measure 42
0110
0000
0110
0000
,  // measure 43
0110
0000
0000
0000
,  // measure 44
1000
0000
1000
0000
,  // measure 45
0001
0000
0001
0000
,  // measure 46
0100
0100
0100
0000
,  // measure 47
0100
0100
0100
0000
,  // measure 48
1001
0000
0000
0000
,  // measure 49
0000
0000
0000
0000
,  // measure 50
1001
0000
0000
0000
,  // measure 51
0000
0000
0000
0000
,  // measure 52
0110
0000
0000
0000
,  // measure 53
0000
0000
0000
0000
,  // measure 54
1001
0000
0000
0000
,  // measure 55
0000
0000
0000
0000
,  // measure 56
1000
1000
1000
1000
,  // measure 57
0000
0000
0000
0000
,  // measure 58
0010
0010
0010
0010
,  // measure 59
0000
0000
0000
0000
,  // measure 60
1000
1000
1000
1000
,  // measure 61
0000
0000
0000
0000
,  // measure 62
0001
0001
0001
0001
,  // measure 63
0000
0000
0000
0000
,  // measure 64
0000
0000
0000
0000
,  // measure 65
0000
0000
0000
0000
,  // measure 66
0100
0100
0100
0100
,  // measure 67
0000
0000
0000
0000
,  // measure 68
0010
0010
0010
0010
,  // measure 69
0000
0000
0000
0000
,  // measure 70
1000
1000
1000
1000
,  // measure 71
0000
0000
0000
0000
,  // measure 72
0001
0000
0000
1001
,  // measure 73
1001
0000
0000
0000
;
