#TITLE:Spitting Games;
#ARTIST:Snow Patrol;
#FILE:Spitting Games.mp3;
#BPM:145.140;
#GAP:130;
#SAMPLESTART:39.780;
#SAMPLELENGTH:16.360;
#SINGLE:BEGINNER:1:
00000000
00000000
00000000
00000000
80000000
80000000
20000000
20000000
60000000
40000000
20000000
40000000
80000000
40000000
60000000
80000000
60000000
20000000
60000000
40000000
20000000
40000000
80000000
40000000
60000000
60000000
40000000
40000000
20000000
20000000
80000000
80000000
60000000
20000000
60000000
40000000
80000000
40000000
20000000
40000000
80000000
20000000
60000000
80000000
20000000
40000000
60000000
20000000
60006000
60000000
60000000
00000000
20002000
20000000
20000000
00000000
80008000
80000000
80000000
00000000
40004000
40000000
40000000
00000000
B0000000
20000000
80000000
20000000
40000000
60000000
;
#SINGLE:ANOTHER:3:
00000000
00000000
00000000
00000000
A!A00000A0
3!30000030
7!70000070
6!6004!400B0
20406000
80602000
80402000
40602000
80402000
40208000
60802000
80602000
80402000
40602000
60208000
40804000
60208000
40208000
60408000
20804000
7!70000070
B!B00000B0
A!A00000A0
6!6002!20030
B!B00000B0
1!10000010
A!A00000A0
2!2004!40010
20406000
40602000
80208000
40802000
60402000
80602000
80206000
80204000
80406000
40602000
80406000
40208000
60408000
20804000
20806000
40802000
64604060
20802080
40000000
00000000
28206020
80406080
20000000
00000000
86806040
80208040
20000000
00000000
48402040
80208040
60000000
00000000
B!B00000B0
A!A00000A0
3!30000030
4!4008!80070
1!10000010
9!90000090
;
#SINGLE:MANIAC:6:
00000000
00000000
00000000
00000000
6!62!2000030
8!82!20000A0
4!42!2000010
28!806!60090
B0402460
20604620
80406820
40604280
60408260
40608240
80406420
80604620
8070B020
80203010
80403010
8040B030
804010A0
6040B030
80407030
4060B030
8!82!20000A0
6!64!40000B0
4!42!2000010
64!406!600B0
8!84!4000070
6!62!2000030
6!68!8000090
24!408!80070
20302460
20104820
80704680
20A08640
80B02640
80B04280
60308260
80906820
46408!80A0
62608!80A0
42408!80A0
84802!2030
42408!8070
68602!20A0
26208!8070
64204646
40807030
00640602
80206080
20408020
80407030
00620402
60802040
80208040
60401030
00620804
60402080
60408020
8040B030
00280402
80608020
40804646
2!26!6000030
8!82!20000A0
6!64!40000B0
42!208!800A0
6!62!2000030
4!42!2000010
;
#SINGLE:BASIC:2:
00000000
00000000
00000000
00000000
8!80800000
4!40400000
6!60600000
4!40400000
20002000
40004000
60006000
80008000
60006000
20002000
80008000
40004000
20002000
40004000
80008000
20002000
60006000
80008000
60006000
20002000
8!80800000
2!20200000
6!60600000
8!80800000
6!60600000
2!20200000
8!80800000
4!40400000
80008000
40004000
60006000
40004000
20002000
80008000
60006000
40004000
80008000
40004000
20002000
80008000
60006000
20002000
80008000
40004000
B0002000
40008000
20002000
20002000
B0008000
60002000
80008000
80008000
B0002000
40008000
40004000
40004000
B0002000
80006000
20002000
20002000
6!60600000
4!40400000
8!80800000
4!40400000
2!20200000
B!B0B00000
;
#SINGLE:SMANIAC:8:
00000000
00000000
62!28040A0
424!46!600B0
84!42080B0
28!84060A0
46!6208030
826!68!80090
623010B0
307!4010B!60
30A!20301!40
74246284
841030B0
70A!20301!40
B03!60B0A!20
32428428
623010B0
A0301090
70B!60301!40
14846824
82A03010
B0A0903!20
A01!40B0A!20
32842860
46!6208030
48!8204090
26!6204090
248!82!200A0
42!2806010
64!4802070
26!6804090
246!62!20030
84828684
82848682
84286242
84286480
24282628
24282428
62842482
64286480
623010B0
A0301090
42624828
46848648
70301090
A0B0A030
24284262
(4080206028282828)
26424826
40842864
8!80A04!4010
(6!6000300046464646)
48264848
20684864
2!20106!6030
4!40108828
42462826
40624264
8!80A04!4010
6!60304484
28648264
80262428
4!40108!80A0
(4!4000B00086868686)
28!84060A0
42!2608030
46!6204090
284!46!600B0
28!84060A0
46!68020B0
;
