#VERSION:0.82;
#TITLE:Still Breathing;
#SUBTITLE:;
#ARTIST:Green Day;
#TITLETRANSLIT:;
#SUBTITLETRANSLIT:;
#ARTISTTRANSLIT:;
#GENRE:Alternative;
#ORIGIN:;
#CREDIT:;
#BANNER:Still Breathing.png;
#BACKGROUND:Still Breathing-bg.png;
#PREVIEWVID:;
#JACKET:jacket.png;
#CDIMAGE:;
#DISCIMAGE:;
#LYRICSPATH:;
#CDTITLE:cdtitle.png;
#MUSIC:Still Breathing.ogg;
#OFFSET:-0.650000;
#SAMPLESTART:104.963234;
#SAMPLELENGTH:17.959999;
#SELECTABLE:YES;
#BPMS:0.000=150.000;
#STOPS:100.000=1.207,
257.000=1.205;
#DELAYS:;
#WARPS:;
#TIMESIGNATURES:0.000=4=4;
#TICKCOUNTS:0.000=4;
#COMBOS:0.000=1;
#SPEEDS:0.000=1.000=0.000=0;
#SCROLLS:0.000=1.000;
#FAKES:;
#LABELS:0.000=Song Start;
#BGCHANGES:4.000=Still Breathing.avi=1.000=0=0=1=====,
99999=-nosongbg-=1.000=0=0=0 // don't automatically add -songbackground-
;
#KEYSOUNDS:;
#ATTACKS:
;

//---------------dance-single - ----------------
#NOTEDATA:;
#CHARTNAME:;
#STEPSTYPE:dance-single;
#DESCRIPTION:;
#CHARTSTYLE:;
#DIFFICULTY:Hard;
#METER:8;
#RADARVALUES:0.525557,0.635336,0.207969,0.172112,0.046614,460.000000,29.000000,24.000000,0.000000,0.000000,0.000000,0.000000,0.000000,0.525557,0.635336,0.207969,0.172112,0.046614,460.000000,29.000000,24.000000,0.000000,0.000000,0.000000,0.000000,0.000000;
#CREDIT:Ben Speirs;
#NOTES:
0000
0000
0000
0000
,
0000
0000
0000
0000
,
0000
0000
0000
0000
,
0000
0000
0000
0000
,
0000
0000
0000
0000
,
0000
0000
0000
0000
,
0000
0000
0000
0000
,
0000
0000
0000
0000
,
0000
0000
0000
0000
,
0000
0000
0000
0000
,
1000
0010
0100
0100
,
0010
0000
1000
0010
0100
0000
1001
0000
,
0001
0100
0010
0010
,
0100
0000
0001
0100
0010
0000
1001
0000
,
1000
0000
0010
0100
0010
0000
1000
0000
,
0001
0000
0010
0100
0010
0000
0001
1000
,
0002
0100
0103
0000
,
2000
0100
3100
0000
,
1000
0000
0100
0000
1000
0001
1000
0000
,
0010
0000
1000
0000
0001
0100
0001
0000
,
1000
0000
0001
0010
0001
0010
0100
1000
,
0001
0000
1000
0010
1000
0010
0100
0001
,
1000
0000
0010
1000
0001
0000
0010
0001
,
1000
0000
0100
1000
0001
0000
0100
0000
,
0001
0100
0000
0100
0010
0000
0010
1000
,
0001
0000
1000
0100
1001
0000
0001
0100
,
1001
0000
1000
0010
1001
0000
0001
0010
,
1001
0000
2000
0000
3001
0100
0010
0100
,
0010
0000
1000
0000
0002
0000
0000
0000
0013
0000
0000
0000
0001
1000
0001
1000
,
0001
1000
0020
0000
0130
0001
2000
0000
,
3100
1000
0002
0000
1003
0100
0010
0001
,
1000
0000
0001
0100
0100
0001
1000
1000
,
0001
0010
0010
0000
0001
0010
0100
1000
,
0001
0000
0001
0010
1001
0000
1000
0010
,
1001
0000
0001
0100
1001
0000
1000
0100
,
1001
0000
0002
0000
1003
0010
0100
0010
,
0100
0000
0001
0000
2000
0000
0000
0000
3100
0000
0000
0000
1000
0001
1000
0001
,
1000
0001
0200
0000
0310
1000
0002
0000
,
0013
0001
2000
0000
3001
0010
0100
1000
,
0001
0000
1000
0010
0010
1000
0001
0001
,
1000
0100
0100
0000
1000
0100
0010
0001
,
1000
0000
0001
0001
0010
0001
0100
0100
,
0001
0010
0100
0010
0001
1000
0010
0000
,
1001
0000
1000
1000
0100
1000
0010
0010
,
0100
0010
1000
1000
0100
1000
0010
0000
,
1001
0000
1000
0000
0010
1000
0001
1000
,
0001
0000
1000
0000
0001
0010
0100
0000
,
1000
0010
0200
0000
0301
0000
0100
0010
,
1000
0000
0002
0000
0013
0000
0001
1000
,
0010
0000
1000
1000
0100
0010
0001
0001
,
0100
0001
1000
1000
0010
1000
0001
0000
,
0101
0000
0010
0010
0100
0001
1000
1000
,
0100
1000
0001
0001
0010
0001
1000
0000
,
1100
0000
0001
0000
1000
0100
0010
0001
,
1000
0001
1000
0000
0001
0100
0010
1000
,
0001
1000
0002
0000
0103
0010
2000
0000
,
3010
0000
0100
0000
0010
1000
0100
0100
,
0010
0000
0001
0010
0011
0000
0001
0100
,
0101
0000
1000
0100
1100
0000
1000
0010
,
1010
0000
0002
0000
1003
0010
0100
0000
,
0001
1000
0200
0000
0310
0000
0001
0010
,
0100
0000
1000
0100
0010
0001
0100
0010
,
1000
0001
0010
0001
1000
0010
1000
0001
,
0100
0000
0010
1000
1000
0001
0100
0000
,
0010
1000
0001
0000
1000
0100
1010
0000
,
0001
0100
0011
0000
1000
0010
1100
0000
,
0001
0010
0101
0000
2001
0000
3001
0100
,
0010
0100
0010
1000
0002
0000
1003
0000
,
1000
0001
1000
0001
1000
0000
0010
0100
0020
0000
0000
0000
1030
0000
0001
0000
,
0100
0001
0010
0100
1000
0010
0100
0001
,
1000
0000
0100
0000
0010
0000
0000
0000
0001
0100
0001
0000
0000
0000
1000
0100
,
1000
0000
0000
0000
0001
1000
0001
0000
0000
0000
0100
0000
0100
0000
0001
0000
,
1000
0100
0010
0001
0001
0010
0101
0000
,
1000
0010
1100
0000
0001
0100
0011
0000
,
1000
0100
1010
0000
1002
0000
1003
0010
,
0100
0010
0100
0001
2000
0000
3001
0000
,
0001
1000
0001
1000
0001
0000
0100
0010
0200
0000
0000
0000
0301
0000
1000
0000
,
0010
1000
0100
0010
0001
0100
0010
1000
,
0001
0010
0100
0000
1000
1000
0100
0100
,
0010
0010
0001
1000
1001
0000
0000
0000
,
0000
0000
0001
0100
,
1000
0010
0001
0100
,
0001
1000
0001
0000
1000
0000
0100
0000
,
0001
0010
1000
0100
,
1000
0001
1000
0001
0000
0000
0000
0000
;

//---------------dance-double - ----------------
#NOTEDATA:;
#CHARTNAME:;
#STEPSTYPE:dance-double;
#DESCRIPTION:;
#CHARTSTYLE:;
#DIFFICULTY:Challenge;
#METER:8;
#RADARVALUES:0.514287,0.544573,0.172112,0.057371,0.000000,470.000000,24.000000,8.000000,0.000000,0.000000,0.000000,0.000000,0.000000,0.514287,0.544573,0.172112,0.057371,0.000000,470.000000,24.000000,8.000000,0.000000,0.000000,0.000000,0.000000,0.000000;
#CREDIT:Ben Speirs;
#NOTES:
00000000
00000000
00000000
00000000
,
00000000
00000000
00000000
00000000
,
00000000
00000000
00000000
00000000
,
00000000
00000000
00000000
00000000
,
00000000
00000000
00000000
00000000
,
00000000
00000000
00000000
00000000
,
00000000
00000000
00000000
00000000
,
00000000
00000000
00000000
00000000
,
00000000
00000000
00000000
00000000
,
00000000
00000000
00000000
00000000
,
00000001
00000000
00000100
00000000
00000010
00001000
00000010
00000000
,
00001000
00000000
00000100
00010000
00001000
00000000
00011000
00000000
,
00100000
00000000
00010000
01000000
00010000
00000000
10000000
00000000
,
00100000
00000000
10000000
01000000
00100000
00000000
00010000
00000000
,
10000000
00000000
00100000
01000000
00100000
01000000
00010000
00000000
,
01000000
00000000
00100000
10000000
00100000
10000000
00100000
00000000
,
01000000
00010000
00100000
00001000
,
00010000
00000000
00010000
00000000
00001000
00010000
00000100
00000000
,
00001000
00000100
00001000
00000100
00010000
00000100
00010000
00000000
,
00001000
00010000
00001000
00010000
00001000
00100000
00001000
00000000
,
00200000
00000000
00310000
10000000
00200000
00000000
01300000
00010000
,
10000000
00000000
00100000
00000000
10000000
00010000
01000000
00000000
,
00010000
00000000
00100000
00000000
00001000
00010000
00001000
00000000
,
00010000
00000000
00000100
00001000
00000100
00000000
00001000
00000000
,
00000010
00000100
00000100
00000010
00001000
00000000
00000100
00001000
,
00000001
00000101
00001001
00001100
,
00010100
00000000
00000001
00000000
00001000
00000001
00000010
00000100
,
00001000
00000010
00000100
00000100
00001000
00000100
00000010
00001000
,
00000100
00010000
00001000
00000000
00010000
00000000
00001000
00100000
,
00010000
00000000
00100000
00100000
00010000
01000000
00100000
00100000
,
10000000
00100000
01000000
01000000
00010000
10000000
01000000
01000000
,
00100000
00000000
00010000
01000000
01000000
00010000
10000000
10000000
,
00010000
00100000
00100000
00000000
00010000
00100000
01000000
10000000
,
00010000
11000000
01010000
01001000
,
10010000
00000000
10000000
00100000
01000000
00010000
00100000
00100000
,
00001000
00000000
00010000
00000100
00001000
00000010
00000100
00000001
,
00001000
00000100
00000010
00000010
00000001
00001000
00000010
00000100
,
00000001
00000000
00000100
00000100
00000010
00001000
00000100
00000100
,
00001000
00000001
00001000
00001000
00000010
00001000
00000001
00000001
,
00000010
00000000
00000001
00001000
00001000
00000010
00000100
00000100
,
00001000
00000100
00000100
00000000
00000010
00000000
00000010
00000000
,
00000000
00000000
00000101
00000000
00000010
00000000
00001000
00000100
,
00010000
00001000
00100000
00000000
00010000
10000000
00100000
00000000
,
10010000
00000000
01000000
00000000
00010000
10000000
01000000
00000000
,
00100000
00010000
01000000
00000000
00010000
00100000
00001000
00000000
,
00010000
00000000
00000100
00000000
00001000
00000010
00001000
00000010
,
00000100
00000000
00000010
00000000
00001000
00000100
00010000
00000000
,
00001000
00100000
00010000
00000000
01000000
00000000
00010000
10000000
,
00010000
00000000
01000000
00000000
00100000
00000000
10000000
00100000
,
01000000
00000000
00010000
10000000
00010000
10000000
00100000
01000000
,
00100000
01000000
00010000
10000000
00010000
10000000
01000000
00100000
,
00010000
00000000
00100000
00001000
00100000
00001000
00010000
00001000
,
00010000
00001000
00010000
00000100
00010000
00000100
00001000
00000010
,
00000100
00000000
00000001
00000000
00000100
00000010
00000100
00000010
,
00001000
00000000
00000001
00000000
00001000
00000010
00000100
00000010
,
00000100
00000001
00001000
00000000
00000010
00000000
00000100
00000010
,
00000100
00000000
00000001
00000000
00000010
00000000
00000001
00000010
,
00000001
00000011
00000011
00001001
,
00001001
00001100
00001100
00001001
,
00001001
00000000
00000001
00000100
00000010
00001000
00000100
00010000
,
00001000
00100000
00010000
01000000
00100000
10000000
01000000
00100000
,
00010000
11000000
01010000
00110000
,
10100000
00000000
00010000
00100000
01000000
00000000
10000000
00100000
,
01000000
00000000
00010000
01000000
00001000
00010000
00000100
00001000
,
00000010
00000100
00000100
00000000
00000010
00000100
00001000
00000100
,
00000010
00000100
00000001
00000100
00000010
00001000
00000010
00000100
,
00000010
00000001
00000010
00000100
00000001
00000010
00000100
00001000
,
00000010
00000100
00001000
00010000
00100000
10000000
01000000
00100000
,
00010000
10000000
00100000
01000000
00020000
00000000
01030000
00100000
,
20000000
00000000
30100000
10000000
00020000
00000000
00130000
00010000
,
01000000
00001000
00010000
00000000
00001000
00010000
00010000
00001000
,
00010000
00010000
00001000
00010000
00001000
00000000
00100000
00010000
,
01000000
00100000
10000000
00000000
00100000
10000000
00100000
01000000
,
00100000
00010000
00100000
01000000
00100000
01000000
10000000
01000000
,
00100000
01000000
00010000
01000000
00100000
10000000
01000000
00100000
,
00010000
01000000
00001000
00010000
00000010
00000100
00000001
00000010
,
00000100
00001000
00000001
00000000
00002000
00000000
00003010
00001000
,
00000002
00000000
00000013
00000001
00000200
00000000
00000310
00001000
,
00000001
00001000
00000001
00000000
00000100
00000010
00000010
00001000
,
00000100
00000100
00010000
00001000
00011000
00000000
00000000
00000000
,
00000000
00000000
00000000
00000000
00100000
00001000
00100000
00001000
,
00100000
00001000
00100000
00001000
00010000
00000100
00010000
00000100
,
00010000
00000100
00010000
00000100
00001000
00000010
00001000
00000010
,
00001000
00000010
00001000
00000010
00000100
00000001
00000100
00000001
,
00000010
00000100
00001000
00000010
00000000
00000000
00000000
00000000
;

//---------------dance-single - ----------------
#NOTEDATA:;
#CHARTNAME:;
#STEPSTYPE:dance-single;
#DESCRIPTION:;
#CHARTSTYLE:;
#DIFFICULTY:Medium;
#METER:6;
#RADARVALUES:0.377007,0.453811,0.086056,0.157769,0.000000,334.000000,12.000000,22.000000,0.000000,0.000000,0.000000,0.000000,0.000000,0.377007,0.453811,0.086056,0.157769,0.000000,334.000000,12.000000,22.000000,0.000000,0.000000,0.000000,0.000000,0.000000;
#CREDIT:Ben Speirs;
#NOTES:
0000
0000
0000
0000
,
0000
0000
0000
0000
,
0000
0000
0000
0000
,
0000
0000
0000
0000
,
0000
0000
0000
0000
,
0000
0000
0000
0000
,
0000
0000
0000
0000
,
0000
0000
0000
0000
,
0000
0000
0000
0000
,
0000
0000
0000
0000
,
1000
1000
0001
0001
,
0020
0030
0020
0030
,
0001
0001
1000
1000
,
0020
0030
0020
0030
,
1000
0001
0100
0000
,
0001
1000
0100
0100
,
0020
0030
0010
0001
,
1000
0000
0001
0000
,
1000
1000
0100
0100
,
1000
0100
1000
0000
,
0001
0001
0100
0100
,
0001
0100
0001
0000
,
1000
0001
0010
0100
,
1000
0001
0100
0000
,
0001
1000
0000
0001
1000
0000
0001
1000
,
0001
1000
1100
0001
,
0101
1000
0001
0010
,
0100
1000
0001
0100
,
0001
1000
0001
0000
0000
0000
0100
0000
,
0100
0020
1030
0020
,
1030
0002
0103
0002
,
0103
0000
0001
1000
0000
0001
1000
0000
,
0001
1000
0001
0000
1000
0000
0100
0010
,
0001
0001
0011
1000
,
1010
0001
1000
0100
,
0010
0001
1000
0010
,
1000
0001
1000
0000
0000
0000
0010
0000
,
0010
0200
0301
0200
,
0301
2000
3010
2000
,
3010
0000
1000
0001
0000
1000
0001
0000
,
1000
0001
1000
0000
0001
0000
0010
0100
,
1000
0001
0010
0010
,
0001
0010
0001
0000
0100
0001
0100
0000
,
0001
1000
0100
0100
,
1000
0100
1000
0000
0010
1000
0010
0000
,
1000
0001
0200
0301
,
1000
0001
0020
0031
,
1000
0100
0010
0000
0001
0000
1000
0000
,
1000
0001
0100
0010
,
0000
0100
0110
0010
,
0110
0000
0001
0100
0001
0100
0001
0000
,
0100
0010
0110
0100
,
0110
0000
1000
0010
1000
0010
1000
0000
,
0010
0100
0002
1003
,
0001
0010
0200
1300
,
0100
1000
0001
0000
0100
0000
0100
0000
,
0000
0001
1000
0010
,
0010
0000
1000
0100
1000
0000
0100
1000
,
0100
0000
1000
0001
1000
0000
0001
1000
,
0001
0200
0301
1000
,
0010
1000
0100
0000
0010
0000
0001
0000
,
1000
0001
1000
0000
0001
0100
0001
0000
,
0100
0001
0100
0000
0001
1000
0001
0000
,
1000
0000
0001
0100
0000
0010
1000
0000
,
0001
1000
0001
0000
1000
0000
1100
0000
,
0001
0000
0011
0000
1000
0000
0001
0100
,
0001
0000
1000
0000
0020
0000
0130
0001
,
0100
0000
0010
1000
0010
0000
1000
0000
,
0002
0000
0003
0000
1000
0100
1000
0000
,
0001
1000
0001
0000
0100
0001
0100
0000
,
0001
1000
0001
0000
1000
0100
0000
0010
,
0001
0000
1000
0001
1000
0000
0010
0000
,
0100
0001
1000
0000
0001
0000
0011
0000
,
1000
0000
1100
0000
0001
0000
1000
0010
,
1000
0000
0001
0000
0200
0000
0310
1000
,
0010
0000
0100
0001
0100
0000
0001
0000
,
2000
0000
3000
0000
0001
0010
0001
0000
,
1000
0001
1000
0000
0010
1000
0010
0000
,
1000
0001
1000
0000
0001
0010
0100
1000
,
0010
0100
0001
1000
0100
0000
0000
0000
,
0000
0000
1000
1000
,
0100
0100
1000
1000
,
0100
1000
0001
0100
0001
0000
0001
0000
,
0100
0100
0001
0001
,
0100
0001
1000
0010
0000
0000
0000
0000
;

//---------------dance-single - ----------------
#NOTEDATA:;
#CHARTNAME:;
#STEPSTYPE:dance-single;
#DESCRIPTION:;
#CHARTSTYLE:;
#DIFFICULTY:Easy;
#METER:4;
#RADARVALUES:0.247923,0.302093,0.035857,0.143427,0.000000,217.000000,5.000000,20.000000,0.000000,0.000000,0.000000,0.000000,0.000000,0.247923,0.302093,0.035857,0.143427,0.000000,217.000000,5.000000,20.000000,0.000000,0.000000,0.000000,0.000000,0.000000;
#CREDIT:Ben Speirs;
#NOTES:
// measure 0
0000
0000
0000
0000
,  // measure 1
0000
0000
0000
0000
,  // measure 2
0000
0000
0000
0000
,  // measure 3
0000
0000
0000
0000
,  // measure 4
0000
0000
0000
0000
,  // measure 5
0000
0000
0000
0000
,  // measure 6
0000
0000
0000
0000
,  // measure 7
0000
0000
0000
0000
,  // measure 8
0000
0000
0000
0000
,  // measure 9
0000
0000
0000
0000
,  // measure 10
1000
0100
1000
0000
,  // measure 11
0010
0010
1000
0000
,  // measure 12
0001
0100
0001
0000
,  // measure 13
0100
0100
0010
0000
,  // measure 14
1000
0001
1000
0000
,  // measure 15
0001
1000
0001
0100
,  // measure 16
0200
0300
0000
0000
,  // measure 17
0010
0000
0010
0000
,  // measure 18
1000
1000
0001
0000
,  // measure 19
0001
0001
1000
0000
,  // measure 20
1000
0100
0010
0001
,  // measure 21
0200
0300
0100
0000
,  // measure 22
0001
0001
1000
0000
,  // measure 23
1000
1000
0001
0000
,  // measure 24
0001
0010
0100
1000
,  // measure 25
0001
1000
0010
0100
,  // measure 26
0100
0001
0010
0100
,  // measure 27
0100
1000
0001
1000
,  // measure 28
0001
0200
0300
0100
,  // measure 29
0000
0002
0003
2000
,  // measure 30
3000
0020
0030
0020
,  // measure 31
0030
1000
0010
0100
,  // measure 32
0001
0010
0100
1000
,  // measure 33
0000
0001
0010
0001
,  // measure 34
0001
1000
0100
1000
,  // measure 35
1000
0010
0100
0010
,  // measure 36
0010
0200
0300
0100
,  // measure 37
0000
0002
0003
2000
,  // measure 38
3000
0020
0030
2000
,  // measure 39
3000
0001
0010
0100
,  // measure 40
1000
1001
0000
0000
,  // measure 41
0000
1000
0100
0100
,  // measure 42
0000
1000
0100
0010
,  // measure 43
0000
0001
0100
0100
,  // measure 44
0000
0001
0100
0010
,  // measure 45
0000
0100
0100
0001
,  // measure 46
0000
1000
1000
0100
,  // measure 47
0000
0010
0000
0010
,  // measure 48
0000
0001
1000
0001
,  // measure 49
0000
0000
1000
0000
,  // measure 50
1000
0010
0100
0010
,  // measure 51
0010
0000
0100
0000
,  // measure 52
0100
0001
1000
0001
,  // measure 53
0001
0000
0010
0001
,  // measure 54
0010
0000
0001
1000
,  // measure 55
0001
1000
0000
0010
,  // measure 56
0000
0100
0100
0100
,  // measure 57
0000
0000
1001
0000
,  // measure 58
1001
0000
0100
0000
,  // measure 59
0100
0000
1001
0000
,  // measure 60
1001
0000
0010
0000
,  // measure 61
0010
0010
0000
1000
,  // measure 62
0000
0001
0000
0010
,  // measure 63
0000
0001
1000
0010
,  // measure 64
0100
0001
1000
0001
,  // measure 65
0100
0100
0001
1000
,  // measure 66
0100
0100
0010
0010
,  // measure 67
0010
0001
1000
0000
,  // measure 68
0010
0000
2000
3000
,  // measure 69
0002
0003
0200
0300
,  // measure 70
0200
0300
0001
0010
,  // measure 71
0100
1000
0010
0100
,  // measure 72
0001
0000
0100
0100
,  // measure 73
0010
1000
0010
0010
,  // measure 74
0100
0001
1000
1000
,  // measure 75
0001
0001
0010
0000
,  // measure 76
0001
0000
0200
0300
,  // measure 77
0002
0003
2000
3000
,  // measure 78
0020
0030
1000
0001
,  // measure 79
1000
0001
0100
0000
,  // measure 80
0000
0000
0001
0001
,  // measure 81
0001
0000
1000
1000
,  // measure 82
1000
0000
0010
0010
,  // measure 83
0010
0000
0100
0100
,  // measure 84
0001
1000
0000
0000
;

//---------------dance-single - ----------------
#NOTEDATA:;
#CHARTNAME:;
#STEPSTYPE:dance-single;
#DESCRIPTION:;
#CHARTSTYLE:;
#DIFFICULTY:Beginner;
#METER:2;
#RADARVALUES:0.115766,0.181256,0.014343,0.000000,0.000000,111.000000,2.000000,0.000000,0.000000,0.000000,0.000000,0.000000,0.000000,0.115766,0.181256,0.014343,0.000000,0.000000,111.000000,2.000000,0.000000,0.000000,0.000000,0.000000,0.000000,0.000000;
#CREDIT:Ben Speirs;
#NOTES:
// measure 0
0000
0000
0000
0000
,  // measure 1
0000
0000
0000
0000
,  // measure 2
0000
0000
0000
0000
,  // measure 3
0000
0000
0000
0000
,  // measure 4
0000
0000
0000
0000
,  // measure 5
0000
0000
0000
0000
,  // measure 6
0000
0000
0000
0000
,  // measure 7
0000
0000
0000
0000
,  // measure 8
0000
0000
0000
0000
,  // measure 9
0000
0000
0000
0000
,  // measure 10
0010
0000
0000
0000
,  // measure 11
1000
0000
0000
0000
,  // measure 12
0001
0000
0000
0000
,  // measure 13
0010
0000
0000
0000
,  // measure 14
0001
0001
0000
0000
,  // measure 15
1000
1000
0000
0000
,  // measure 16
0010
0000
0000
0000
,  // measure 17
0010
0000
0000
0000
,  // measure 18
1000
0000
1000
0000
,  // measure 19
1000
0000
0000
0000
,  // measure 20
0100
0000
0100
0000
,  // measure 21
0100
0000
0000
0000
,  // measure 22
1000
0000
1000
0000
,  // measure 23
1000
0000
0000
0000
,  // measure 24
0001
0001
0000
0001
,  // measure 25
0001
0000
0000
0000
,  // measure 26
0000
0100
0000
0000
,  // measure 27
0000
0001
0000
0001
,  // measure 28
0000
0001
0000
0000
,  // measure 29
0000
1000
0000
0000
,  // measure 30
0000
0010
0000
0000
,  // measure 31
0000
1000
1000
0000
,  // measure 32
1000
1000
0000
0000
,  // measure 33
0000
1001
0000
0000
,  // measure 34
0000
0001
0000
0000
,  // measure 35
0000
0100
0000
0100
,  // measure 36
0000
0100
0000
0000
,  // measure 37
0000
0010
0000
0000
,  // measure 38
0000
1000
0000
0000
,  // measure 39
0000
0010
0010
0000
,  // measure 40
0010
0010
0000
0000
,  // measure 41
0000
1000
0000
0000
,  // measure 42
0000
0100
0100
0100
,  // measure 43
0100
0000
0000
0000
,  // measure 44
0000
0010
0010
0010
,  // measure 45
0010
0000
0000
0000
,  // measure 46
0000
0001
0000
0000
,  // measure 47
0000
1000
0000
0000
,  // measure 48
0000
0010
0000
0000
,  // measure 49
0000
0100
0000
0000
,  // measure 50
0000
0001
0001
0001
,  // measure 51
0001
0000
0000
0000
,  // measure 52
0000
1000
1000
1000
,  // measure 53
1000
0000
0000
0000
,  // measure 54
0000
0010
0000
0010
,  // measure 55
0000
0010
0000
0000
,  // measure 56
0000
1000
0000
0000
,  // measure 57
0000
0000
0001
0000
,  // measure 58
0001
0000
0001
0000
,  // measure 59
0000
0000
1000
0000
,  // measure 60
1000
0000
1000
0000
,  // measure 61
0000
0010
0000
0010
,  // measure 62
0000
0010
0000
0000
,  // measure 63
0000
0100
0100
0000
,  // measure 64
0100
0100
0000
0000
,  // measure 65
0000
0000
0001
0000
,  // measure 66
0000
0000
1000
0000
,  // measure 67
1000
0000
1000
0000
,  // measure 68
0000
0000
0010
0000
,  // measure 69
0010
0000
0010
0000
,  // measure 70
0000
0000
0100
0100
,  // measure 71
0000
0100
0100
0000
,  // measure 72
0000
0000
1001
0000
,  // measure 73
0000
0000
1000
0000
,  // measure 74
0000
0000
0010
0000
,  // measure 75
0010
0000
0010
0000
,  // measure 76
0000
0000
0100
0000
,  // measure 77
0000
0000
0001
0000
,  // measure 78
0000
0000
1000
1000
,  // measure 79
1000
1000
1000
0000
,  // measure 80
0000
0000
0001
0000
,  // measure 81
0000
0000
1000
0000
,  // measure 82
0000
0000
0010
0000
,  // measure 83
0000
0000
0100
0000
,  // measure 84
0100
0100
0000
0000
;
