#VERSION:0.82;
#TITLE:HandClap;
#SUBTITLE:;
#ARTIST:Fitz & The Tantrums;
#TITLETRANSLIT:;
#SUBTITLETRANSLIT:;
#ARTISTTRANSLIT:;
#GENRE:Pop-Rock;
#ORIGIN:;
#CREDIT:;
#BANNER:Handclap.png;
#BACKGROUND:Handclap-bg.png;
#PREVIEWVID:;
#JACKET:jacket.png;
#CDIMAGE:;
#DISCIMAGE:;
#LYRICSPATH:;
#CDTITLE:;
#MUSIC:Handclap.ogg;
#OFFSET:0.030000;
#SAMPLESTART:88.964050;
#SAMPLELENGTH:14.733999;
#SELECTABLE:YES;
#BPMS:0.000=140.000,
144.000=136.040,
202.000=140.000;
#STOPS:;
#DELAYS:;
#WARPS:;
#TIMESIGNATURES:0.000=4=4;
#TICKCOUNTS:0.000=4;
#COMBOS:0.000=1;
#SPEEDS:0.000=1.000=0.000=0;
#SCROLLS:0.000=1.000;
#FAKES:;
#LABELS:0.000=Song Start;
#BGCHANGES:4.000=Handclap.avi=1.000=0=0=1=====,
99999=-nosongbg-=1.000=0=0=0 // don't automatically add -songbackground-
;
#KEYSOUNDS:;
#ATTACKS:
;

//---------------dance-single - ----------------
#NOTEDATA:;
#CHARTNAME:;
#STEPSTYPE:dance-single;
#DESCRIPTION:;
#CHARTSTYLE:;
#DIFFICULTY:Hard;
#METER:8;
#RADARVALUES:0.475114,0.489604,0.208363,0.048084,0.000000,383.000000,26.000000,6.000000,0.000000,0.000000,0.000000,0.000000,0.000000,0.475114,0.489604,0.208363,0.048084,0.000000,383.000000,26.000000,6.000000,0.000000,0.000000,0.000000,0.000000,0.000000;
#CREDIT:Ben Speirs;
#NOTES:
0000
0000
0000
0000
,
0000
0000
0000
0000
,
0000
0000
0000
0000
,
0000
0000
0000
0000
,
0002
0100
0000
0100
,
0000
0100
0000
0103
,
2000
0100
0000
0100
,
0000
0100
0000
3000
,
1000
0001
1000
0001
0100
0010
0100
0010
,
1000
1000
0001
0001
1000
0100
0010
0001
,
0100
0010
0100
0010
1000
0001
1000
0001
,
0010
0010
0100
0100
1000
0100
0010
0001
,
0100
0100
0010
0100
0010
0010
0100
0010
,
0100
0100
0010
0100
0001
0010
0100
1000
,
0001
0001
1000
0001
1000
1000
0001
1000
,
0001
0001
1000
0001
1000
0100
0010
0001
,
0100
0000
0010
0000
,
1000
0100
0001
0000
,
1001
0110
1001
0110
,
1000
1000
1000
1000
1000
0000
1100
0000
,
1001
0110
1001
0110
,
0001
0001
0001
0001
0001
0000
0101
0000
,
1000
0010
0100
0010
1000
0100
0010
0100
,
1000
0010
0100
0010
1000
0100
0010
0001
,
0100
0010
0100
0001
0010
0100
0010
0001
,
0100
0010
0100
0001
0010
0100
1000
0001
,
0100
1000
0100
0001
0010
1000
0010
0001
,
0100
0100
0010
0010
1000
0010
0100
0001
,
1000
0100
0001
0100
1000
0010
0001
0010
,
1000
1000
0001
0001
1000
0100
0010
0001
,
0100
0000
0010
0000
,
1000
0010
0001
0000
,
0101
1010
1100
0011
,
1000
1000
0001
0001
0100
0000
1001
0000
,
1010
0101
0011
1100
,
0001
0001
1000
1000
0010
0000
1001
0000
,
2000
0100
0000
0100
,
0000
0001
0000
0001
,
3002
0100
0000
0100
,
0000
1000
0000
1000
,
2003
0010
0000
0010
,
0000
0001
0000
0001
,
3002
0010
0000
0010
,
0000
1000
0000
1003
,
1001
0000
1000
0100
1000
0000
0010
0000
,
0100
0010
0100
0000
0001
0000
1000
0100
,
0010
0000
0001
1000
0001
0000
0100
0000
,
0010
1000
0010
0000
0100
0000
0001
1000
,
0100
0000
1000
0100
1000
0000
0001
0000
,
1000
0001
1000
0001
0010
0100
1000
0001
,
0000
0000
0000
0000
,
0000
0000
0110
1001
,
1100
0000
0001
0100
1000
0000
0010
1000
,
0100
0000
0101
0000
1000
0100
0010
0001
,
0100
0000
1000
0010
0001
0000
0100
0001
,
0010
0100
0010
0100
1000
0001
0100
0010
,
1000
0000
0001
0100
1000
0000
0010
1000
,
0100
0000
0101
0000
0010
0010
0001
1000
,
0010
0000
0001
0100
1000
0000
0010
1000
,
0001
1000
0001
0100
0010
0010
1000
1000
,
0001
0010
0100
0100
0010
0010
0001
1000
,
0010
0100
0001
0001
1000
1000
0010
1000
,
0100
0010
0001
0001
0100
0100
0010
1000
,
0001
0010
1000
0010
0001
0100
0010
1000
,
0100
0010
0001
0001
1000
1000
0010
1000
,
0100
0010
0001
0001
0100
0100
0010
0100
,
0001
0010
0100
0100
1000
1000
0100
1000
,
0010
0100
0001
1000
0010
0100
0010
0100
,
0001
0000
0100
0010
0100
0000
0001
0000
,
0010
0000
0001
0010
0100
0100
1000
0000
,
0010
0000
1000
0010
0100
0000
0010
0000
,
1000
0000
0100
1000
0010
0100
0100
0100
;

//---------------dance-double - ----------------
#NOTEDATA:;
#CHARTNAME:;
#STEPSTYPE:dance-double;
#DESCRIPTION:;
#CHARTSTYLE:;
#DIFFICULTY:Challenge;
#METER:8;
#RADARVALUES:0.518619,0.547204,0.232405,0.280489,0.000000,389.000000,29.000000,35.000000,0.000000,0.000000,0.000000,0.000000,0.000000,0.518619,0.547204,0.232405,0.280489,0.000000,389.000000,29.000000,35.000000,0.000000,0.000000,0.000000,0.000000,0.000000;
#CREDIT:Ben Speirs;
#NOTES:
00000000
00000000
00000000
00000000
,
00000000
00000000
00000000
00000000
,
00000000
00000000
00000000
00000000
,
00000000
00000000
00000000
00000000
,
00002000
00100000
00000000
00100000
,
00023000
00000100
00000000
00000100
,
00032000
01000000
00000000
01000000
,
00023000
00000010
00000000
00030000
,
00001000
00010000
00001000
00010000
00000100
00010000
00000100
00010000
,
00001000
00010000
00001000
00010000
00000100
00000100
00001000
00000100
,
00010000
00001000
00010000
00001000
00100000
00001000
00100000
00001000
,
00010000
00001000
00010000
00001000
00100000
00100000
00010000
00100000
,
00001000
00010000
00100000
00010000
00001000
00000010
00001000
00000010
,
00000001
00000100
00000010
00001000
00000100
00000100
00010000
00000100
,
00010000
00001000
00000100
00001000
00010000
01000000
00010000
01000000
,
10000000
00100000
01000000
00010000
00100000
00100000
00001000
00001000
,
00020000
00000000
00230000
00000000
,
10300000
01000000
00010000
00000000
,
11000000
01100000
00110000
00101000
,
00010000
00010000
00010000
00010000
00010000
00000000
00011000
00000000
,
00010100
00001100
00000110
00001001
,
00000001
00000001
00000001
00000001
00000001
00000000
00000101
00000000
,
00001000
00000001
00000100
00000010
00001000
00001000
00000100
00000100
,
00001000
00000100
00010000
00001000
01000000
01000000
00100000
00100000
,
10000000
00100000
01000000
00010000
00100000
00100000
00001000
00001000
,
00010000
00001000
00000010
00000001
00000100
00000100
00000010
00000010
,
00000100
00000001
00000010
00000100
00001000
00000010
00000100
00001000
,
00010000
00001000
00010000
00001000
00100000
00100000
00010000
00010000
,
10000000
00100000
01000000
00010000
10000000
01000000
00010000
00001000
,
00100000
00001000
00100000
00001000
00010000
00100000
10000000
01000000
,
00200000
00300000
00020000
00030000
,
01000000
00001000
00010000
00000000
,
00011000
00100100
00011000
00100100
,
00010000
00010000
00010000
00010000
00010000
00000000
00011000
00000000
,
00001100
01010000
00001100
01010000
,
00001000
00001000
00001000
00001000
00001000
00000000
00011000
00000000
,
02000000
00100000
00000000
00100000
,
03000200
00000010
00000000
00000010
,
00200000
00000300
01000000
00000000
00000000
00000000
01000000
00000000
,
00300020
00000100
00000000
00000100
,
00020030
00000100
00001000
00000100
,
00030200
00001000
00010000
00001000
,
00200300
00000000
00301000
00100000
00010000
00000000
00110000
00000000
,
00202000
00000000
00303000
00000000
00100000
00010000
01000000
00000000
,
10010000
00000000
10000000
01000000
00010000
00000000
00001000
00000000
,
00010000
00001000
00000100
00000000
00000010
00000100
00000010
00000000
,
00000100
00000000
00000001
00000100
00001000
00000000
00010000
00000000
,
00001000
00010000
01000000
00000000
00100000
01000000
00100000
00000000
,
01000000
10000000
00100000
00000000
01000000
00010000
00100000
00000000
,
00010000
01000000
00001000
00010000
00000100
00000010
00000001
00001000
,
00000000
00000000
00000000
00000000
,
00000000
00000000
00010001
00010001
,
00011000
00000000
00001000
00010000
00000100
00000000
00000010
00000010
,
00000002
00000000
00000203
00000000
00000310
00001000
00000100
00010000
,
00000020
00000000
00000130
00000100
00002000
00000000
00003100
00000010
,
00001000
00000100
00000020
00000000
00000031
00000010
00001000
00010000
,
00200000
00000000
10300000
01000000
02000000
00000000
13000000
00010000
,
02000000
00000000
03200000
00000000
01300000
00010000
00100000
00001000
,
00020000
00000000
00130000
00100000
00100000
00000000
00010000
00100000
,
10000000
01000000
00100000
00010000
01000000
01000000
00001000
00001000
,
00010000
00000100
00000010
00000010
00000001
00000001
00000100
00000010
,
00010000
00000100
00100000
00100000
01000000
01000000
00100000
00010000
,
01000000
00001000
00000010
00000010
00000001
00000001
00000100
00000010
,
00001000
00000100
00010000
00001000
01000000
01000000
00100000
00100000
,
10000000
01000000
00100000
00100000
00001000
00001000
00010000
00000010
,
00001000
00000001
00000100
00000100
00001000
00001000
00010000
00001000
,
00100000
00010000
01000000
01000000
00100000
00100000
10000000
01000000
,
00010000
00001000
00000100
00000001
00002000
00000000
00003001
00000000
,
00000202
00000303
00001000
00000010
,
00020020
00000000
00030030
00000000
00000100
00010000
00001000
00100000
,
00020000
00000000
01030000
00000000
00100000
10000000
00100000
00000000
,
02000000
00000000
03010000
00100000
00002000
00010000
00013000
00011000
;

//---------------dance-single - ----------------
#NOTEDATA:;
#CHARTNAME:;
#STEPSTYPE:dance-single;
#DESCRIPTION:;
#CHARTSTYLE:;
#DIFFICULTY:Medium;
#METER:6;
#RADARVALUES:0.356050,0.432003,0.048084,0.184321,0.000000,282.000000,6.000000,23.000000,0.000000,0.000000,0.000000,0.000000,0.000000,0.356050,0.432003,0.048084,0.184321,0.000000,282.000000,6.000000,23.000000,0.000000,0.000000,0.000000,0.000000,0.000000;
#CREDIT:Ben Speirs;
#NOTES:
0000
0000
0000
0000
,
0000
0000
0000
0000
,
0000
0000
0000
0000
,
0000
0000
0000
0000
,
2000
0010
0000
0010
,
0000
0010
0000
3010
,
0002
0010
0000
0010
,
0000
0013
0000
0000
,
0001
1000
0001
0001
,
0100
0000
0010
0000
1000
0100
1000
0000
,
0010
0100
0001
0001
,
0100
0000
0001
0000
1000
0001
1000
0000
,
0001
0010
0100
0100
,
1000
0000
0001
0000
0100
0010
0100
0000
,
0010
1000
0100
0100
,
1000
0000
0001
0000
0010
0001
0010
0000
,
0002
0003
2000
3000
,
0010
0010
0010
0000
,
1000
0001
1000
0001
,
0100
0010
0100
0010
0100
0000
1001
0000
,
0001
1000
0001
1000
,
0010
0100
0010
0100
0010
0000
1001
0000
,
1000
0100
0000
0000
1000
0000
1000
0000
,
0001
0100
0000
0100
0010
0000
0010
0000
,
1000
0100
0000
0000
0010
0000
0010
0000
,
0001
0100
0000
0100
0010
0000
0010
0000
,
1000
0001
0000
0000
1000
0000
1000
0000
,
0001
0100
0000
0100
0001
0000
1000
0000
,
0010
0100
0000
0000
0010
0000
0010
0000
,
1000
0100
0000
0100
0010
0000
0001
0000
,
2000
3000
0002
0003
,
0100
0100
0100
0000
,
0001
1000
0001
1000
,
0010
0100
0010
0100
0010
0000
1001
0000
,
1000
0001
1000
0001
,
0100
0010
0100
0010
0100
0000
1001
0000
,
0002
0003
2000
3000
,
0020
0030
0000
0000
,
2000
3000
0200
0300
,
0020
0030
0000
0000
,
0002
0003
2000
3000
,
0020
0030
0000
0000
,
0100
0100
0010
0010
,
2000
3000
0001
0000
,
1000
0000
0100
1000
0100
0000
1000
0000
,
0100
1000
0100
0000
1000
0000
0000
0000
,
0001
0000
0100
0001
0100
0000
0001
0000
,
0100
0001
0100
0000
0001
0000
0000
0000
,
1000
0000
0001
1000
0001
0000
1000
0000
,
0001
1000
0001
0000
1000
0100
0010
0001
,
0000
0000
0000
0000
,
0000
0000
1001
1001
,
2000
0000
3100
1000
0100
0000
1000
0000
,
0001
0000
0001
0000
0100
0001
0100
0000
,
0020
0000
0130
0001
0100
0000
0001
0000
,
1000
0000
1000
0000
0001
0010
0100
1000
,
0001
0000
0100
0001
0100
0000
0001
0000
,
1000
0000
1000
0000
0010
1000
0010
0000
,
2000
0000
3100
1000
0100
0000
1000
0000
,
0001
0000
0001
0000
1000
0100
0010
0001
,
0000
0000
0100
0100
0010
0010
1000
0001
,
0000
0000
1000
1000
0100
0100
0010
0001
,
0000
0000
0001
0001
0100
0100
0001
1000
,
0010
0000
0010
0000
1000
0001
1000
0001
,
0000
0000
1000
1000
0001
1000
0010
0010
,
0000
0000
0100
0100
0001
1000
0100
0100
,
0000
0000
0010
0010
0001
1000
0010
0010
,
0100
0000
0100
0000
0001
0010
0100
1000
,
0002
0103
0000
0100
,
0020
1030
0000
1000
,
0200
0300
0020
0030
,
0001
0000
1000
0000
0001
0100
0100
0100
;

//---------------dance-single - ----------------
#NOTEDATA:;
#CHARTNAME:;
#STEPSTYPE:dance-single;
#DESCRIPTION:;
#CHARTSTYLE:;
#DIFFICULTY:Easy;
#METER:3;
#RADARVALUES:0.230116,0.287501,0.024042,0.080140,0.000000,188.000000,3.000000,10.000000,0.000000,0.000000,0.000000,0.000000,0.000000,0.230116,0.287501,0.024042,0.080140,0.000000,188.000000,3.000000,10.000000,0.000000,0.000000,0.000000,0.000000,0.000000;
#CREDIT:Ben Speirs;
#NOTES:
// measure 0
0000
0000
0000
0000
,  // measure 1
0000
0000
0000
0000
,  // measure 2
0000
0000
0000
0000
,  // measure 3
0000
0000
0000
0000
,  // measure 4
0000
1000
0000
1000
,  // measure 5
0000
0001
0000
0001
,  // measure 6
0000
0100
0000
0100
,  // measure 7
0000
0010
0000
0000
,  // measure 8
1001
0000
1000
0000
,  // measure 9
0010
0010
0100
0100
,  // measure 10
0001
0000
0001
0000
,  // measure 11
0100
0100
0010
0010
,  // measure 12
1000
0000
1000
0000
,  // measure 13
0100
0100
1000
1000
,  // measure 14
0001
0000
0001
0000
,  // measure 15
0100
0100
0001
0001
,  // measure 16
1000
0000
0000
0000
,  // measure 17
0010
0010
0010
0000
,  // measure 18
0100
0100
0010
0010
,  // measure 19
2000
0000
3000
1000
,  // measure 20
0100
0100
0010
0010
,  // measure 21
0002
0000
0003
0001
,  // measure 22
0100
0000
0001
1000
,  // measure 23
0001
0000
1000
0100
,  // measure 24
1000
0000
0001
0010
,  // measure 25
0001
0000
1000
0010
,  // measure 26
1000
0000
0010
0010
,  // measure 27
0100
0000
0001
0001
,  // measure 28
0010
0000
0100
0100
,  // measure 29
1000
0000
1000
1000
,  // measure 30
0010
0000
0000
0000
,  // measure 31
0100
0100
0100
0000
,  // measure 32
0001
0001
0001
0001
,  // measure 33
0200
0000
0300
0100
,  // measure 34
0010
0010
0010
0010
,  // measure 35
2000
0000
3000
1000
,  // measure 36
0000
0010
0000
0010
,  // measure 37
0000
0100
0000
0100
,  // measure 38
0000
0001
0000
0001
,  // measure 39
0000
1000
0000
1000
,  // measure 40
0000
0010
0000
0010
,  // measure 41
0000
1000
0000
1000
,  // measure 42
0100
0100
0010
0010
,  // measure 43
0002
0003
0100
0100
,  // measure 44
0010
1000
1000
0000
,  // measure 45
0001
0010
0010
0000
,  // measure 46
0001
1000
0100
0100
,  // measure 47
0020
0030
0001
1000
,  // measure 48
0001
0000
1000
0010
,  // measure 49
0010
0010
0100
0100
,  // measure 50
0000
0000
0000
0000
,  // measure 51
0000
0000
0010
0010
,  // measure 52
1001
0000
1000
0000
,  // measure 53
0001
0000
0100
0100
,  // measure 54
0001
0000
1000
0000
,  // measure 55
0010
0010
0100
0100
,  // measure 56
0001
0000
1000
0000
,  // measure 57
0100
0100
1000
1000
,  // measure 58
0010
0000
1000
0000
,  // measure 59
0001
0001
1000
0001
,  // measure 60
0000
0100
0010
0100
,  // measure 61
0000
0001
0100
0001
,  // measure 62
0000
1000
1000
1000
,  // measure 63
0010
0100
0010
0010
,  // measure 64
0000
1000
0100
1000
,  // measure 65
0000
0001
1000
0001
,  // measure 66
0000
0100
0100
0100
,  // measure 67
0001
0010
0100
0100
,  // measure 68
2000
3000
0001
0000
,  // measure 69
0002
0003
0100
0100
,  // measure 70
0020
0030
0020
0030
,  // measure 71
1000
0001
0100
1001
;

//---------------dance-single - ----------------
#NOTEDATA:;
#CHARTNAME:;
#STEPSTYPE:dance-single;
#DESCRIPTION:;
#CHARTSTYLE:;
#DIFFICULTY:Beginner;
#METER:2;
#RADARVALUES:0.129368,0.172501,0.008014,0.000000,0.000000,112.000000,1.000000,0.000000,0.000000,0.000000,0.000000,0.000000,0.000000,0.129368,0.172501,0.008014,0.000000,0.000000,112.000000,1.000000,0.000000,0.000000,0.000000,0.000000,0.000000,0.000000;
#CREDIT:Ben Speirs;
#NOTES:
// measure 0
0000
0000
0000
0000
,  // measure 1
0000
0000
0000
0000
,  // measure 2
0000
0000
0000
0000
,  // measure 3
0000
0000
0000
0000
,  // measure 4
0000
0010
0000
0010
,  // measure 5
0000
0010
0000
0010
,  // measure 6
0000
0010
0000
0010
,  // measure 7
0000
0010
0000
0000
,  // measure 8
1000
0000
0000
0000
,  // measure 9
0100
0000
0100
0000
,  // measure 10
0100
0000
0000
0000
,  // measure 11
0010
0000
0010
0000
,  // measure 12
0010
0000
0000
0000
,  // measure 13
0001
0000
0001
0000
,  // measure 14
0001
0000
0000
0000
,  // measure 15
1000
0000
1000
0000
,  // measure 16
1000
0000
0000
0000
,  // measure 17
0010
0010
0000
0000
,  // measure 18
0100
0100
0100
0100
,  // measure 19
0000
0000
0000
0000
,  // measure 20
0100
0100
0100
0100
,  // measure 21
0000
0000
0000
0000
,  // measure 22
0001
0000
0001
0000
,  // measure 23
0001
0000
0000
0000
,  // measure 24
0010
0000
0010
0000
,  // measure 25
0010
0000
0000
0000
,  // measure 26
0100
0000
0100
0000
,  // measure 27
0100
0000
0000
0000
,  // measure 28
1000
0000
1000
0000
,  // measure 29
1000
0000
0000
0000
,  // measure 30
0000
0000
0000
0000
,  // measure 31
0010
0010
0000
0000
,  // measure 32
0100
0100
0100
0100
,  // measure 33
0000
0000
0000
0000
,  // measure 34
0100
0100
0100
0100
,  // measure 35
0000
0000
0000
0000
,  // measure 36
1001
0000
0000
0000
,  // measure 37
0001
0000
0000
0000
,  // measure 38
1000
0000
1000
0000
,  // measure 39
0010
0000
0000
0000
,  // measure 40
0100
0000
0000
0000
,  // measure 41
0001
0000
0000
0000
,  // measure 42
1000
0000
1000
0000
,  // measure 43
0100
0000
0000
0000
,  // measure 44
1000
0000
1000
0000
,  // measure 45
0010
0000
0000
0000
,  // measure 46
0100
0000
0100
0000
,  // measure 47
0001
0000
0000
0000
,  // measure 48
0001
0000
0001
0000
,  // measure 49
1000
1000
1000
1000
,  // measure 50
0000
0000
0000
0000
,  // measure 51
0000
0000
0010
0010
,  // measure 52
0010
0000
0000
0000
,  // measure 53
0100
0000
0100
0000
,  // measure 54
0001
0000
0000
0000
,  // measure 55
1000
1000
1000
0000
,  // measure 56
1000
0000
0000
0000
,  // measure 57
0100
0000
0100
0000
,  // measure 58
0010
0000
0000
0000
,  // measure 59
0001
0001
0001
0000
,  // measure 60
0000
0100
0100
0000
,  // measure 61
0000
0001
0001
0000
,  // measure 62
0000
1000
1000
0000
,  // measure 63
0010
0000
0010
0000
,  // measure 64
0000
1000
1000
0000
,  // measure 65
0000
0100
0100
0000
,  // measure 66
0000
0010
0010
0000
,  // measure 67
0001
0000
0001
0000
,  // measure 68
1000
0000
0000
0000
,  // measure 69
0001
0000
0000
0000
,  // measure 70
0100
0000
0000
0000
,  // measure 71
0010
0000
0010
0010
;
