#TITLE:STEP UP;
#ARTIST:THE CHEETAH GIRLS;
#FILE:STEP UP.mp3;
#BPM:112.000;
#GAP:74;
#SAMPLESTART:8.343;
#SAMPLELENGTH:15.000;
#CDTITLE:./CDTITLES/Dance Dance Revolution Disney Channel Edition.png;
#SINGLE:BEGINNER:1:
00000000
00000000
00000000
40008000
20000000
60000000
40000000
80002000
40000000
20000000
60000000
80002000
80000000
20000000
40000000
60004000
80000000
20000000
60000000
40006000
20000000
80000000
80000000
20200000
40000000
80000000
20000000
60008000
20000000
40000000
80000000
60004000
20000000
80000000
60000000
40008000
20000000
60000000
80000000
20004000
80000000
20000000
A0000000
20008000
A0000000
40000000
60000000
B0000000
;
#SINGLE:BASIC:3:
00000000
00000000
00000000
20200080
80006000
40002000
80606000
40402000
80004000
60002000
40008000
20206000
60004060
40008020
80002000
60408020
40006040
60002080
20008000
40602080
40002000
80606000
60008000
20404000
A0004000
60008000
B0404000
60608000
20006000
40008000
B0002000
80804000
40006040
60002080
20008000
40602080
B0004060
A0008020
40002000
60408080
20806000
20804000
20406000
60806000
A0004000
60002000
B0002000
80206040
;
#SINGLE:ANOTHER:5:
00000000
00000000
00000000
10208060
60204020
60804080
20804240
80206860
20408280
20602820
60406240
20608010
80804240
20206860
20408420
604020A0
60604280
40406820
20204820
604060A0
90102620
10908480
60428060
48402620
80042080
60062080
40028060
406020B0
20904240
80304840
20608024
20804240
20206860
80804240
80602680
406080A0
40406820
60604280
80806280
406040A0
60408260
80204680
20806420
20B060A0
60802420
60204860
80402480
26808462
;
#SINGLE:MANIAC:7:
00000000
00000000
00000000
20408460
80B020B0
84208264
20086420
90100246
20B080B0
26802846
80024680
10900864
(2060004204208060)
(2080004804802060)
(8020004604602080)
46824028
(8040006806802040)
(8020006206208040)
(2080006406408020)
64286820
(4000604200806000)
(2000804600200600)
(2000802400604080)
(2000604800200600)
20B080B0
26802846
80024680
10900864
80B020B0
84208264
20086420
90100246
(8040006806802040)
(8020006206208040)
(2080006406408020)
64286082
(2060004204208060)
(2080004804802060)
(8020004604602080)
46824280
(2060004208608060)
(2080004802602060)
(8020004602802080)
46824828
(8040006802402040)
(8020006204808040)
(2080006402808020)
46206821
;
#DOUBLE:BASIC:4:
00000000
00000000
00000000
00000000
00006000
80802000
40008000
00006000
00000000
00000000
00000000
00006000
A0004060
B0008000
60000000
00000000
00000000
00000060
60008020
40406000
40008000
60000000
00000000
00006000
80002000
40408000
60002000
00006000
00000000
00000000
00000000
00602060
B0008020
A0006000
60000000
00000000
00000000
00000060
60006020
40206000
8!800020A0
00006060
00000000
00000000
00000000
60008000
B0002000
60000000
60000000
:
00000000
00000000
00000000
80800020
40000000
00000000
00000000
40400000
80002000
60602000
80004000
20200000
00000000
00000040
40002080
60604000
A0006040
B0002000
40000000
00000000
00000000
00402080
20008000
40400000
00000000
00000000
00000000
40400000
20008000
60606000
20008000
40000000
00000000
00000020
40004080
60804000
B0008020
A0004000
40000000
00000000
00000000
4!40000040
8!800020A0
2!20006030
A0004000
40000000
00000000
00004000
40000000
;
#DOUBLE:ANOTHER:6:
00000000
00000000
00000000
80006000
60000000
00000060
60806260
40806006
00600000
00000000
60204840
80006060
00000000
00608480
20600000
00000000
00600800
40802060
00000000
60000000
00000060
60806260
40806006
00600000
00000000
60204840
80006060
00000000
00600080
60402420
80006000
00000000
00000000
00608480
20600000
00000000
00600800
40802060
00000000
60808020
80608420
60000000
00006260
2!20106860
8!80806060
00000000
60802420
80600000
:
00000000
00000000
00000000
00400020
40802086
80402000
40000000
00000040
40002040
60804840
00000000
00400040
80408680
40000000
00004840
8!80904240
2!20204040
00000000
40208680
40802086
80402000
40000000
00000040
40002040
60804840
00000000
00400040
80406820
80004000
00000000
00400020
86802420
80408680
40000000
00004840
8!80904240
2!20204040
00000000
40208680
40000000
00000000
00402620
80400000
00000000
00400200
60208040
00000000
00004086
;
#DOUBLE:MANIAC:7:
00000000
00000000
00000000
40802006
00600000
00000600
80606020
64286440
84208000
60000000
00000000
00000060
24802000
60000000
06006060
624260A0
62006000
00000000
00606000
00060860
(1000604200800060)
(6000000000000000)
(0000000000600060)
(6000206800200400)
80406200
60000000
00000000
00000600
20604820
60800600
00000000
00006080
24802000
60000000
06006060
624260A0
62006000
00000000
62404860
00000000
00000060
02604080
20600600
00000000
00600860
28404860
86000680
68206000
00000000
:
00000000
00000000
00000000
00000040
40008420
86208040
04000400
00000000
00000040
08402460
80604280
60204000
00000040
08406020
80400400
00000000
00400240
82606240
24000420
42804000
(0000000000004000)
(4000204800200600)
(3000804200004000)
(4000000000000000)
00000040
00204820
60802460
28204040
00000000
00004020
40802620
84200400
00000040
08406020
80400400
00000000
00400240
82606240
00000000
486260A0
86208000
40000000
04004040
486840A0
48004000
00000000
00404000
00040248!8
00000080
;
