#TITLE:Hella Good;
#ARTIST:No Doubt;
#FILE:Hella Good.mp3;
#BPM:115.100;
#GAP:60;
#SAMPLESTART:45.920;
#SAMPLELENGTH:14.360;
#FREEZE:366.000=10.000,372.000=10.000;
#SINGLE:BEGINNER:1:
00000000
00000000
80000000
80000000
20000000
20000000
60000000
40000000
80008000
80000000
40000000
60000000
20002000
20000000
60000000
20000000
80008000
80000000
20000000
60000000
40004000
40000000
B0000000
20202000
20000000
80000000
A0000000
80808000
80000000
40000000
60000000
60000000
60000000
60000000
40000000
40000000
40000000
40000000
B0000000
20000000
80000000
20000000
B0000000
40000000
60000000
40000000
80008000
80008000
80008000
80000000
;
#SINGLE:ANOTHER:5:
00000000
00000000
80208000
40604000
60206000
40804000
88080406
04062662
80808000
20202000
66080604
08042442
40404000
80808000
20828000
46460000
20202000
60606000
80282000
42420000
40404000
606060B0
26282080
4!401!201!40B!60
30202000
60606000
48424080
2!20A!807!40B!60
30202000
60606000
40602000
80208000
40608000
20406000
70208020
60402080
60408020
80402000
48206040
60B020A0
40682040
80702030
80462080
40106030
80462080
20304010
84646000
02626000
48282000
08264000
;
#SINGLE:MANIAC:7:
00000000
00000000
80264000
80428000
60862000
80268000
28648284
24628460
(2006004020000000)
(4006008020000000)
86482842
62482840
(8004006020000000)
(6008002040000000)
80486000
26420000
(4082082060000000)
(6082082040000000)
80624000
84280000
(6082082040000000)
(4082082060208042)
(4080206400802060)
32A0B410
(8048046020000082)
(8040608020000006)
(8060402400802080)
741032B0
(8042046020000082)
84286000
(0026028040000000)
0A010B00
(2082006020000084)
84246000
(0084082060000000)
0A070B00
(8028004080000026)
26864000
32826424
82842860
B4248284
28648260
(2084024080206040)
24826428
62428428
64868424
(8028202820000000)
(0046404640000008)
(6062606260000000)
(0028408260000000)
;
#SINGLE:BASIC:3:
00000000
00000000
80004000
20002000
40006000
80008000
60206040
80402000
B0000000
B0000000
40802080
40608000
30000000
30000000
60402040
80208000
70000000
70000000
40802060
40608000
A0000000
A0006040
80804060
20202000
80004000
B0000000
80206060
80204040
40006000
B0000000
2!2000A000
2!2000A000
2!2000A000
2!2000A000
20006000
40008000
40002000
40604000
70406060
20802000
60608080
60402000
B0602020
80408000
40408080
20602000
6!60006000
4!40004000
8!80008000
20000000
;
