#VERSION:0.82;
#TITLE:There She Goes;
#SUBTITLE:;
#ARTIST:Vine;
#TITLETRANSLIT:;
#SUBTITLETRANSLIT:;
#ARTISTTRANSLIT:;
#GENRE:Quality Stream;
#ORIGIN:;
#CREDIT:;
#BANNER:There She Goes.png;
#BACKGROUND:There She Goes-bg.png;
#PREVIEWVID:;
#JACKET:jacket.png;
#CDIMAGE:;
#DISCIMAGE:;
#LYRICSPATH:;
#CDTITLE:;
#MUSIC:There She Goes.ogg;
#OFFSET:-0.500000;
#SAMPLESTART:92.914040;
#SAMPLELENGTH:13.714000;
#SELECTABLE:YES;
#BPMS:0.000=135.000,
240.000=125.000,
245.000=123.500,
248.000=124.000,
252.000=120.000,
256.000=115.000,
258.000=118.000,
260.000=119.500,
262.000=118.500,
266.000=117.000,
267.000=115.000,
268.000=109.000,
269.000=102.000,
270.000=96.000;
#STOPS:;
#DELAYS:;
#WARPS:;
#TIMESIGNATURES:0.000=4=4;
#TICKCOUNTS:0.000=4;
#COMBOS:0.000=1;
#SPEEDS:0.000=1.000=0.000=0;
#SCROLLS:0.000=1.000;
#FAKES:;
#LABELS:0.000=Song Start;
#BGCHANGES:8.000=There She Goes.avi=1.000=0=0=1=====,
99999=-nosongbg-=1.000=0=0=0 // don't automatically add -songbackground-
;
#KEYSOUNDS:;
#ATTACKS:
;

//---------------dance-single - ----------------
#NOTEDATA:;
#CHARTNAME:;
#STEPSTYPE:dance-single;
#DESCRIPTION:;
#CHARTSTYLE:;
#DIFFICULTY:Hard;
#METER:8;
#RADARVALUES:0.490516,0.547161,0.272870,0.204652,0.030319,390.000000,36.000000,27.000000,0.000000,0.000000,0.000000,0.000000,0.000000,0.490516,0.547161,0.272870,0.204652,0.030319,390.000000,36.000000,27.000000,0.000000,0.000000,0.000000,0.000000,0.000000;
#CREDIT:Ben Speirs;
#NOTES:
// measure 0
0000
0000
0000
0000
,  // measure 1
0000
0000
0000
0000
,  // measure 2
0000
0000
0000
0000
,  // measure 3
0000
0000
0000
0000
,  // measure 4
0001
0010
0001
1000
0200
0000
0310
0000
,  // measure 5
0001
0000
1000
0000
0010
0000
1001
0001
,  // measure 6
0200
0000
0310
0100
0001
1000
0020
0000
,  // measure 7
2030
3001
1000
0101
,  // measure 8
1000
0100
1000
0001
0020
0000
0130
0000
,  // measure 9
1000
0000
0001
0000
0100
0000
1001
1000
,  // measure 10
0020
0000
0130
0010
1000
0001
0200
0000
,  // measure 11
0301
1000
0001
1000
0001
1000
0001
0000
0100
0000
0100
0000
0010
0000
0000
0000
,  // measure 12
1000
0100
0001
1000
0010
0001
1000
0010
,  // measure 13
0100
0001
1000
0000
1001
0000
1001
0000
,  // measure 14
0001
0010
1000
0001
0100
1000
0001
0100
,  // measure 15
0010
1000
0001
0000
1001
0000
1001
0000
,  // measure 16
0100
0001
1000
0100
0010
0001
1000
0010
,  // measure 17
0100
0001
1000
0000
1010
0000
0101
0000
,  // measure 18
0010
1000
0001
0010
0100
1000
0001
0100
,  // measure 19
0010
1000
0001
0000
0000
1001
0000
1001
,  // measure 20
0100
0010
1000
0001
,  // measure 21
0010
0000
0100
0000
1000
0010
0100
0001
,  // measure 22
1000
0001
0010
0001
,  // measure 23
0100
0110
0010
0010
1001
0000
1001
0000
,  // measure 24
0001
0100
1000
0100
0002
0000
1003
0000
,  // measure 25
1100
0001
0101
1000
,  // measure 26
0001
0000
1000
0100
0010
0001
1000
0000
,  // measure 27
0010
0100
0001
0000
1000
0001
0010
0000
,  // measure 28
1000
0010
0001
0010
2000
0000
3001
0000
,  // measure 29
0012
0000
2003
0000
3100
0010
0001
0000
,  // measure 30
1000
0000
0001
0010
0100
1000
0001
0000
,  // measure 31
0100
0000
0010
0000
0010
0000
0000
1000
0100
0000
1000
0000
0010
0100
0001
0000
,  // measure 32
0001
0010
1000
0001
0100
1000
0001
0100
,  // measure 33
0010
1000
0001
0000
1001
0000
1001
0000
,  // measure 34
1000
0100
0001
1000
0010
0001
1000
0010
,  // measure 35
0100
0001
1000
0000
1001
0000
1001
0000
,  // measure 36
0010
1000
0001
0010
0100
1000
0001
0100
,  // measure 37
0010
1000
0001
0000
0101
0000
1010
0000
,  // measure 38
0100
0001
1000
0100
0010
0001
1000
0010
,  // measure 39
0100
0001
1000
0000
0000
1001
0000
1001
,  // measure 40
0020
0031
0200
0310
,  // measure 41
2000
0000
3001
0000
0010
0100
0010
0001
,  // measure 42
0200
0310
2000
3001
,  // measure 43
0020
0000
0130
0000
1000
0100
0010
0000
,  // measure 44
0001
0010
0100
1000
0010
1000
0100
0010
,  // measure 45
0001
1000
0010
0100
0001
0000
0101
0000
,  // measure 46
1000
0000
0010
1000
0100
0010
0002
0000
,  // measure 47
2003
0000
3010
0000
0100
0001
0100
0010
,  // measure 48
1000
0100
0010
0001
0100
0001
0010
0100
,  // measure 49
1000
0001
0100
0010
1000
0000
1010
0000
,  // measure 50
0001
0000
0100
0001
0010
0100
2000
0000
,  // measure 51
3001
0000
0000
0100
0010
0000
0100
0000
0001
0010
0000
0010
0100
0000
1000
0000
,  // measure 52
1000
0100
0001
1000
0010
0001
1000
0010
,  // measure 53
0100
0001
1000
0000
1001
0000
1001
0000
,  // measure 54
0001
0010
1000
0001
0100
1000
0001
0100
,  // measure 55
0010
1000
0001
0000
1001
0000
1001
0000
,  // measure 56
0100
0001
1000
0100
0010
0001
1000
0010
,  // measure 57
0100
0001
1000
0000
1010
0000
0101
0000
,  // measure 58
0010
1000
0001
0010
0100
1000
0001
0100
,  // measure 59
0010
1000
0001
0010
0000
0100
0010
0001
,  // measure 60
2000
0000
0100
0000
3010
0000
0010
1000
,  // measure 61
0002
0000
0100
0000
0013
0000
0010
0001
,  // measure 62
2000
0000
0100
0000
3010
0000
0001
1000
,  // measure 63
0020
0000
0100
0000
1030
0000
1000
0100
,  // measure 64
0010
0000
0001
0100
0010
1000
0100
0010
,  // measure 65
0001
0000
1001
0000
0100
0000
0010
1000
,  // measure 66
0100
0000
1100
0000
0001
0000
1000
0001
,  // measure 67
0200
0010
0010
0310
,  // measure 68
2002
0000
0000
3003
;

//---------------dance-single - ----------------
#NOTEDATA:;
#CHARTNAME:;
#STEPSTYPE:dance-single;
#DESCRIPTION:;
#CHARTSTYLE:;
#DIFFICULTY:Medium;
#METER:5;
#RADARVALUES:0.302106,0.412337,0.121276,0.295609,0.000000,224.000000,16.000000,39.000000,0.000000,0.000000,0.000000,0.000000,0.000000,0.302106,0.412337,0.121276,0.295609,0.000000,224.000000,16.000000,39.000000,0.000000,0.000000,0.000000,0.000000,0.000000;
#CREDIT:Ben Speirs;
#NOTES:
0000
0000
0000
0000
,
0000
0000
0000
0000
,
0000
0000
0000
0000
,
0000
0000
0000
0000
,
0100
0010
1000
1000
,
0001
0000
1000
0000
,
0000
0000
0100
0010
0100
0000
0010
0000
,
0001
0000
0000
0000
,
1000
1000
0001
0100
,
0010
0010
0000
0000
,
0000
0000
1000
0001
1000
0000
0001
0000
,
0100
0000
0000
0000
,
0020
0000
2030
0000
3200
0000
0310
0001
,
2000
3001
0000
0000
,
0100
0000
0010
1000
0100
0000
0010
0001
,
0100
0010
1001
0000
,
0002
0000
0023
0000
0230
0000
1300
0001
,
0200
0310
0000
0000
,
1000
0000
0010
0100
0001
0000
1000
0100
,
0010
0001
0000
1001
,
0010
1000
0100
0010
,
0001
1000
0010
0010
,
0100
0001
0010
0100
,
1000
1000
0001
0001
,
0100
0010
1000
0000
1100
0000
0101
0000
,
0000
1000
0000
0001
,
0000
0000
0100
0010
1000
0000
0200
0000
,
0310
0000
0000
0000
,
0001
1000
0010
0000
1010
0000
1001
0000
,
0101
1001
0000
0000
,
0100
0000
1000
0001
0100
0000
0020
0000
,
1030
0000
0000
0000
,
0002
0000
2003
0000
3200
0000
0310
0001
,
2000
3010
0000
0000
,
0100
0000
0010
1000
0100
0000
0010
0001
,
0100
0010
1001
0000
,
0200
0000
0302
0000
2003
0000
3100
0010
,
0002
1003
0000
0000
,
0010
0000
0100
0010
1000
0000
0100
0010
,
0001
1001
0000
0010
,
1000
1100
0001
0101
,
1000
0000
0001
0000
0100
0100
0100
0000
,
0010
1000
0100
0010
,
0001
0000
1000
0000
0010
0010
0010
0000
,
2000
0000
3100
0000
0010
0001
1000
0000
,
0000
0010
1000
0100
,
0000
0000
1000
0001
1000
0001
0100
0000
,
0020
0030
0000
0000
,
0100
0001
2000
0000
3100
0000
0010
0000
,
0002
1003
0000
0000
,
0010
0000
0100
0001
0100
0001
1000
0000
,
0100
0000
0000
0000
,
0002
0000
2003
0000
3020
0000
0130
0001
,
2000
3200
0300
0000
,
0010
0000
0001
1000
0010
0000
0100
0001
,
1000
1001
0110
0000
,
2000
0000
3002
0000
0203
0000
0310
1000
,
0200
0320
0030
0000
,
0001
0000
0010
0001
1000
0000
0010
1000
,
0001
1001
0000
0100
,
0020
0000
0000
1030
,
0200
0000
0000
0310
,
0002
0000
0000
1003
,
0020
0000
0000
0130
,
0002
0000
0000
1003
,
0200
0000
0000
0310
,
0002
0000
0000
1003
,
0010
0010
0010
0010
,
1001
0000
0000
0000
;

//---------------dance-single - ----------------
#NOTEDATA:;
#CHARTNAME:;
#STEPSTYPE:dance-single;
#DESCRIPTION:;
#CHARTSTYLE:;
#DIFFICULTY:Easy;
#METER:3;
#RADARVALUES:0.178665,0.231939,0.060638,0.060638,0.000000,149.000000,8.000000,8.000000,0.000000,0.000000,0.000000,0.000000,0.000000,0.178665,0.231939,0.060638,0.060638,0.000000,149.000000,8.000000,8.000000,0.000000,0.000000,0.000000,0.000000,0.000000;
#CREDIT:Ben Speirs;
#NOTES:
0000
0000
0000
0000
,
0000
0000
0000
0000
,
0000
0000
0000
0000
,
0000
0000
0000
0000
,
0100
0000
0010
0010
,
1000
0000
0001
0000
,
0000
1000
0100
0010
,
0001
0000
0000
0000
,
1000
0000
0010
0010
,
0100
0100
0000
0000
,
0000
0001
0010
0100
,
1000
0000
0000
0000
,
0010
0010
0010
1000
,
0001
0001
0000
0000
,
0100
0000
0001
0000
,
1000
1000
0001
0000
,
0010
0010
0100
0100
,
1000
0001
0000
0000
,
0100
0000
0100
0000
,
0010
0010
0000
0000
,
1001
0000
0100
0000
,
0001
0000
1000
0000
,
0100
0000
1000
0000
,
0010
0000
0010
0000
,
1000
1000
0001
0001
,
0000
0000
0000
0000
,
0100
0100
0010
0010
,
0100
0000
0000
0000
,
0001
0001
1000
1000
,
0001
0001
0000
0000
,
0000
0010
0010
0100
,
0100
0000
0000
0000
,
1001
1000
0001
0100
,
0010
0010
0000
0000
,
0100
0000
0001
0000
,
1000
1000
1000
0000
,
1001
1000
0100
1000
,
0010
0010
0000
0000
,
0100
0000
0100
0000
,
0001
0001
0000
0000
,
0110
0000
1000
0000
,
0001
0000
0100
0000
,
0110
0000
0001
0000
,
1000
0000
0100
0000
,
0010
0010
0001
1000
,
0000
0000
0000
0000
,
0010
1000
0010
1000
,
0001
0000
0000
0000
,
1000
1000
0100
0010
,
0001
0001
0000
0000
,
0000
0100
0001
0100
,
0010
0000
0000
0000
,
1001
1000
0010
0100
,
0010
0010
0000
0000
,
0001
1000
0010
1000
,
0100
0100
0100
0000
,
1001
0001
0010
0001
,
0100
0100
0000
0000
,
0010
0100
0001
1000
,
0100
0100
0000
0000
,
2000
0000
3000
0000
,
0002
0000
0003
0000
,
0200
0000
0300
0000
,
0020
0000
0030
0000
,
2000
0000
3000
0000
,
0002
0000
0003
0000
,
2000
0000
3000
0000
,
0200
0000
0310
0000
,
1001
0000
0000
0000
;

//---------------dance-single - ----------------
#NOTEDATA:;
#CHARTNAME:;
#STEPSTYPE:dance-single;
#DESCRIPTION:;
#CHARTSTYLE:;
#DIFFICULTY:Beginner;
#METER:2;
#RADARVALUES:0.120193,0.154626,0.030319,0.000000,0.000000,107.000000,4.000000,0.000000,0.000000,0.000000,0.000000,0.000000,0.000000,0.120193,0.154626,0.030319,0.000000,0.000000,107.000000,4.000000,0.000000,0.000000,0.000000,0.000000,0.000000,0.000000;
#CREDIT:Ben Speirs;
#NOTES:
0000
0000
0000
0000
,
0000
0000
0000
0000
,
0000
0000
0000
0000
,
0000
0000
0000
0000
,
0100
0000
0001
0000
,
1000
0000
0000
0000
,
0000
0100
0100
0000
,
0100
0000
0000
0000
,
1000
0000
0001
0000
,
0100
0100
0000
0000
,
0000
0010
0010
0000
,
0010
0000
0000
0000
,
1000
0000
0001
0000
,
0100
0100
0000
0000
,
0001
0000
1000
0000
,
0100
0100
0100
0000
,
1000
0000
0001
0000
,
0010
0010
0000
0000
,
0001
0000
1000
0000
,
0010
0010
0000
0000
,
1001
0000
0000
0000
,
0100
0000
0000
0000
,
0001
0000
0000
0000
,
1000
0000
0000
0000
,
0100
0000
0100
0000
,
0010
0000
0000
0000
,
0000
0001
0001
0000
,
0001
0000
0000
0000
,
0100
0000
0100
0000
,
0010
0010
0000
0000
,
1000
0000
1000
0000
,
0100
0000
0000
0000
,
1001
0000
0100
0000
,
0010
0010
0000
0000
,
1000
0000
0001
0000
,
0100
0100
0100
0000
,
0001
0000
1000
0000
,
0100
0100
0000
0000
,
1000
0000
0001
0000
,
0100
0100
0000
0000
,
1001
0000
0000
0000
,
0010
0000
0000
0000
,
1000
0000
0000
0000
,
0001
0000
0000
0000
,
0100
0000
0100
0000
,
0010
0000
0000
0000
,
0000
1000
1000
0000
,
1000
0000
0000
0000
,
0100
0000
0010
0000
,
0010
0000
0000
0000
,
0000
0001
0001
0000
,
0001
0000
0000
0000
,
0100
0000
0010
0000
,
1000
0000
0001
0001
,
0000
0000
1000
0000
,
0100
0000
0010
0010
,
0000
0000
0001
0000
,
1000
0000
0010
0010
,
0000
0000
1000
0000
,
0100
0000
0010
0010
,
0010
0000
0000
0000
,
0001
0000
0000
0000
,
1000
0000
0000
0000
,
0010
0000
0000
0000
,
0100
0000
0000
0000
,
0001
0000
0000
0000
,
1000
0000
0000
0000
,
0100
0000
0100
0000
,
1001
0000
0000
0000
;

//---------------dance-double - ----------------
#NOTEDATA:;
#CHARTNAME:;
#STEPSTYPE:dance-double;
#DESCRIPTION:;
#CHARTSTYLE:;
#DIFFICULTY:Challenge;
#METER:8;
#RADARVALUES:0.448286,0.496851,0.348667,0.272870,0.000000,332.000000,46.000000,36.000000,0.000000,0.000000,0.000000,0.000000,0.000000,0.448286,0.496851,0.348667,0.272870,0.000000,332.000000,46.000000,36.000000,0.000000,0.000000,0.000000,0.000000,0.000000;
#CREDIT:Ben Speirs;
#NOTES:
00000000
00000000
00000000
00000000
,
00000000
00000000
00000000
00000000
,
00000000
00000000
00000000
00000000
,
00000000
00000000
00000000
00000000
,
10000000
01000000
10000000
01000000
00200000
00000000
00320000
00000000
,
01030000
01010000
10000000
10100000
,
00010000
00000000
10000000
00100000
00010000
00001000
00000020
00000000
,
00000032
00000000
00001003
00000000
00000001
00001000
00000010
00000000
,
00001000
00000100
00001000
00000100
00000020
00000000
00000031
00001000
,
00000020
00000230
00000301
00001000
,
00000001
00000000
00000001
00000100
00001000
00010000
02000000
00000000
,
13000000
01000000
00100000
00000000
00010000
10000000
00100000
00000000
,
10010000
00000000
00011000
00000000
00001001
00000000
00000010
00000010
,
00000010
00000000
00000100
00000000
00000010
00000100
00000010
00000000
,
00000100
00000000
00000001
00000100
00001000
00000000
00010000
00100000
,
10000000
01000000
10010000
00000000
,
10010000
00000000
00011000
00000000
00001001
00000000
00000010
00000010
,
00000010
00001001
00000001
00001000
,
00000010
00000000
00000100
00000010
00001000
00000000
00000100
00000100
,
00000100
00000000
00010000
00000000
00000100
00010000
00001000
00100000
,
00020000
01000000
10000000
00100000
,
10000000
00000000
10000000
00000000
10030000
01000000
00100000
00010000
,
20000000
01000000
00100000
00010000
,
00100000
00000000
00100000
00000000
30010000
00100000
01000000
10000000
,
00100000
01000000
00100000
01000000
00010000
00100000
00002000
00000000
,
00013000
00000100
00000010
00000001
,
00000100
00000000
00000001
00000100
00000010
00001000
00000100
00000000
,
00020200
00000000
00030300
00000000
00000100
00001000
00000010
00000000
,
00000200
00000000
00000310
00001000
00000200
00000000
00020300
00000000
,
00032000
00000000
00203000
00000000
00310000
10000000
00100000
00000000
,
10000000
00100000
01000000
00010000
00100000
00001000
00010000
00000000
,
00011000
00000000
00000000
00000000
00000100
00001000
00000010
00000000
,
00001001
00000000
00011000
00000000
10010000
00000000
00100000
00100000
,
00100000
00000000
11000000
00000000
00010000
10000000
00010000
00000000
,
10000000
00000000
01000000
00010000
00001000
00000000
00000100
00000010
,
00001000
00000100
00002200
00003300
,
00001001
00000000
00011000
00000000
10010000
00000000
00100000
00100000
,
00100000
00000000
10010000
00000000
10000000
00010000
00100000
00000000
,
00000000
00000000
00010000
10000000
00100000
00000000
00010000
00001000
,
00000010
00000000
00000001
00000000
00001000
00000001
00001000
00000001
,
00000200
00001000
00000010
00000001
,
00001000
00000000
00000001
00000000
00000310
00001000
00000010
00001000
,
00000200
00000001
00000010
00001000
,
00000001
00000000
00000010
00000000
00001300
00000100
00001000
00000100
,
00010000
00001000
00100000
00010000
01000000
00100000
10000000
01000000
,
00100000
00010000
01000000
00100000
00010000
00010000
00100000
10000000
,
00000000
00010000
10000000
00100000
01000000
01000000
00020000
00000000
,
00230000
00000000
01300000
00000000
00100000
00010000
01000000
00000000
,
00010000
00100000
00001000
00010000
00000100
00001000
00000010
00000100
,
00001000
00000100
00000010
00001000
00000100
00000100
00000010
00000001
,
00000000
00000010
00000001
00000100
00000010
00001000
00000001
00000000
,
00001000
00000100
00000010
00000000
00000011
00000000
00001100
00000000
,
00001001
00011000
10010000
00011000
,
00001001
00000000
00001001
00000000
00000010
00001000
00000010
00000000
,
00001001
00011000
00010001
00011000
,
10001000
10010000
02200000
03300000
,
10010000
00000000
00011000
00000000
00001001
00000000
00011000
00010000
,
00001000
00011000
10001000
10001000
,
10010000
00000000
00001000
10000000
00010000
00000000
10000000
00001000
,
00010000
00000000
00010100
00000000
00010000
00001000
00010000
00000100
,
00002000
00000000
00000000
00000000
00003000
00000000
00000100
00001000
,
00000020
00000000
00000000
00000000
00000030
00000000
00000100
00000010
,
00002000
00000000
00000000
00000000
00003000
00000000
00000100
00010000
,
00002000
00000000
00000000
00000000
00003000
00000000
00010000
00001000
,
00200000
00000000
00310000
00000000
10000000
00100000
10000000
00100000
,
02000000
00000000
03010000
00000000
10000000
00010000
10000000
00010000
,
02000000
00000000
03100000
00000000
10000000
00100000
10000000
00100000
,
02000000
03010000
00100000
00001000
,
00020200
00000000
00000000
00000000
,
00030300
00000000
00000000
00000000
;
