#TITLE:Livin' La Vida Loca;
#ARTIST:CJ CREW feat. GIORGIO;
#FILE:Livin' La Vida Loca.mp3;
#BPM:197.780;
#GAP:5117;
#SAMPLESTART:70.628;
#SAMPLELENGTH:14.980;
#DISPLAYBPM:198;
#SINGLE:BEGINNER:2:
40000000
40000000
60000000
60000000
80000000
80000000
60000000
60000000
40004000
40000000
20002000
20000000
40000000
80008000
80000000
20002000
20000000
60006000
60000000
40004000
40000000
80000000
40000000
20002000
20000000
40000000
60000000
80008000
80000000
20200000
40400000
60600000
80800000
60600000
40400000
80800000
A0000000
40000000
60000000
20002000
20000000
60000000
00000000
40404040
40000000
00002000
20000000
00004000
40000000
00006000
60000000
00008000
80000000
00202000
B0000000
00808000
80004000
60000000
B0000000
00202000
20004000
20000000
B0000000
00404000
40006000
40000000
A0000000
00202000
80002000
80000000
40006000
40000000
20008000
20000000
B0000000
40404000
40000000
80808000
80000000
20202000
20000000
60606000
60000000
B0000000
;
#SINGLE:ANOTHER:9:
80008000
40004000
20002000
80806040
10008040
20004060
20008040
20406086
80604020
40408080
40602080
B!B00000B0
80406002
82060400
20406004
24080200
60402008
68020400
80406002
82060400
20204040
80206040
60608080
60402000
40406060
80604080
20208080
40208000
40602840
60402860
40602840
60208260
404!40201!20
80A!80609!60
203!2080A!80
407!402010
40602000
82804060
00806040
20408000
20804000
24204000
60402080
90901010
8!80202040
20484!4020
B!60802020
80403000
8!80202040
20706!6040
3!20808060
80803000
70309010
64640000
4!400B!6003!20
0A00B000
26260406
02000000
6!6009!8082!20
0100B!B0B0
84840204
06000000
4!400B!6009!80
0A009!9090
20840424
06000000
4!400B!6009!80
09001!1010
82820604
02000000
42420406
02000000
68680204
06000000
A!A00000A0
60204004
26040600
40206006
24060400
60804004
86040800
40608006
84080600
B0000000
;
#SINGLE:MANIAC:14:
40008000
60008000
40006000
20804286
30402080
60408020
60804080
60402046
28040608
02040626
04060802
B!40000010
A06!603!20A4
62!20A!807!40B
802!201!40B4
28!809!60B!407
A06!603!2038
24!40B!609!80A
408!80A!20A4
26486280
B0103040
62804280
60901030
42806480
20A07060
42806480
20301046
82048822
(6006002080080040)
(6006002080206040)
(2002008040040060)
(2002008060204020)
(8004002080060040)
(8002006080408060)
(4008002060040020)
(8002004080206040)
20106240
84604260
801030A0
86242842
60103082
68486426
28060204
7030A0B0
28242628
42864826
84828642
86284620
84264826
84628246
28426486
84286242
A03010B0
284!42!20010
86828246
48287000
4264080A
0B!B00B020
42468628
2646A000
62420607
03!3003020
84262486
84283046
4082648A
07!7007000
84826264
6828B000
84640A03
01!1001000
84620A0B
09!9009000
28620307
0B!422!24020
10A08630
48628428
64262486
84264826
84864826
84864262
48284286
28426482
68462462
B0000000
;
#SINGLE:BASIC:6:
60000000
40000000
20000000
40404040
40000000
80000000
40006000
20006000
B0002000
40008000
40006000
80000000
60208000
40002000
40602000
80004000
20806000
40006000
40802000
80004000
20204040
20004000
60608080
60008000
20208080
20008000
20204040
60004000
80406000
20804000
20806000
40602000
80206000
80204000
60408000
20804000
20208080
20008000
60602020
60004000
80804040
80002000
00000000
40604060
20804020
80604040
60608060
20804060
40208060
20804060
40402020
40802060
80204080
20604000
80040020
08006000
20604020
40802000
80040060
08002000
80604080
20804000
20040060
08002000
80604080
20604000
60040020
08006000
80204080
20604000
60408020
80402000
40206020
40802000
B0000000
20202000
40206000
20202000
40206000
80808000
40806000
80808000
40806020
B0000000
;
