#VERSION:0.82;
#TITLE:Stronger;
#SUBTITLE:(What Doesn't Kill You);
#ARTIST:Kelly Clarkson;
#TITLETRANSLIT:;
#SUBTITLETRANSLIT:;
#ARTISTTRANSLIT:;
#GENRE:Harder, Better, Faster;
#ORIGIN:;
#CREDIT:;
#BANNER:Stronger.png;
#BACKGROUND:Stronger-bg.png;
#PREVIEWVID:;
#JACKET:jacket.png;
#CDIMAGE:;
#DISCIMAGE:;
#LYRICSPATH:;
#CDTITLE:cdtitle.png;
#MUSIC:Stronger.ogg;
#OFFSET:0.020000;
#SAMPLESTART:99.513237;
#SAMPLELENGTH:17.959999;
#SELECTABLE:YES;
#DISPLAYBPM:116;
#BPMS:0.000=116.000,
177.000=58.000,
185.000=116.000;
#STOPS:80.000=1.552;
#DELAYS:;
#WARPS:;
#TIMESIGNATURES:0.000=4=4;
#TICKCOUNTS:0.000=4;
#COMBOS:0.000=1;
#SPEEDS:0.000=1.000=0.000=0;
#SCROLLS:0.000=1.000;
#FAKES:;
#LABELS:0.000=Song Start;
#BGCHANGES:4.000=Stronger.avi=1.000=0=0=1=====,
99999=-nosongbg-=1.000=0=0=0 // don't automatically add -songbackground-
;
#KEYSOUNDS:;
#ATTACKS:
;

//---------------dance-single - ----------------
#NOTEDATA:;
#CHARTNAME:;
#STEPSTYPE:dance-single;
#DESCRIPTION:;
#CHARTSTYLE:;
#DIFFICULTY:Hard;
#METER:7;
#RADARVALUES:0.416750,0.450831,0.261246,0.268503,0.007257,329.000000,36.000000,37.000000,0.000000,0.000000,0.000000,0.000000,0.000000,0.416750,0.450831,0.261246,0.268503,0.007257,329.000000,36.000000,37.000000,0.000000,0.000000,0.000000,0.000000,0.000000;
#CREDIT:Ben Speirs;
#NOTES:
0000
0000
0000
0000
,
0000
0000
0000
0000
,
0000
0000
0000
0000
,
0000
0000
0000
0000
,
0001
0000
0100
0000
0010
0100
0010
0000
,
1000
0001
0010
0010
,
0001
1000
0001
1000
0010
0100
0001
0000
,
1000
0001
1000
0001
0100
0010
1000
0000
,
0001
0000
1000
0100
1000
0000
0010
0000
,
0100
0100
0001
1000
,
0010
0100
0010
0100
0001
1000
0001
0000
,
0010
0100
0010
0100
1000
0001
1000
0000
,
0010
0000
0101
0000
1000
0001
0200
0000
,
0310
0000
1000
0100
1000
0001
0010
0000
,
0001
0000
1100
0000
0010
1000
0001
0000
,
0100
0100
0200
0000
0000
0000
0310
0000
,
2002
0000
3003
0000
0010
1000
0100
0000
,
2100
0000
3001
0000
0100
0001
1000
0000
,
0010
1000
0010
1000
0001
0010
0001
0000
,
0101
1200
0000
0310
,
1001
0000
2010
0000
3001
0000
0100
0001
,
0100
0001
0102
0000
1003
0000
0100
1000
,
0100
1000
0020
0000
0130
0000
0001
1000
,
0001
0000
1000
0100
0100
0010
0010
0001
,
1000
0000
0102
0000
1003
0000
0010
1000
,
0010
1000
2010
0000
3001
0000
0010
0001
,
0010
0001
0200
0000
0310
0000
1000
0001
,
1000
0000
0001
0010
0010
0100
0100
1000
,
0001
1000
0010
0000
1010
0000
0012
0000
,
1003
0020
0000
0000
0130
0000
0010
1000
,
0100
0000
1100
0000
0001
0010
0001
1000
,
0001
0000
0100
0000
0010
1000
0010
1000
,
0001
0000
1100
0000
1002
0000
0013
0100
,
0010
0001
0102
0000
2003
0000
3100
0010
,
0100
1000
0020
0000
0130
0000
0001
1000
,
0001
0000
0100
0000
0001
0000
1000
0010
,
0010
0000
1001
0000
1000
0100
1000
0001
,
1000
0010
2000
0000
3200
0000
0310
0001
,
1000
0000
1001
0000
0001
0010
0001
1000
,
0001
0100
0002
0000
0023
0000
0130
1000
,
0001
0000
1100
0000
0100
1000
0100
1000
,
0010
1000
0100
0010
0002
0000
2003
0000
,
3000
0000
0010
0100
0010
1000
0100
0000
,
0010
0001
0010
0000
0001
1000
0001
1000
,
0010
0202
0000
0303
,
0000
0000
0000
0000
2000
0000
0000
0000
0000
0000
0000
0000
3000
0001
0100
0001
,
1000
1001
1100
0000
0101
0000
1000
0100
,
0010
0001
0011
0000
1010
0000
0001
0100
,
0010
1000
0200
0000
0310
0000
0001
1000
,
0002
0000
0103
0000
0010
0010
1000
1000
,
0001
0000
0011
0000
1010
0000
0001
0010
,
0100
1000
1100
0000
0101
0000
1000
0010
,
0100
0001
0020
0000
0130
0000
1000
0001
,
2000
0000
3010
0000
0100
0100
0001
0001
,
1000
0010
0100
0000
0102
0000
2003
0000
,
3100
0020
0000
0000
0031
0000
1000
0100
,
0010
0001
0100
0000
0001
0010
0001
1000
,
0100
0010
0001
0100
0100
0010
0010
1000
,
0001
0000
1001
1000
1001
0000
0010
1000
,
0100
0000
1001
0001
1001
0000
0100
0001
,
0010
0000
0012
0000
2003
0000
3010
1000
,
0002
0000
0103
0010
0100
0010
1000
0100
,
0010
0001
0000
0000
0000
0000
0000
0000
;

//---------------dance-single - ----------------
#NOTEDATA:;
#CHARTNAME:;
#STEPSTYPE:dance-single;
#DESCRIPTION:;
#CHARTSTYLE:;
#DIFFICULTY:Challenge;
#METER:8;
#RADARVALUES:0.549447,0.564106,0.166907,0.166907,0.246733,484.000000,23.000000,23.000000,0.000000,0.000000,0.000000,0.000000,0.000000,0.549447,0.564106,0.166907,0.166907,0.246733,484.000000,23.000000,23.000000,0.000000,0.000000,0.000000,0.000000,0.000000;
#CREDIT:Ben Speirs;
#NOTES:
0000
0000
0000
0000
,
0000
0000
0000
0000
,
0000
0000
0000
0000
,
0000
0000
0000
0000
,
1000
0100
1000
0100
0010
0010
0001
1000
,
0010
1000
0002
0000
0103
0010
0100
0000
,
0001
0001
0100
0010
1000
0010
0001
0010
,
1000
1000
0100
0010
0001
0010
1000
0010
,
0001
0100
0001
0100
0010
0010
1000
0001
,
0100
0001
2000
0000
3010
0100
0010
0000
,
1000
1000
0010
0100
0001
0100
1000
0100
,
0001
0001
0010
0100
1000
0100
0001
0100
,
1100
0000
0001
1000
0001
0000
0100
0000
0010
0000
1000
0000
1010
0000
0000
0000
,
0001
0000
0010
0100
0010
0000
0001
0000
1000
0000
0100
0000
0010
0000
0000
0000
,
0001
0000
0100
0001
0100
0000
0010
0000
1000
0000
1000
0000
0001
0000
0000
0000
,
1001
0100
1002
0000
0103
0010
1000
0001
,
0011
0000
1000
0001
1000
0000
0010
0000
0100
0000
0001
0000
0101
0000
0000
0000
,
1000
0000
0100
0010
0100
0000
1000
0000
0001
0000
0010
0000
0100
0000
0000
0000
,
1000
0000
0010
1000
0010
0000
0100
0000
0001
0000
0001
0000
1000
0000
0100
0000
,
1001
0010
2001
0000
3010
0100
0001
1000
,
1100
0000
0000
0000
0001
0010
0001
0010
0001
0000
0000
0000
0100
0000
0100
0000
,
0001
0000
1000
0000
0010
0100
0010
0100
0010
0000
0000
0000
0100
0000
0100
0000
,
0001
1000
1200
0000
0310
0001
1000
1000
,
0001
0000
1000
0010
0100
0100
0010
1000
,
0001
0000
0010
0000
0100
1000
0100
1000
0100
0000
0000
0000
0010
0000
0010
0000
,
0001
0000
1000
0000
0010
0100
0010
0100
0010
0000
0000
0000
1000
0000
1000
0000
,
0010
1000
1002
0000
0103
0010
0100
0001
,
2000
0000
3100
0010
0010
0001
0001
1000
,
0001
0000
0100
0010
0100
0000
0000
0000
0001
1000
0001
1000
0010
0000
0100
0000
,
0001
0000
1000
0001
1000
0001
1000
0000
0100
0000
0010
0000
0001
0000
1000
0000
,
2100
0000
3002
0000
0103
1000
0100
0001
,
1000
0000
0100
0000
0010
0000
0001
1000
0001
0000
0100
0000
0010
0000
0010
0000
,
1000
0000
0001
0000
0100
0010
0100
0001
0100
0000
0000
0000
0010
0000
1000
0000
,
0100
0000
0100
0000
0010
0001
0010
0100
0010
0000
0000
0000
0001
0000
0001
0000
,
0010
0100
2100
0000
3001
0010
0100
0010
,
0002
0000
0103
0010
1000
0001
0010
0001
,
0001
0000
1000
0001
1000
0000
0020
0000
0000
0000
0130
0001
0100
0000
0010
1000
,
0010
0000
1000
0000
0001
0000
0010
0100
0010
0000
0001
0010
0001
0000
1000
0000
,
0001
0000
0200
0000
0000
0000
0310
1000
0010
0000
1000
0000
0001
0000
1000
0001
,
1000
0000
0010
0000
0100
0000
0001
0100
0001
0000
1000
0100
1000
0000
0001
0000
,
0010
0000
0002
0000
0000
0000
1003
0000
0100
0000
0010
0000
0001
1000
0001
0000
,
0100
0000
0010
0000
1000
0100
1000
0000
0001
0000
0100
0000
0010
0000
1000
0000
,
0001
0000
1000
0000
0100
0000
0010
0001
0010
0000
0100
0000
1000
0000
0001
0000
,
0100
0000
0010
0000
1000
0000
0001
0100
0001
0000
1000
0000
0100
0000
0010
0000
,
0001
1000
0001
1000
0100
0000
0000
0000
0000
0000
0000
0000
0001
0000
0000
0000
,
0000
0000
0000
0000
0010
0000
0000
0000
0000
0000
0000
0000
1000
0001
0100
0001
,
0100
0001
1010
0000
0001
1000
0001
1000
0001
0000
0100
0000
0010
0000
0010
0000
,
1000
0000
0100
0000
1000
0001
1000
0001
1000
0000
0100
0000
0010
0000
0010
0000
,
0001
1000
0020
0100
0230
0000
0301
1000
,
0020
0000
1030
1100
0001
0100
0010
0110
,
0100
0000
0001
0000
1000
0100
1000
0100
0010
0000
0000
0000
0001
0000
1000
0000
,
1001
0000
0010
0000
0100
0001
0100
0001
1000
0000
0000
0000
0010
0000
1000
0000
,
1001
0000
0001
0000
0020
0000
0100
0000
0230
0000
0000
0000
1300
0001
1000
0000
,
0002
0000
0000
0000
0103
0000
0010
1000
0010
0000
1000
0000
0100
0000
0010
0000
,
0001
1000
0001
1000
0010
0000
0000
0000
0100
0001
0100
0001
0100
0000
0010
0000
,
1000
0000
0001
0100
0001
0100
0010
0000
1000
0000
0100
0000
0010
0000
0001
0000
,
1001
0000
0000
0000
0100
0000
1000
0100
1000
0000
0010
0000
0100
0000
0001
0000
,
1000
0000
0001
0100
0001
0000
1000
0000
1000
0000
0001
0000
0001
0000
0100
0010
,
0100
0000
0001
0000
1000
0100
0010
0001
2000
0000
0000
0000
3010
0000
0100
0000
,
0010
0000
1000
0000
0001
0010
0100
1000
0002
0000
0000
0000
0103
0000
0010
0000
,
0100
0001
1000
0010
1010
0010
0110
0100
,
0101
0000
2001
0000
0000
0000
3100
0000
0010
0000
0001
0000
1000
0000
0010
0100
,
0010
0100
0001
1000
0000
0000
0000
0000
0000
0000
0000
0000
0000
0000
0000
0000
;

//---------------dance-double - ----------------
#NOTEDATA:;
#CHARTNAME:;
#STEPSTYPE:dance-double;
#DESCRIPTION:;
#CHARTSTYLE:;
#DIFFICULTY:Challenge;
#METER:8;
#RADARVALUES:0.486208,0.541542,0.224962,0.333815,0.083454,392.000000,31.000000,46.000000,0.000000,0.000000,0.000000,0.000000,0.000000,0.486208,0.541542,0.224962,0.333815,0.083454,392.000000,31.000000,46.000000,0.000000,0.000000,0.000000,0.000000,0.000000;
#CREDIT:Ben Speirs;
#NOTES:
00000000
00000000
00000000
00000000
,
00000000
00000000
00000000
00000000
,
00000000
00000000
00000000
00000000
,
00000000
00000000
00000000
00000000
,
10000000
01000000
10000000
01000000
00100000
00100000
00010000
10000000
,
00200000
02300000
03020000
00230000
,
00301000
00100000
00001000
00100000
00001000
00001000
00010000
00001000
,
00100000
00001000
00100000
00001000
00010000
00010000
00001000
00010000
,
00000100
00001000
00000100
00001000
00000010
00000010
00000100
00000001
,
00002000
00003200
00000320
00000032
,
00000103
00000010
00000100
00000010
00001000
00001000
00000010
00000100
,
00000001
00000100
00000001
00000100
00000010
00000010
00001000
00000000
,
00001001
00000000
00001000
00000100
00001000
00000000
00000100
00000000
00010000
00000000
00001000
00000000
00100000
00000000
00000000
00000000
,
00001000
00000000
00010000
00001000
00010000
00000000
00000100
00000000
00010000
00000000
00010000
00000000
00002000
00000000
00000000
00000000
,
00103000
00000000
00010000
00100000
00010000
00000000
01000000
00000000
00100000
00000000
10000000
00000000
00010000
00000000
00000000
00000000
,
01000000
01000000
02000000
00000000
00010000
00000000
03100000
00000000
,
01010000
00000000
01000000
00100000
01000000
00000000
00100000
00000000
10000000
00000000
01000000
00000000
00100000
00000000
00000000
00000000
,
00010000
00000000
00100000
00001000
00100000
00000000
00001000
00000000
00010000
00000000
00010000
00000000
00000200
00000000
00000000
00000000
,
00001300
00000000
00000010
00000100
00000010
00000000
00000100
00000000
00000001
00000000
00000001
00000000
00001000
00000000
00000100
00000000
,
00000020
00000000
00000032
00000000
00001003
00000100
00020000
00000000
,
00031000
00000000
00100100
00000000
00100100
00000000
00010000
00001000
,
00010000
00000000
01000010
00000000
01000010
00000000
00010000
00001000
,
00010000
00000100
00200000
00000000
00310000
01000000
00100000
10000000
,
02000000
00000000
03100000
00010000
00010000
00100000
00100000
00001000
,
00010000
00000000
00100100
00000000
00100100
00000000
00001000
00010000
,
00001000
00000000
01000010
00000000
01000010
00000000
00001000
00010000
,
00001000
00010000
00000200
00000000
00001300
00000010
00000100
00000100
,
00000002
00000000
00001003
00000100
00000010
00000001
00000100
00000100
,
00001000
00000000
00000100
00000000
00000002
00000000
00000000
00000003
00001000
00000100
00001000
00000100
00001000
00000000
00000010
00000000
,
00000100
00000000
00000001
00001000
00000001
00001000
00000001
00000000
00000200
00000000
00000000
00000000
00000320
00000000
00000000
00000000
,
00001030
00000100
00020000
00000000
00031000
00100000
00100000
00001000
,
00010000
00000100
00000000
00010000
00010000
00001000
00001000
00100000
,
00001000
00000000
01000010
00000000
01000010
00000000
00001000
00010000
,
00001000
00000000
00100100
00000000
00100100
00000000
00001000
00010000
,
00001000
00010000
00200000
00000000
20300000
00000000
31000000
00100000
,
00020000
00000000
10030000
01000000
10000000
00010000
00100000
00010000
,
00010000
00000000
10000000
01000000
20000000
00000000
00000000
00000000
30100000
00000000
01000000
00000000
00010000
00000000
01000000
00000000
,
00010000
10000000
02000000
00000000
03020000
00000000
00032000
00000000
,
00003200
00000000
00000301
00001000
00000100
00000100
00000010
00000001
,
00001000
00001000
00000200
00000000
00020300
00000000
00030100
00001000
,
00000020
00000000
00000032
00000000
00000013
00001000
00000100
00010000
,
00001000
00100000
00010000
00010000
00020000
00000000
02030000
00000000
,
00000000
03100000
10000000
00100000
01000000
00020000
00000000
10030000
,
01000000
00010000
00001000
00000100
00000001
00001000
00000100
00010000
,
00001000
00100000
01000000
00000000
00000000
00000000
00000100
00000000
,
00000000
00100000
00000000
00000010
,
00000000
00000000
00000000
00000000
00011000
00000000
00011000
00000000
00011000
00000000
00000000
00000000
00000100
00010000
00000100
00000000
,
00010000
00000000
00001000
00000000
00011000
00000000
00011000
00000000
00011000
00000000
00000000
00000000
01000000
00001000
01000000
00000000
,
00001000
00010000
00000200
00000000
00000320
00000000
00000031
00000100
,
00000020
00000000
00001030
00000100
00010000
00010000
00001000
00001000
,
00100000
00000000
00100100
00000000
00100100
00000000
00001000
00010000
,
00001000
00000000
01000010
00000000
01000010
00000000
00001000
00010000
,
00001000
00000000
00010000
00000000
00100000
00000000
10000000
00000000
00100000
00000000
10000000
00000000
01000000
00100000
01000000
00000000
,
00200000
00000000
00000000
00000000
00310000
00000000
00100000
00001000
00100000
00000000
00001000
00000000
00010000
00000000
00000100
00000000
,
00001000
00000000
00000010
00000000
00000200
00000000
00000000
00000300
00000001
00001000
00000001
00001000
00000001
00000000
00000100
00000000
,
00000010
00000000
00001000
00000100
00001000
00000100
00001000
00000000
00000002
00000000
00000000
00000000
00000103
00000000
00001000
00000000
,
00010000
01000000
20000000
00000000
31000000
00100000
01000000
00100000
,
00010000
00000000
10000000
00100000
10000000
00000000
00010000
00000000
00100000
00000000
00100000
00000000
00001000
00000000
00001000
00000000
,
00010000
00000000
00100100
00100100
00100100
00000000
00001000
00010000
,
00001000
00000000
01000010
01000010
01000010
00000000
00001000
00010000
,
00011000
00000000
00200000
00000000
00302000
00000000
00013000
00000100
,
00001000
00000000
00000010
00000000
00000100
00000000
00000001
00000000
00001000
00000000
00000100
00000000
00010000
00000000
00001000
00100000
,
00001000
00100000
00001000
00100000
00000000
00000000
00000000
00000000
00000000
00000000
00000000
00000000
00000000
00000000
00000000
00000000
;

//---------------dance-single - ----------------
#NOTEDATA:;
#CHARTNAME:;
#STEPSTYPE:dance-single;
#DESCRIPTION:;
#CHARTSTYLE:;
#DIFFICULTY:Medium;
#METER:5;
#RADARVALUES:0.309971,0.383207,0.224962,0.203192,0.000000,240.000000,31.000000,28.000000,0.000000,0.000000,0.000000,0.000000,0.000000,0.309971,0.383207,0.224962,0.203192,0.000000,240.000000,31.000000,28.000000,0.000000,0.000000,0.000000,0.000000,0.000000;
#CREDIT:Ben Speirs;
#NOTES:
0000
0000
0000
0000
,
0000
0000
0000
0000
,
0000
0000
0000
0000
,
0000
0000
0000
0000
,
1000
0010
0100
0100
,
0002
0003
2000
3000
,
0001
0100
0001
0000
1000
0000
1000
0000
,
0001
0100
0001
0000
1000
0000
0000
0000
,
0001
0100
0010
0010
,
2000
3000
0002
0003
,
1000
0010
1000
0000
0001
0000
0001
0000
,
1000
0010
1000
0000
0001
0000
0000
0000
,
0100
0000
0010
0000
1000
0100
1000
0000
,
0010
0000
0100
0000
0001
1000
0001
0000
,
0000
0000
0010
0000
0001
1000
0001
0000
,
0100
0100
0200
0000
0000
0000
0300
0000
,
0010
0000
1000
0000
0100
1000
0100
0000
,
0010
0000
0001
0000
0100
0001
0100
0000
,
0000
0000
0010
1000
0010
0000
1000
0000
,
1001
2002
0000
3003
,
0010
0101
0101
0010
,
1000
0101
0101
0010
,
1000
0000
0100
0000
0100
0000
1000
0001
,
2000
0000
3000
0000
0010
0000
0100
0001
,
0100
1010
1010
0100
,
0010
0011
0011
1000
,
0001
0000
0100
0000
0100
0000
0010
1000
,
0020
0000
0030
0000
0100
0000
0001
1000
,
0001
0000
1100
0202
,
0303
0000
1000
0001
2000
0000
3002
0000
,
0103
0000
0010
0000
1000
0100
1000
0001
,
0020
0000
0030
0000
0001
0000
1000
0001
,
1000
1100
1100
0010
,
0010
0000
0101
0000
0101
0000
1000
0001
,
1000
0001
0200
0000
0300
0000
0010
0010
,
0010
1000
0001
0100
,
0000
1001
1000
0010
,
0100
0001
0001
1000
,
1000
0000
0001
0000
0100
0010
0100
0000
,
0001
1000
1000
0100
,
0100
0000
0000
0000
1000
0100
1000
0100
,
0010
0001
1000
1000
1000
0000
0001
0000
,
0000
0100
0010
1000
,
0001
0000
0010
0000
0010
0000
0001
1000
,
0001
0100
0000
0010
,
0000
1000
0000
0001
,
0000
0000
1001
0000
1001
0000
0010
0100
,
0010
1001
1001
0000
,
0010
2000
3100
0020
,
0031
0000
0000
0000
1000
0001
1000
0000
,
0010
0000
1001
0000
1001
0000
0100
0010
,
0100
1001
1001
0000
,
0001
0000
0010
0100
0020
0000
0032
0000
,
2003
0000
3000
0000
0010
0100
0010
0100
,
0010
0000
1001
0202
,
0303
1001
2200
3300
,
0001
0000
1000
0000
0010
0100
0010
0100
,
0002
0000
0003
0000
1000
0000
0100
0100
,
0100
0000
2100
0000
3000
0000
0001
1000
,
0001
0000
0102
0000
0003
0000
1000
0100
,
0010
0001
0100
0000
0100
0000
0001
1000
,
0002
0000
0003
0000
0100
0000
0010
0010
,
0010
1000
0000
0000
0000
0000
0000
0000
;

//---------------dance-single - ----------------
#NOTEDATA:;
#CHARTNAME:;
#STEPSTYPE:dance-single;
#DESCRIPTION:;
#CHARTSTYLE:;
#DIFFICULTY:Easy;
#METER:3;
#RADARVALUES:0.173128,0.224962,0.101596,0.007257,0.000000,152.000000,14.000000,1.000000,0.000000,0.000000,0.000000,0.000000,0.000000,0.173128,0.224962,0.101596,0.007257,0.000000,152.000000,14.000000,1.000000,0.000000,0.000000,0.000000,0.000000,0.000000;
#CREDIT:Ben Speirs;
#NOTES:
// measure 0
0000
0000
0000
0000
,  // measure 1
0000
0000
0000
0000
,  // measure 2
0000
0000
0000
0000
,  // measure 3
0000
0000
0000
0000
,  // measure 4
0001
0000
0001
0000
,  // measure 5
0100
0000
0010
0000
,  // measure 6
1000
0100
1000
0000
,  // measure 7
0100
1000
0100
0000
,  // measure 8
1000
0000
1000
0000
,  // measure 9
0010
0000
0100
0000
,  // measure 10
0001
0100
0001
0000
,  // measure 11
0100
0001
0100
0000
,  // measure 12
1001
0000
1000
1000
,  // measure 13
0000
0010
0100
0100
,  // measure 14
0000
0001
1000
1000
,  // measure 15
0200
0000
0000
0300
,  // measure 16
1001
0000
0010
0010
,  // measure 17
0100
0000
0001
0001
,  // measure 18
1000
0000
0001
0000
,  // measure 19
0010
0010
0100
0100
,  // measure 20
0010
0000
1001
0000
,  // measure 21
0100
0010
1000
0000
,  // measure 22
0001
0010
0100
0000
,  // measure 23
1000
0000
0010
1000
,  // measure 24
0001
0000
1001
0000
,  // measure 25
0100
0010
0010
1000
,  // measure 26
0000
0001
0001
1000
,  // measure 27
1000
0100
0000
0010
,  // measure 28
0000
0001
0001
0001
,  // measure 29
0000
1000
1000
0010
,  // measure 30
0000
0100
0000
0100
,  // measure 31
0000
0100
0001
1000
,  // measure 32
0000
1001
1001
0000
,  // measure 33
0000
1001
1001
0000
,  // measure 34
0000
0100
0000
0100
,  // measure 35
0000
0010
0000
1000
,  // measure 36
0000
0001
0000
1000
,  // measure 37
0000
0010
0100
0010
,  // measure 38
0100
0001
0000
1000
,  // measure 39
0000
0100
0010
0100
,  // measure 40
0010
0001
0000
1000
,  // measure 41
0000
0010
0000
0010
,  // measure 42
0000
1000
0100
0010
,  // measure 43
0000
0001
1000
0010
,  // measure 44
0000
0100
0000
0001
,  // measure 45
0000
1000
0000
0010
,  // measure 46
0000
0000
0110
0000
,  // measure 47
1000
0001
0010
0000
,  // measure 48
0100
0001
1000
0000
,  // measure 49
0010
0000
0001
0010
,  // measure 50
0100
0000
0110
0000
,  // measure 51
1000
0001
0001
0010
,  // measure 52
0000
0100
0100
0010
,  // measure 53
0010
1000
0000
0001
,  // measure 54
0000
0100
0100
0100
,  // measure 55
0000
0010
0010
0001
,  // measure 56
0000
1000
0000
1000
,  // measure 57
0000
1000
0100
0010
,  // measure 58
0000
0110
0110
0000
,  // measure 59
0000
0110
0110
0000
,  // measure 60
0000
1000
0000
1000
,  // measure 61
0000
0001
0000
0010
,  // measure 62
0010
0000
0000
0000
;

//---------------dance-single - ----------------
#NOTEDATA:;
#CHARTNAME:;
#STEPSTYPE:dance-single;
#DESCRIPTION:;
#CHARTSTYLE:;
#DIFFICULTY:Beginner;
#METER:1;
#RADARVALUES:0.105743,0.134977,0.021771,0.000000,0.000000,99.000000,3.000000,0.000000,0.000000,0.000000,0.000000,0.000000,0.000000,0.105743,0.134977,0.021771,0.000000,0.000000,99.000000,3.000000,0.000000,0.000000,0.000000,0.000000,0.000000,0.000000;
#CREDIT:Ben Speirs;
#NOTES:
// measure 0
0000
0000
0000
0000
,  // measure 1
0000
0000
0000
0000
,  // measure 2
0000
0000
0000
0000
,  // measure 3
0000
0000
0000
0000
,  // measure 4
1000
0000
0000
0000
,  // measure 5
0001
0000
0000
0000
,  // measure 6
0100
0000
0100
0000
,  // measure 7
0100
0000
0000
0000
,  // measure 8
0001
0000
0000
0000
,  // measure 9
1000
0000
0000
0000
,  // measure 10
0010
0000
0010
0000
,  // measure 11
0010
0000
0000
0000
,  // measure 12
0000
1000
1000
0000
,  // measure 13
0000
0010
0010
0000
,  // measure 14
0000
0100
0100
0000
,  // measure 15
0100
0000
0000
0000
,  // measure 16
0000
0001
0001
0000
,  // measure 17
0000
0010
0010
0000
,  // measure 18
0000
0100
0100
0000
,  // measure 19
0100
0000
0000
0000
,  // measure 20
1001
0000
0000
0000
,  // measure 21
0000
0010
0010
0000
,  // measure 22
0000
1000
0000
1000
,  // measure 23
0000
0001
0000
0001
,  // measure 24
0000
0100
0100
0000
,  // measure 25
0000
0100
0100
0000
,  // measure 26
0000
0001
0000
0001
,  // measure 27
0000
0010
0000
0010
,  // measure 28
0000
0000
0001
0001
,  // measure 29
0000
1000
1000
0000
,  // measure 30
0000
0010
0000
0010
,  // measure 31
0000
0100
0000
0000
,  // measure 32
0000
0001
0001
0000
,  // measure 33
0000
0001
0001
0000
,  // measure 34
0000
0100
0000
0100
,  // measure 35
0000
0010
0000
0000
,  // measure 36
0000
1001
0000
0000
,  // measure 37
0000
1000
1000
1000
,  // measure 38
0000
0100
0000
0000
,  // measure 39
0000
0010
0010
0010
,  // measure 40
0000
0001
0000
0000
,  // measure 41
0000
0100
0000
0000
,  // measure 42
0000
0010
0000
0010
,  // measure 43
0000
1000
0000
1000
,  // measure 44
0000
0001
0000
0000
,  // measure 45
0000
0000
0000
0000
,  // measure 46
0000
1001
0000
0000
,  // measure 47
0000
1000
1000
0000
,  // measure 48
0000
0010
0000
0010
,  // measure 49
0000
0100
0000
0100
,  // measure 50
0000
0001
0001
0000
,  // measure 51
0000
0001
0001
0000
,  // measure 52
0000
1000
0000
1000
,  // measure 53
0000
0001
0000
0001
,  // measure 54
0000
0000
0100
0100
,  // measure 55
0000
0010
0010
0000
,  // measure 56
0000
1000
0000
1000
,  // measure 57
0000
0001
0000
0000
,  // measure 58
0000
0100
0100
0000
,  // measure 59
0000
0100
0100
0000
,  // measure 60
0000
0010
0000
0010
,  // measure 61
0000
1000
0000
1000
,  // measure 62
1000
0000
0000
0000
;
