#VERSION:0.83;
#TITLE:Drop Dead Cynical;
#SUBTITLE:;
#ARTIST:Amaranthe;
#TITLETRANSLIT:;
#SUBTITLETRANSLIT:;
#ARTISTTRANSLIT:;
#GENRE:;
#ORIGIN:;
#CREDIT:;
#BANNER:Drop Dead Cynical.png;
#BACKGROUND:Drop Dead Cynical- bg.png;
#PREVIEWVID:;
#JACKET:jacket.png;
#CDIMAGE:;
#DISCIMAGE:;
#LYRICSPATH:;
#CDTITLE:;
#MUSIC:Drop Dead Cynical.ogg;
#OFFSET:-0.416000;
#SAMPLESTART:55.296856;
#SAMPLELENGTH:14.694003;
#SELECTABLE:YES;
#BPMS:0.000=140.010,
128.000=140.000;
#STOPS:;
#DELAYS:;
#WARPS:;
#TIMESIGNATURES:0.000=4=4;
#TICKCOUNTS:0.000=4;
#COMBOS:0.000=1;
#SPEEDS:0.000=1.000=0.000=0;
#SCROLLS:0.000=1.000;
#FAKES:;
#LABELS:0.000=Song Start;
#BGCHANGES:8.000=Drop Dead Cynical.avi=1.000=0=0=1=====,
99999=-nosongbg-=1.000=0=0=0 // don't automatically add -songbackground-
;
#KEYSOUNDS:;
#ATTACKS:
;

//---------------dance-single - ----------------
#NOTEDATA:;
#CHARTNAME:;
#STEPSTYPE:dance-single;
#DESCRIPTION:;
#CHARTSTYLE:;
#DIFFICULTY:Hard;
#METER:8;
#RADARVALUES:0.503745,0.564334,0.385570,0.245363,0.616912,503.000000,448.000000,55.000000,35.000000,0.000000,0.000000,0.000000,0.000000,0.000000,0.503745,0.564334,0.385570,0.245363,0.616912,503.000000,448.000000,55.000000,35.000000,0.000000,0.000000,0.000000,0.000000,0.000000;
#CREDIT:Ben Speirs;
#NOTES:
0000
0000
0000
0000
,
0000
0000
0000
0000
,
0000
0000
0000
0000
,
0000
0000
0000
0000
,
1010
0000
0010
0100
0000
0100
0001
1000
0001
1000
0000
0001
,
0100
0101
2000
3002
,
0103
0000
0100
0010
0000
0010
1000
0001
1000
0001
0000
1001
,
0000
0000
0000
0000
,
1100
0000
0100
0010
0000
0000
0001
1000
0001
1000
0000
0001
,
0100
0000
0000
0010
1000
0010
1000
0000
0000
0101
0000
0001
,
1000
0000
1000
0100
0000
0000
1000
0001
1000
0001
0000
0001
,
0100
0000
0000
0010
0100
0010
0100
0000
0000
1001
0000
0000
,
0011
0000
0010
0100
0000
0000
1000
0001
1000
0001
0000
1000
,
0010
0000
0000
0100
0001
0100
0001
0000
0000
1010
0000
1000
,
0001
0000
0001
0010
0000
0000
0001
1000
0001
1000
0000
1000
,
0020
0000
0000
0130
0000
0001
2000
0000
0000
3100
0000
0000
,
0101
0000
0000
1000
0000
0001
1000
0000
0000
0010
0000
0000
,
0100
0000
0001
0100
0000
0001
0100
0000
0000
0010
0000
0000
,
1000
0000
0000
0001
0000
0010
0001
0000
0000
0100
0000
0000
,
0020
2030
3002
0023
,
0031
0000
0100
0001
0000
0100
0001
0000
0000
1000
0000
0000
,
0010
0000
0100
0010
0000
0100
0010
0000
0000
0100
0000
0000
,
0001
0000
0000
1000
0000
0100
1000
0000
0000
0001
0000
0000
,
0110
0000
0000
1001
,
0001
0000
0100
0010
0000
0100
0010
0000
1000
0001
0000
0000
,
1000
0000
0100
0010
0000
0100
0010
0000
0000
0001
0000
0000
,
1000
0000
0100
1000
0000
0010
0100
0000
0010
0100
0000
0000
,
0001
0000
0000
0100
0000
0001
1000
0000
0001
0100
0000
0000
,
1001
0000
1000
0100
0000
0100
0010
0000
0001
1000
0000
0001
,
0100
0000
0100
0010
1000
0001
1000
0000
0000
0101
0000
0000
,
1000
0000
1000
0001
0000
0001
0010
0000
0010
0100
0000
0100
,
2000
3002
0103
1001
,
0001
0000
0100
0010
0000
0100
0001
0000
0000
0101
0000
0000
,
1000
0000
0100
0010
0000
0100
1000
0000
0000
1001
0000
0000
,
2000
3001
0200
0301
,
1100
0000
0000
0101
0000
0000
0001
0010
0100
1000
0000
0000
,
1010
0000
0010
0100
0000
0010
1000
0000
0000
1010
0000
0000
,
0001
0000
0010
0100
0000
0010
0001
0000
0000
1001
0000
0000
,
0002
1003
0020
1030
,
0011
0000
0000
1010
0000
0000
1000
0100
0010
0001
0000
0000
,
0100
0000
0100
0000
0000
0000
0001
1000
0001
1000
0000
0001
,
0000
0000
0000
1000
0100
1000
0100
0000
0000
0010
0000
0000
,
0001
0000
0001
0000
0000
0000
1000
0010
1000
0010
0000
1000
,
0002
0000
0000
2003
0000
0000
3001
0010
0100
1000
0000
0000
,
0001
0000
0001
0000
0000
0000
1000
0100
1000
0100
0000
1000
,
0000
0000
0000
0001
0100
0001
0100
0000
0000
0010
0000
0000
,
1000
0000
1000
0000
0000
0000
0001
0100
0001
0100
0000
0001
,
2000
0000
0000
3200
0000
0000
0310
0001
1000
0001
0000
0000
,
1000
0000
0100
0000
0010
0000
0011
0000
0110
0000
0110
0000
,
1001
0000
0000
1001
0000
0000
0001
0100
0001
1000
0010
1000
,
0010
0000
0100
0000
0001
0000
1000
0000
0001
0010
0000
0200
,
0000
0000
0000
0000
0000
0000
1300
0000
0000
0001
1000
0001
,
0100
0000
1001
0000
0010
0000
1100
0000
0101
0000
0110
0000
,
1001
0000
0000
1000
0100
1000
0002
0000
0000
0103
0010
0100
,
0010
0000
1000
0000
0001
0000
1001
0000
1000
0100
0000
0020
,
0000
0000
0031
1000
,
0020
0000
0000
0130
0000
0000
0200
0000
0000
0301
0000
1000
,
0200
0000
0000
0310
0000
0000
0020
0000
0000
0031
0000
1000
,
0020
0000
0000
0130
0000
0000
0200
0000
0000
0301
0000
1000
,
0100
0000
0100
0010
0000
0000
0011
0000
0000
1100
0000
0000
,
0000
0000
0001
0000
0000
1000
0000
0000
0010
0100
0000
0001
,
0000
0000
1000
0000
0000
0001
0000
0000
0100
0010
0000
1000
,
0000
0000
0100
0000
0000
0100
0000
0000
0010
0001
0000
0100
,
0010
0000
2002
3003
,
1010
0000
0010
0100
0000
0100
0001
0000
1000
0001
0000
0000
,
0100
0000
0001
1000
0000
0001
1000
0000
0000
0100
0000
0000
,
1000
0000
0010
0100
0000
0010
0100
0000
0001
1000
0000
0001
,
0100
0000
0000
1001
0000
0001
0010
0000
0010
0100
0000
0000
,
1000
0000
0100
1000
0000
0001
0100
0000
0001
1000
0000
0000
,
0010
0000
0010
1000
0001
1000
0001
0000
0000
0100
0000
0000
,
1001
0000
1000
0100
0000
0100
0010
0000
0010
0001
0000
0001
,
0100
0100
0100
0100
,
0101
0000
0001
0100
0000
1000
0100
0000
0000
0101
0000
0000
,
1100
0000
1000
0100
0000
0001
0100
0000
0000
1100
0000
0000
,
0002
0103
2000
3010
,
1001
0000
0000
0110
0000
0000
0001
0010
0100
1000
0000
0000
,
0011
0000
1000
0010
0000
0001
0010
0000
0000
0011
0000
0000
,
1010
0000
0001
0010
0000
1000
0010
0000
0000
1010
0000
0000
,
1002
0103
2001
3100
,
1001
0000
0000
0101
0000
0000
1000
0100
0010
0001
0000
0000
,
2200
0000
3300
0000
;

//---------------dance-single - ----------------
#NOTEDATA:;
#CHARTNAME:;
#STEPSTYPE:dance-single;
#DESCRIPTION:;
#CHARTSTYLE:;
#DIFFICULTY:Challenge;
#METER:9;
#RADARVALUES:0.644953,0.733634,0.469694,0.098145,0.998977,644.000000,577.000000,67.000000,14.000000,0.000000,0.000000,0.000000,0.000000,0.000000,0.644953,0.733634,0.469694,0.098145,0.998977,644.000000,577.000000,67.000000,14.000000,0.000000,0.000000,0.000000,0.000000,0.000000;
#CREDIT:Ben Speirs;
#NOTES:
0000
0000
0000
0000
,
0000
0000
0000
0000
,
0000
0000
0000
0000
,
0000
0000
0000
0000
,
1001
0000
0001
0100
0000
0100
0010
1000
0001
1000
0000
0001
,
0100
0000
0010
1000
0000
0001
0010
0100
0010
0001
1000
0010
,
0100
0000
0100
0001
0000
1000
0010
1000
0001
1000
0000
0101
,
0000
0000
0000
0000
,
1001
0000
0001
0100
0000
0010
1000
0010
1000
0100
0000
1000
,
0001
0000
0100
0010
0100
0010
1000
0000
0001
0010
0100
1000
,
0001
0000
0100
0001
0000
1000
0010
1000
0010
0100
0000
0001
,
1000
0000
0001
1000
0000
0001
0100
0000
0000
1001
0000
0000
,
0001
0000
0010
0100
0000
1000
0001
1000
0001
0100
0000
0010
,
1000
0000
0001
0100
0001
0100
0010
1000
0010
0100
0001
0100
,
0010
0000
0010
0100
0000
0100
0001
1000
0001
1000
0000
0100
,
1000
0000
0001
0100
0000
0001
1000
0000
0000
1100
0000
0000
,
0101
0000
1000
0001
0000
1000
0100
0000
0000
1100
0000
0000
,
0101
0000
1000
0010
0000
1000
0001
0000
0000
0011
0000
0000
,
1001
0000
1000
0010
0000
1000
0001
0000
0000
0100
0000
0000
,
1001
0110
1001
0110
,
1000
0100
1000
0100
0000
0000
1000
0000
0000
0010
0000
0000
,
0100
0001
0100
0001
0000
0000
1000
0000
0000
0001
0000
0000
,
0100
0010
0100
0010
0000
0000
1000
0100
1000
0100
0000
0000
,
1100
0110
0011
1001
,
0101
0000
0100
0010
0000
0010
1000
0100
1000
0001
0000
0001
,
0100
0000
0010
1000
0000
1000
0001
0010
0001
1000
0010
1000
,
0100
0000
0100
0010
0000
0010
0001
0100
0001
1000
0000
1000
,
0010
0000
0010
0100
0000
0100
0001
1000
0001
0100
0010
1000
,
0100
0000
0100
0010
0000
0010
0001
1000
0001
0100
0000
0001
,
1000
0000
1000
0010
0000
0010
0100
0001
0100
0010
1000
0010
,
0100
0000
0100
0001
0000
0001
1000
0100
1000
0100
0000
0010
,
0002
0013
2000
3010
,
0101
0000
0100
0010
0000
0010
1000
0000
0000
1100
0000
0000
,
1001
0000
0001
0100
0000
0100
0010
0000
0000
1010
0000
0001
,
0200
1000
0010
0301
,
0101
0000
0000
1100
0000
0000
0001
0010
0100
1000
0100
0010
,
0001
0000
0001
0100
0000
0100
0010
0000
0000
1010
0000
0000
,
1000
0000
1000
0100
0000
0100
0010
0000
0000
0011
0000
1000
,
0020
0100
0001
1030
,
1010
0000
0000
0101
0000
0000
1000
0100
0010
0001
0000
0000
,
0100
0000
0100
0010
0000
0010
1000
0100
1000
0010
0000
0010
,
0100
0000
0100
0001
0010
0001
0100
0000
0100
0010
0000
0010
,
1000
0000
1000
0001
0010
0001
1000
0000
0001
1000
0000
1000
,
0100
0000
0100
1000
0010
1000
0010
0000
0100
0001
0100
0001
,
1000
0000
0010
0100
0010
0100
0010
0000
1000
0100
0000
0100
,
0010
0000
0010
0001
1000
0001
1000
0000
0001
0100
0000
0100
,
0010
0000
0010
1000
0100
1000
0100
0000
1000
0010
0000
0010
,
0100
0000
0100
0001
1000
0001
1000
0000
0001
0100
0000
0000
,
0101
0000
1100
0000
1010
0000
0011
0000
0110
0000
1001
0000
,
0101
0000
0000
0000
0000
0000
1000
0100
1000
0000
0100
0000
1001
0000
0000
0000
0000
0000
0001
0100
0001
0000
0100
0000
,
0110
0000
1010
0000
1100
0000
0101
0000
1000
0010
0000
0102
,
0000
0100
1000
0103
,
0001
0000
1000
0000
0100
0000
1100
0000
0011
0000
0110
0000
,
1001
0000
0000
0000
0000
0000
0001
0000
0010
0000
0100
0000
1100
0000
0000
0000
0000
0000
1000
0010
1000
0000
0001
0000
,
0101
0000
0110
0000
1100
0000
0011
0000
0010
0100
0000
2002
,
0000
0000
0000
0000
0000
0000
3003
0000
0000
1000
0100
1000
0010
0000
0100
0000
0001
0000
0010
0000
0100
0000
1000
0000
,
0001
0000
0001
0100
0000
0100
0010
0000
0010
1000
0100
1000
,
0100
0000
0100
0010
0000
0010
0001
0000
0001
0100
0001
0100
,
0010
0000
0010
0100
0000
0100
0001
0000
0001
1000
0001
1000
,
0100
0000
0100
0010
0000
0000
0110
0000
0000
1001
0000
0000
,
1100
0000
0100
0010
0000
0010
0001
0000
0001
0100
0010
1000
,
0001
0000
0001
0010
0000
0010
0100
0000
0100
1000
0010
1000
,
0001
0000
0001
0100
0000
0100
0010
0000
0010
1000
0100
0010
,
0001
1000
2002
3003
,
0101
0000
0100
0010
0000
0010
1000
0100
1000
0100
0000
0100
,
0010
0000
0010
0001
0000
0001
1000
0100
1000
0001
0100
0001
,
1000
0000
1000
0010
0000
0010
0100
0001
0100
0001
0000
1000
,
0010
0000
0010
0100
0000
0100
0001
0010
0100
1000
0010
0100
,
0001
0000
0001
0100
0000
0100
0010
1000
0010
1000
0000
0100
,
1000
0000
1000
0010
0000
0010
0100
0001
0100
0010
1000
0010
,
0100
0000
0100
0001
0000
0001
0010
0100
0010
0100
1000
0100
,
2000
0001
0001
3001
,
1100
0000
0100
0010
0000
0010
0001
0000
0000
0011
0000
0000
,
0101
0000
0100
0010
0000
0010
1000
0000
0000
1010
0000
1000
,
0200
0010
0001
1300
,
1100
0000
0000
0101
0000
0000
0001
0010
0100
1000
0010
0100
,
0001
0000
0001
0100
0000
0100
0010
0000
0000
1001
0000
0000
,
1000
0000
1000
0100
0000
0100
0010
0000
0000
0110
0000
0000
,
2001
3100
1002
0103
,
0001
1000
0001
0100
0010
0100
0001
0010
0100
1000
0010
0100
,
0002
0000
0003
0000
;

//---------------dance-double - ----------------
#NOTEDATA:;
#CHARTNAME:;
#STEPSTYPE:dance-double;
#DESCRIPTION:;
#CHARTSTYLE:;
#DIFFICULTY:Challenge;
#METER:9;
#RADARVALUES:0.523774,0.620767,0.448663,0.273404,0.620417,523.000000,459.000000,64.000000,39.000000,0.000000,0.000000,0.000000,0.000000,0.000000,0.523774,0.620767,0.448663,0.273404,0.620417,523.000000,459.000000,64.000000,39.000000,0.000000,0.000000,0.000000,0.000000,0.000000;
#CREDIT:Ben Speirs;
#NOTES:
00000000
00000000
00000000
00000000
,
00000000
00000000
00000000
00000000
,
00000000
00000000
00000000
00000000
,
00000000
00000000
00000000
00000000
,
11000000
00000000
01000000
00100000
00000000
00100000
00010000
01000000
00010000
01000000
00000000
01000000
,
00100000
00000000
00100000
10000000
00000000
10000000
00010000
00100000
00010000
00100000
00001000
00100000
,
00001000
00000000
00001000
00010000
00000000
00010000
00000100
00001000
00000100
00001000
00000000
00000101
,
00000000
00000000
00000000
00000000
,
00001001
00000000
00001000
00000001
00000000
00000001
00000100
00000010
00000100
00000010
00000000
00000010
,
00001000
00000000
00001000
00000100
00000000
00000100
00010000
00001000
00010000
00001000
00100000
00001000
,
00100000
00000000
00100000
01000000
00000000
01000000
10000000
00100000
10000000
00100000
00000000
00100000
,
01000000
00000000
01000000
00010000
00000000
00010000
00100000
00000000
00000000
00110000
00000000
00000000
,
00001000
00000000
00001000
00010000
00000000
00010000
00000100
00001000
00000100
00001000
00000000
00001000
,
00000010
00000000
00000010
00000100
00000000
00000100
00000001
00000010
00000001
00000010
00000100
00000010
,
00000100
00000000
00000100
00001000
00000000
00001000
00000010
00000100
00000010
00000100
00000000
00000100
,
00001000
00000000
00001000
00010000
00000000
00010000
00001000
00010000
00001000
00100000
00010000
00100000
,
02000000
10000000
23000000
00100000
,
30100000
00000000
01000000
00100000
00000000
01000000
00100000
00000000
00000000
01100000
00000000
00000000
,
02000000
00010000
03002000
00023000
,
00030200
00002300
00003002
00000103
,
00000001
00000000
00000001
00001000
00000000
00001000
00000010
00000000
00000000
00001001
00000000
00000000
,
00001000
00000000
00000100
00010000
00000000
00000100
00001000
00000000
00000000
00001100
00000000
00000000
,
00020000
00032000
00203000
00320000
,
02030000
00100000
00100000
03100000
,
10010000
00000000
10000000
01000000
00000000
00100000
01000000
00000000
00100000
00000000
00000000
00010000
,
10000000
00000000
00010000
10000000
00000000
00100000
01000000
00000000
00000000
01010000
00000000
00000000
,
00100000
00000000
01000000
00010000
00000000
00010000
00100000
00000000
00000000
00010000
00000000
00100000
,
00001000
00000000
00010000
00000100
00000000
00010000
00000010
00000000
00001000
00000001
00000000
00000000
,
00000101
00000000
00000100
00000010
00000000
00000010
00001000
00000000
00001000
00000001
00000000
00000000
,
00000010
00000000
00000001
00001000
00000001
00001000
00000001
00000000
00000000
00000100
00000000
00000000
,
00000010
00000000
00000010
00001000
00000000
00001000
00000100
00000000
00000000
00000100
00000000
00010000
,
00002000
00100000
00013000
00011000
,
00110000
00000000
00100000
10000000
00000000
00100000
00010000
00000000
00000000
00110000
00000000
00000000
,
00001010
00000000
00000001
00000010
00000000
00001000
00000010
00000000
00000000
00001010
00000000
00000000
,
00021000
00130000
00012000
00003010
,
00011000
00000000
00000000
00011000
00000000
00000000
00010000
00001000
00010000
00001000
00000000
00000000
,
01010000
00000000
10000000
01000000
00000000
00010000
01000000
00000000
00000000
01010000
00000000
00000000
,
00001100
00000000
00000001
00000100
00000000
00001000
00000100
00000000
00000000
00001100
00000000
00000000
,
00012000
00103000
00021000
00030100
,
00011000
00000000
00000000
00011000
00000000
00000000
00010000
00001000
00010000
00001000
00000000
00000000
,
10000000
00000000
10000000
00000000
00000000
00000000
01000000
00010000
01000000
00010000
00000000
00010000
,
00000000
00000000
00000000
00001000
00000100
00001000
00000100
00000000
00000000
00000001
00000000
00000000
,
00001000
00000000
00001000
00000000
00000000
00000000
00000001
00000010
00000001
00000010
00000000
00000001
,
00000000
00000000
00000000
00000010
00001000
00000010
00001000
00000000
00000000
00010000
00000000
00000000
,
00011000
00000000
00010000
00000000
00000000
00000000
00010000
00100000
00010000
00100000
00000000
00010000
,
00000000
00000000
00000000
00100000
10000000
00100000
10000000
00000000
00000000
00010000
00000000
00000000
,
10000000
00000000
10000000
00000000
00000000
00000000
01000000
00010000
01000000
00010000
00000000
01000000
,
00000000
00000000
00000000
00010000
00001000
00010000
00001000
00000000
00000000
00010000
00000000
00000000
,
00001100
00000000
00010000
00000000
00001000
00000000
00011000
00000000
00110000
00000000
00101000
00000000
,
10010000
00000000
00000000
10010000
00000000
00000000
10000000
01000000
00010000
01000000
10000000
00100000
,
01000000
00000000
01010000
00000000
10100000
00000000
01000000
00000000
10000000
00010000
00000000
02000000
,
00000000
00001000
00010000
03001000
,
01001000
00000000
00001000
00000000
00010000
00000000
00010100
00000000
00001010
00000000
00000110
00000000
,
00001001
00000000
00000000
00001001
00000000
00000000
00000001
00000010
00000100
00001000
00000000
00000000
,
00001010
00000000
00000101
00000000
00001000
00000000
00000010
00000000
00000100
00000001
00000000
00020000
,
00000000
00000000
00001000
00031000
,
00011000
00000000
00000000
00100000
00000000
00000000
00010000
00000000
00000000
01000000
00000000
00100000
,
10000000
00000000
00000000
01000000
00000000
00000000
00100000
00000000
00000000
00010000
00000000
01000000
,
00001000
00000000
00000000
00010000
00000000
00000000
00000100
00000000
00000000
00001000
00000000
00000010
,
00000100
00000000
00000001
00001000
00000000
00000000
00001100
00000000
00000000
00000101
00000000
00000000
,
00002000
00000010
00003002
00000010
,
00020003
00001000
00030020
00000100
,
00020030
00230000
20300000
32000000
,
03020000
00031000
00022000
00033000
,
00101000
00000000
00100000
00010000
00000000
10000000
00100000
00000000
01000000
00100000
00000000
00000000
,
10000000
00000000
01000000
00100000
00000000
01000000
00100000
00000000
00000000
00010000
00000000
00000000
,
01000000
00000000
00100000
01000000
00000000
00100000
00010000
00000000
00000000
00001000
00000000
00010000
,
00001000
00000000
00010000
00000100
00000000
00001000
00000010
00000000
00000100
00000001
00000000
00000000
,
00001000
00000000
00000001
00000100
00000000
00000100
00000010
00000000
00000010
00001000
00000000
00000000
,
00000001
00000000
00001000
00000100
00001000
00000100
00010000
00000000
00000000
00011000
00000000
00000000
,
00001000
00000000
00100000
00010000
00000000
00010000
01000000
00000000
00000000
00100000
00000000
10000000
,
01000000
00010000
00001000
00011000
,
00001100
00000000
00000010
00000100
00000000
00000001
00001000
00000000
00000000
00001001
00000000
00000000
,
00110000
00000000
10000000
00100000
00000000
01000000
00100000
00000000
00000000
10010000
00000000
00000000
,
00012000
00103000
00021000
00030100
,
00001010
00000000
00000000
00000101
00000000
00000000
00000001
00000010
00000100
00001000
00000000
00000000
,
00011000
11000000
00011000
00000101
,
00001000
00000000
00001000
00000100
00000000
00000100
00010000
00000000
00010000
00001000
00000000
00001000
,
00200000
01000000
00300020
00000100
,
00020030
00000000
00000000
00032000
00000000
00000000
00013000
00001000
00010000
00001000
00000000
00000000
,
00202000
00000000
00303000
00000000
;

//---------------dance-single - ----------------
#NOTEDATA:;
#CHARTNAME:;
#STEPSTYPE:dance-single;
#DESCRIPTION:;
#CHARTSTYLE:;
#DIFFICULTY:Medium;
#METER:7;
#RADARVALUES:0.416616,0.451467,0.378560,0.154228,0.290930,416.000000,362.000000,54.000000,22.000000,0.000000,0.000000,0.000000,0.000000,0.000000,0.416616,0.451467,0.378560,0.154228,0.290930,416.000000,362.000000,54.000000,22.000000,0.000000,0.000000,0.000000,0.000000,0.000000;
#CREDIT:Ben Speirs;
#NOTES:
0000
0000
0000
0000
,
0000
0000
0000
0000
,
0000
0000
0000
0000
,
0000
0000
0000
0000
,
1001
1000
0010
0110
,
0100
0000
0000
0001
0000
0000
1000
0000
1000
0100
0000
0100
,
0010
0000
0000
0001
0000
0000
0100
0000
0000
0010
0000
1001
,
0000
0000
0000
0000
,
0101
0100
0010
1001
,
1000
0000
0000
1100
0000
0000
0001
0000
0001
0010
0000
0010
,
0100
1000
0010
1010
,
1000
1001
0101
1100
,
0101
1000
0001
0011
,
1000
0000
0000
1010
0000
0000
0001
0000
0001
0100
0000
0100
,
0010
1000
0100
1100
,
0001
0101
0110
1001
,
2000
0100
0100
3100
,
1000
0001
0100
0100
,
0002
0010
0010
0013
,
0002
2003
3020
0230
,
0301
0000
0100
0001
0000
0000
1000
0000
0000
1000
0000
0000
,
0001
0000
0000
0100
0000
0001
1000
0000
0000
0001
0000
0000
,
1000
0000
0100
1000
0000
0000
0001
0000
0000
0100
0000
0000
,
1001
1100
0101
0000
,
1000
0000
1000
0001
0000
0001
0100
0000
0100
0001
0000
0000
,
1000
0000
1000
0100
0000
0100
0010
0000
0000
0001
0000
0000
,
1000
0000
0001
0100
0000
0100
0001
0000
0000
0001
0000
1000
,
0010
0100
0110
1001
,
1000
0000
1000
0010
0000
0010
0100
0000
0100
0001
0000
0000
,
1000
0000
1000
0100
0000
0100
0010
0000
0000
0001
0000
0000
,
1000
0000
1000
0001
0000
0001
0100
0000
0000
0010
0000
0010
,
1000
0001
0100
0100
,
1001
1100
0010
1001
,
0101
1001
0010
1100
,
0002
0010
0013
0001
,
1100
0000
0000
0101
0000
0000
1000
0000
1000
0001
0000
0000
,
1100
1010
0001
0101
,
1001
1100
0010
1001
,
0102
0010
0013
0001
,
1100
0000
0000
1001
0000
0000
1000
0000
0001
0100
0000
0000
,
0010
0000
0010
0100
0000
0000
0001
0000
0000
0010
0000
0010
,
0100
0000
0000
1000
0000
0000
0010
0000
0010
0100
0000
0000
,
0001
0000
0001
0100
0000
0000
0010
0000
0000
1000
0000
1000
,
0100
1000
1001
1001
,
0001
0000
0001
0100
0000
0000
0010
0000
0000
1000
0000
1000
,
0100
0000
0000
0010
0000
0000
0001
0000
0001
1000
0000
0000
,
0010
0000
0010
0100
0000
0000
0001
0000
0000
0010
0000
0010
,
0100
1000
1100
0101
,
1000
0000
0100
0000
0010
0000
0001
0000
0010
0000
0100
0000
,
2000
3100
1100
0001
,
1000
0000
0001
0000
0100
0000
0010
0000
1000
0100
0000
0020
,
0000
0000
0031
0000
,
0001
0000
0010
0000
0100
0000
1000
0000
0100
0000
0010
0000
,
0001
0000
0000
1000
0100
1000
0100
0000
0000
0001
0100
0001
,
0100
0000
0010
0000
1000
0000
0100
0000
0010
0001
0000
2000
,
0000
0000
0000
3000
,
0010
0010
2000
3000
,
0100
0100
0020
0030
,
0001
0001
0200
0300
,
0001
1100
0101
1001
,
0000
1000
0001
0100
,
0000
0001
0010
0100
,
0000
1000
0010
0100
,
0000
0001
2002
3003
,
1000
0000
1000
0010
0000
0010
0100
0000
0100
0001
0000
0000
,
1000
0000
1000
0100
0000
0100
0010
0000
0000
0001
0000
0000
,
1000
0000
0000
0001
0000
0001
0100
0000
0000
0010
0000
0010
,
1000
0000
0000
0100
0000
0100
0010
0000
0010
0001
0000
0000
,
1000
0000
0000
0001
0000
0001
0100
0000
0100
0010
0000
0000
,
1000
0000
1000
0100
0000
0100
0010
0000
0000
0001
0000
0000
,
1000
0000
0000
0001
0000
0001
0100
0000
0000
0010
0000
0010
,
1000
1000
0001
0001
,
0101
0000
0100
0010
0000
0010
1000
0000
0000
0100
0000
0000
,
1000
0000
1000
0100
0000
0100
0010
0000
0000
0001
0000
0000
,
2000
3100
0002
0103
,
1001
0000
0000
1001
0000
0000
0001
0000
0100
0001
0000
0000
,
1000
0000
1000
0010
0000
0010
0100
0000
0000
0001
0000
0000
,
1000
0000
1000
0100
0000
0100
0010
0000
0000
0001
0000
0000
,
2000
3100
0002
0103
,
1001
0000
0000
1001
0000
0000
1000
0000
0100
0010
0000
0000
,
2002
0000
3003
0000
;

//---------------dance-single - ----------------
#NOTEDATA:;
#CHARTNAME:;
#STEPSTYPE:dance-single;
#DESCRIPTION:;
#CHARTSTYLE:;
#DIFFICULTY:Easy;
#METER:5;
#RADARVALUES:0.279413,0.366817,0.056083,0.133197,0.168249,279.000000,271.000000,8.000000,19.000000,0.000000,0.000000,0.000000,0.000000,0.000000,0.279413,0.366817,0.056083,0.133197,0.168249,279.000000,271.000000,8.000000,19.000000,0.000000,0.000000,0.000000,0.000000,0.000000;
#CREDIT:Ben Speirs;
#NOTES:
0000
0000
0000
0000
,
0000
0000
0000
0000
,
0000
0000
0000
0000
,
0000
0000
0000
0000
,
1000
0001
0100
0010
,
0100
0001
0020
0030
,
0001
0000
0000
0010
0000
0000
0100
0000
0000
1000
0000
1000
,
0000
0000
0000
0000
,
0001
0000
0001
0000
0000
0000
1000
0000
0000
0010
0000
0010
,
0000
0100
0001
0010
,
0100
0000
0100
0000
0000
0000
1000
0000
0000
0010
0000
0010
,
0000
1000
0001
0100
,
0001
0000
0001
0000
0000
0000
0100
0000
0000
0010
0000
0010
,
0000
1000
0100
0010
,
0001
0000
0001
0000
0000
0000
0010
0000
0000
0100
0000
0100
,
0000
0010
0001
1000
,
0000
0010
1000
0000
,
0001
0100
0001
0000
,
0000
1000
0100
0000
,
1000
0100
0010
0001
,
0000
1000
0010
0000
,
1000
0100
1000
0000
,
0000
0001
0100
0000
,
0001
0001
1000
1000
,
0010
0100
0100
0000
,
0001
0010
0100
0000
,
1000
0001
0100
0000
,
0010
0000
0000
0100
0000
0000
0001
0000
1000
0001
0000
0000
,
0000
1000
0100
0000
,
0010
0000
0000
0001
0000
0100
0001
0000
0000
0000
0000
0000
,
0100
0000
0000
0001
0000
0000
1000
0000
0000
0010
0000
0100
,
0010
0010
0010
0000
,
1000
0000
0100
1000
0000
0100
1000
0000
0000
0100
0000
0000
,
0010
0000
0001
0010
0000
0001
0010
0000
0000
0001
0000
0000
,
0200
0300
0020
0030
,
1000
0001
0100
0000
,
0001
0000
0100
0001
0000
0100
0001
0000
0000
0100
0000
0000
,
0010
0000
1000
0010
0000
1000
0010
0000
0000
1000
0000
0000
,
0002
0003
2000
3000
,
0001
1000
0100
0100
,
1000
0000
1000
0000
0000
0000
0001
0000
0000
0100
0000
0100
,
0000
0001
1000
0100
,
0010
0000
0010
0000
0000
0000
0001
0000
0000
0100
0000
0100
,
0000
0010
0010
1000
,
0100
0000
0100
0000
0000
0000
1000
0000
0000
0001
0000
0001
,
0000
0100
0001
1000
,
0010
0000
0010
0000
0000
0000
1000
0000
0000
0100
0000
0100
,
0000
0010
0001
1000
,
0001
0000
0100
0000
0001
0000
1000
0000
0100
0000
1000
0000
,
0010
0010
2002
3003
,
1000
0000
0100
0000
1000
0000
0001
0000
0000
0010
0000
0200
,
0000
0000
0000
0300
,
0010
0000
0010
0000
0010
0000
0001
0000
0100
0000
0010
0000
,
1000
0100
1001
0000
,
1000
0000
0100
0000
1000
0000
0001
0000
0000
0100
0000
0020
,
0000
0000
0000
0030
,
1000
1000
0100
0000
,
0010
0010
0001
0000
,
1000
1000
0010
0000
,
0100
0110
1001
1001
,
0000
0001
0010
0100
,
0000
1000
0010
0100
,
0000
0001
0000
1000
,
0000
0000
2002
3003
,
1000
0000
0000
0100
0000
0000
0010
0000
0010
0001
0000
0000
,
1000
0000
0000
0010
0000
0010
0100
0000
0000
0000
0000
0000
,
0001
0000
0000
0100
0000
0100
0010
0000
0000
1000
0000
0000
,
0100
0000
0000
0100
0000
0000
0010
0000
0010
0001
0000
0000
,
0000
0000
0000
1000
0000
0100
1000
0000
0000
0000
0000
0000
,
0001
0000
0100
0001
0000
0000
1000
0000
0000
0000
0000
0000
,
0010
0010
0100
0100
,
2002
0000
3003
0000
,
1000
0100
0010
0010
,
0001
0100
0010
0010
,
2000
3000
0002
0003
,
0100
0100
0100
0000
,
0001
0010
0100
0100
,
1000
0010
0100
0100
,
0002
0003
2000
3000
,
0010
0100
0100
0000
,
2002
0000
3003
0000
;

//---------------dance-single - ----------------
#NOTEDATA:;
#CHARTNAME:;
#STEPSTYPE:dance-single;
#DESCRIPTION:;
#CHARTSTYLE:;
#DIFFICULTY:Beginner;
#METER:3;
#RADARVALUES:0.153226,0.196290,0.021031,0.000000,0.000000,153.000000,150.000000,3.000000,0.000000,0.000000,0.000000,0.000000,0.000000,0.000000,0.153226,0.196290,0.021031,0.000000,0.000000,153.000000,150.000000,3.000000,0.000000,0.000000,0.000000,0.000000,0.000000,0.000000;
#CREDIT:Ben Speirs;
#NOTES:
// measure 0
0000
0000
0000
0000
,  // measure 1
0000
0000
0000
0000
,  // measure 2
0000
0000
0000
0000
,  // measure 3
0000
0000
0000
0000
,  // measure 4
1000
0000
0010
0010
,  // measure 5
0000
0010
0010
0000
,  // measure 6
0100
0000
0001
0001
,  // measure 7
0000
0000
0000
0000
,  // measure 8
1000
0000
0001
0001
,  // measure 9
0000
0100
0100
0000
,  // measure 10
0010
0000
1000
1000
,  // measure 11
0000
0100
0100
0000
,  // measure 12
0010
0000
0001
0001
,  // measure 13
0000
1000
1000
0000
,  // measure 14
0010
0000
0100
0100
,  // measure 15
0000
0001
0001
0000
,  // measure 16
1000
0000
1000
0000
,  // measure 17
1000
0000
0000
0000
,  // measure 18
0010
0000
0010
0000
,  // measure 19
0010
0000
0000
0000
,  // measure 20
0100
0000
0100
0000
,  // measure 21
0100
0000
0000
0000
,  // measure 22
0001
0000
0001
0000
,  // measure 23
0001
0000
0000
0000
,  // measure 24
0000
0100
0100
0000
,  // measure 25
0100
0100
0100
0000
,  // measure 26
0000
0010
0010
0000
,  // measure 27
0010
0010
0010
0000
,  // measure 28
0000
1000
1000
0000
,  // measure 29
1000
1000
1000
0000
,  // measure 30
0000
0001
0001
0000
,  // measure 31
1001
0000
0000
0000
,  // measure 32
0100
0100
0100
0000
,  // measure 33
0100
0100
0100
0000
,  // measure 34
0001
0000
0000
0000
,  // measure 35
1000
1000
1000
0000
,  // measure 36
0010
0010
0010
0000
,  // measure 37
0010
0010
0010
0000
,  // measure 38
1000
0000
0000
0000
,  // measure 39
0001
0001
0001
0000
,  // measure 40
0100
0000
0000
0001
,  // measure 41
0000
0000
1000
0000
,  // measure 42
1000
0000
0000
0010
,  // measure 43
0000
0000
0100
0100
,  // measure 44
0100
0000
0000
0001
,  // measure 45
0000
0000
1000
0000
,  // measure 46
1000
0000
0000
0010
,  // measure 47
0000
0000
0100
0100
,  // measure 48
0100
0000
0001
0000
,  // measure 49
1000
1000
1000
0000
,  // measure 50
0100
0000
0100
0000
,  // measure 51
0000
0000
0000
0000
,  // measure 52
0010
0010
0010
0000
,  // measure 53
0010
0000
0010
0000
,  // measure 54
0001
0001
0001
0000
,  // measure 55
0001
0000
0000
0000
,  // measure 56
1000
0000
0000
0000
,  // measure 57
1000
0000
0000
0000
,  // measure 58
0001
0000
0000
0000
,  // measure 59
0000
0100
0100
0100
,  // measure 60
0000
0000
0000
0000
,  // measure 61
0001
0000
0000
0000
,  // measure 62
1000
0000
0000
0000
,  // measure 63
0010
0000
0000
0000
,  // measure 64
1000
1000
0000
0000
,  // measure 65
1000
1000
1000
0000
,  // measure 66
0000
0001
0001
0000
,  // measure 67
0001
0001
0001
0000
,  // measure 68
0000
0100
0100
0000
,  // measure 69
0100
0100
0100
0000
,  // measure 70
0000
0010
0010
0000
,  // measure 71
0010
0000
0000
0000
,  // measure 72
1001
0000
0001
0000
,  // measure 73
0001
0000
0000
0000
,  // measure 74
0100
0100
0100
0000
,  // measure 75
0100
0000
0000
0000
,  // measure 76
0010
0000
0010
0000
,  // measure 77
0010
0000
0000
0000
,  // measure 78
1000
1000
1000
0000
,  // measure 79
1000
0000
0000
0000
,  // measure 80
1001
0000
0000
0000
;
