#VERSION:0.82;
#TITLE:(Hashtag)thatPOWER;
#SUBTITLE:;
#ARTIST:will-i-am ft. Justin Bieber;
#TITLETRANSLIT:;
#SUBTITLETRANSLIT:;
#ARTISTTRANSLIT:;
#GENRE:EDM;
#ORIGIN:;
#CREDIT:;
#BANNER:(Hashtag)thatPOWER.png;
#BACKGROUND:(Hashtag)thatPOWER-bg.png;
#PREVIEWVID:;
#JACKET:jacket.png;
#CDIMAGE:;
#DISCIMAGE:;
#LYRICSPATH:;
#CDTITLE:;
#MUSIC:(Hashtag)thatPOWER.ogg;
#OFFSET:-0.146000;
#SAMPLESTART:67.647781;
#SAMPLELENGTH:13.354000;
#SELECTABLE:YES;
#BPMS:0.000=128.000;
#STOPS:;
#DELAYS:;
#WARPS:;
#TIMESIGNATURES:0.000=4=4;
#TICKCOUNTS:0.000=4;
#COMBOS:0.000=1;
#SPEEDS:0.000=1.000=0.000=0;
#SCROLLS:0.000=1.000;
#FAKES:;
#LABELS:0.000=Song Start;
#BGCHANGES:4.000=(hashtag)thatpower.avi=1.000=0=0=1=====,
99999=-nosongbg-=1.000=0=0=0 // don't automatically add -songbackground-
;
#KEYSOUNDS:;
#ATTACKS:
;

//---------------dance-single - ----------------
#NOTEDATA:;
#CHARTNAME:;
#STEPSTYPE:dance-single;
#DESCRIPTION:;
#CHARTSTYLE:;
#DIFFICULTY:Hard;
#METER:8;
#RADARVALUES:0.460714,0.604167,0.173387,0.194194,0.079758,412.000000,25.000000,28.000000,0.000000,0.000000,0.000000,0.000000,0.000000,0.460714,0.604167,0.173387,0.194194,0.079758,412.000000,25.000000,28.000000,0.000000,0.000000,0.000000,0.000000,0.000000;
#CREDIT:Ben Speirs;
#NOTES:
0000
0000
0000
0000
,
0000
0000
0000
0000
,
0000
0000
0000
0000
,
0000
0000
0000
0000
,
2000
0000
3010
0002
0000
0013
0200
0000
,
1000
0000
1000
0000
0010
0000
0310
0100
,
0002
0000
0013
2000
0000
3010
0200
0000
,
1000
1000
0010
0310
,
0001
0010
0001
0010
0100
1000
0020
0000
,
0100
0100
1000
1030
,
1000
0100
1000
0100
0010
0001
2000
0000
,
0010
0010
3001
1001
,
0201
0000
0000
0010
0000
0000
0302
0000
,
0000
0010
0000
0000
1003
0000
1000
0100
,
0001
0100
1000
0010
0001
0010
1000
0010
,
0200
1000
0010
0301
,
1020
0000
0000
0100
0000
0000
2030
0000
,
0000
0100
0000
0000
3001
0000
0001
0010
,
1000
0010
0001
0100
1000
0100
0001
0100
,
0020
0001
0100
1030
,
0101
0000
1000
0100
0000
0100
0010
0000
,
0001
0000
1000
0000
0010
0000
1000
0001
,
0100
0000
0100
0010
0000
0010
1000
0000
,
0001
0000
0010
0000
0001
0000
1000
0010
,
0100
0001
0100
0001
1000
1000
0000
0000
,
0001
0001
0000
0000
1000
1000
0000
0000
,
0010
0010
0000
0000
1000
0100
0000
0000
,
0010
0010
0000
0000
0001
0100
0010
0000
,
1010
0000
0000
0000
0010
0000
0000
0000
0100
0000
0000
0001
0000
0000
1000
0000
,
0100
0000
0100
0000
1000
0100
0010
0001
,
0100
0000
0000
0000
0100
0000
0000
0000
0001
0000
0000
1000
0000
0000
0010
0000
,
0100
0000
0100
0000
0001
0010
0100
1000
,
0010
0000
0000
0000
0010
0000
0000
0000
1000
0000
0000
0100
0000
0000
0010
0000
,
0001
0000
1000
0000
0001
0100
0010
1000
,
0001
0001
0010
0000
0100
0100
1000
0000
,
0022
0000
0030
1003
,
1100
0000
0001
1000
0100
1000
0001
0000
,
1000
1000
0010
0010
0100
0001
1000
0000
,
0001
0010
0100
1000
0010
0010
0100
0000
,
0010
0100
0010
0100
0001
1000
0010
0000
,
1000
0100
0001
0100
1000
0001
0100
0000
,
0001
0010
1000
0010
0001
0100
0010
0000
,
0100
0001
1000
0100
0010
0001
1000
0000
,
2002
0000
3003
0010
,
1000
0000
0010
0000
0100
0000
0001
0000
1000
0000
0000
1000
0000
0000
0001
0000
,
1000
0000
0100
0000
0010
0000
0001
0000
0100
0000
0000
0100
0000
0000
0001
0000
,
0010
0000
0100
0000
0010
0000
0100
0000
1000
0000
0000
1000
0000
0000
0001
0000
,
0100
0000
0010
0000
0100
0000
0010
0000
1000
0000
0000
1000
0000
0000
0010
0000
,
0100
0001
0100
0001
1000
0000
1100
0000
,
0011
1010
0101
1001
,
0001
0000
0100
0000
0010
0000
1000
0000
0100
0000
0000
0100
0010
0000
0000
0000
,
0022
0000
0030
1003
,
1100
0000
0101
0000
1000
0001
2000
0000
,
0010
0000
0001
0000
3100
0000
0001
0100
,
0010
0010
0100
0010
1000
1000
0010
1000
,
0200
0010
1000
0310
,
0011
0000
1010
0000
0001
1000
0002
0000
,
0100
0000
1000
0000
0013
0000
1000
0010
,
0100
0100
0010
0100
0001
0001
0100
0001
,
0020
0100
0001
0130
,
1100
0000
1001
0001
0101
0000
2001
0000
,
0010
0000
0100
0000
3001
0000
1000
0001
,
0100
0100
0001
1000
0100
0100
1000
0001
,
0020
0001
1000
0031
,
0011
0000
0000
0001
1000
0000
0010
0000
0010
0000
0000
1000
0001
0000
0100
0000
,
0100
0000
0000
0001
1000
0000
0100
0000
0100
0000
0000
1000
0001
0000
0010
0000
,
0010
0001
0100
0010
1000
0100
0010
0001
,
1000
0001
1000
0001
1000
0001
1000
0001
1000
0001
1000
0001
0100
0000
0000
0000
,
1001
0000
1000
0000
0100
0000
1000
0000
0010
0000
0000
0100
0000
0000
0001
0000
,
1000
1000
0010
0000
0100
0001
0010
0100
,
1000
0000
1000
0000
0001
0000
0000
0000
0100
0000
0000
0100
0000
0000
0010
0000
,
0000
1000
0001
0000
1000
0000
0000
0000
0001
0000
0010
0000
0100
0000
1000
0000
,
0001
0000
0100
0000
0010
0000
1000
0000
0100
0000
0100
0010
0000
0000
0001
0000
,
0010
0000
0010
0000
0001
0000
1000
0000
0010
0000
0010
0100
0000
0000
0001
0000
,
1000
1000
0100
1000
0001
0001
1000
0001
,
0202
0000
0003
1300
;

//---------------dance-single - ----------------
#NOTEDATA:;
#CHARTNAME:;
#STEPSTYPE:dance-single;
#DESCRIPTION:;
#CHARTSTYLE:;
#DIFFICULTY:Challenge;
#METER:10;
#RADARVALUES:0.667788,0.814313,0.249677,0.110968,0.440403,622.000000,36.000000,16.000000,0.000000,0.000000,0.000000,0.000000,0.000000,0.667788,0.814313,0.249677,0.110968,0.440403,622.000000,36.000000,16.000000,0.000000,0.000000,0.000000,0.000000,0.000000;
#CREDIT:Ben Speirs;
#NOTES:
// measure 0
0000
0000
0000
0000
,  // measure 1
0000
0000
0000
0000
,  // measure 2
0000
0000
0000
0000
,  // measure 3
0000
0000
0000
0000
,  // measure 4
1000
0100
0001
0100
1000
0010
0200
0000
,  // measure 5
1000
0000
0000
0000
1000
0000
0000
0000
0010
0000
0000
0000
0310
0000
0100
0001
,  // measure 6
0100
0010
1000
0100
0010
0001
2000
0000
,  // measure 7
0100
0001
0010
3001
,  // measure 8
0001
0010
1000
0010
0001
0100
0020
0000
,  // measure 9
0001
0000
0000
0000
0001
0000
0000
0000
0100
0000
0000
0000
0130
0000
0010
1000
,  // measure 10
0010
0100
0001
0010
0100
1000
0002
0000
,  // measure 11
0010
1000
0100
1003
,  // measure 12
1001
2000
0000
3100
0020
0000
0031
0200
,  // measure 13
0000
0310
2000
0000
3001
0010
0100
1000
,  // measure 14
0010
0100
0010
0000
1000
0000
0001
0000
0010
0100
0010
0000
0001
0000
1000
0000
,  // measure 15
0010
0100
0000
0100
0001
1000
0100
0000
,  // measure 16
1001
0002
0000
0013
0200
0000
1300
0020
,  // measure 17
0000
0130
0002
0000
1003
0100
0010
0001
,  // measure 18
0100
0010
0100
0000
0001
0000
1000
0000
0100
0010
0100
0000
1000
0000
0001
0000
,  // measure 19
0100
0010
0000
0010
1000
0001
0010
0000
,  // measure 20
0011
0001
1000
0010
0100
0001
2000
0000
,  // measure 21
0100
0000
0000
0000
0010
0000
0000
0000
0001
0000
0000
0000
3100
0000
1000
0100
,  // measure 22
1000
0010
0100
0001
1000
0001
0200
0000
,  // measure 23
0010
0000
1000
0000
0010
0000
0301
0100
,  // measure 24
0010
0010
1000
0010
0100
0100
0000
0000
,  // measure 25
0001
0001
0000
0000
1000
1000
0000
0000
,  // measure 26
0010
0010
0000
0000
1000
0001
0000
0000
,  // measure 27
0010
0010
0000
0000
0001
1000
1001
0000
,  // measure 28
1100
0000
0100
0000
0010
0000
0001
0000
0100
0000
0000
0100
0000
0000
0010
0000
,  // measure 29
1000
0000
0001
0000
1000
0000
0000
0000
0001
0000
0010
0100
0010
0000
0001
0000
,  // measure 30
1000
0000
0010
0000
0100
0000
0000
0000
0001
0000
0000
0100
0000
0000
0010
0000
,  // measure 31
0000
1000
0001
0000
1000
0000
0000
0000
0001
0000
0010
0000
0100
0000
1000
0000
,  // measure 32
0010
0000
0100
0000
0001
0000
0000
0000
0100
0000
0000
0100
0000
0000
0010
0000
,  // measure 33
1000
0000
0001
0000
1000
0000
0000
0000
0001
0000
0010
0100
0010
0000
0001
0000
,  // measure 34
1000
0000
1000
0000
0100
0000
0010
0000
0001
0000
0100
0010
0100
0000
0001
0000
,  // measure 35
1000
0100
1000
0001
0100
0001
1000
0100
0010
1001
0000
0000
,  // measure 36
0011
0000
0010
0000
1000
0000
0010
0000
0001
0100
0010
1000
0001
0000
1000
0000
,  // measure 37
1100
0000
0100
0000
0001
0000
0100
0000
1000
0100
0010
0001
0100
0000
0010
0000
,  // measure 38
1000
0000
1000
0000
0001
0000
0001
0000
0100
0010
0100
0010
1000
0000
0001
0000
,  // measure 39
0010
0000
0011
0000
1000
0000
1010
0000
0001
0100
0010
1000
0001
0000
0100
0000
,  // measure 40
0010
0000
0110
0000
0100
0000
0110
0000
0001
0100
0010
1000
0001
0000
0010
0000
,  // measure 41
0100
0000
0110
0000
0100
0000
0110
0000
1000
0100
0010
0001
1000
0000
0010
0000
,  // measure 42
1010
0000
1010
0000
0001
0000
0100
0010
0100
0000
0001
1000
0100
0000
1000
0001
,  // measure 43
1000
0001
1000
0100
0010
0001
1000
0001
1000
0010
0100
0001
1000
0000
0000
0000
,  // measure 44
1010
0000
0010
0100
0001
0000
1000
0000
0001
0010
0100
1000
0001
0000
0100
0000
,  // measure 45
0010
0000
1000
0000
0010
0000
1000
0000
0001
0010
0100
1000
0001
0000
0100
0010
,  // measure 46
0100
0000
0001
0000
1000
0000
0010
0000
1000
0100
0010
0001
1000
0000
0010
0000
,  // measure 47
0100
0001
0100
0000
0010
0000
1000
0000
0001
0010
0100
1000
0001
0000
1000
0000
,  // measure 48
0100
1000
0100
0000
1000
0001
1000
0000
0001
0100
0001
0000
1000
0001
1000
0000
,  // measure 49
0010
0001
0010
0100
0010
1000
0010
0100
,  // measure 50
0001
0100
0001
0000
1000
0100
1000
0000
0001
0010
0001
0000
1000
0010
1000
0000
,  // measure 51
2002
0000
3003
0110
,  // measure 52
0101
0100
0010
1000
1100
0100
0010
0001
,  // measure 53
1001
1000
0010
0100
0101
0100
0010
1000
,  // measure 54
0001
0010
0001
0000
0100
0000
0001
0000
1000
0010
1000
0000
0100
0000
0010
0000
,  // measure 55
0001
0010
0001
0000
1000
0000
0010
0000
0100
0000
0001
0000
1000
0000
0010
0000
,  // measure 56
1010
1000
0100
0010
0001
1000
0010
0100
,  // measure 57
0110
0100
0001
0010
0100
1000
0001
0010
,  // measure 58
0001
1000
0001
0000
0100
0000
0010
0000
1000
0001
1000
0000
0100
0000
0010
0000
,  // measure 59
0001
0010
0001
0000
1000
0000
0010
0000
0100
0000
0001
0000
1000
0000
0001
0000
,  // measure 60
0100
0010
0100
0000
0001
1000
0001
0000
0100
0010
0100
0000
0001
1000
0001
0000
,  // measure 61
0100
0010
1000
0100
0010
0001
1000
0010
,  // measure 62
1000
0100
1000
0000
0001
0100
0001
0000
1000
0010
1000
0000
0001
0010
0001
0000
,  // measure 63
1000
0100
0010
0001
0100
0010
1000
0001
,  // measure 64
0101
0000
0100
0010
1000
0000
0100
0000
1100
0000
0100
0010
0001
0000
1000
0000
,  // measure 65
1010
0000
0010
1000
0001
0000
0010
0000
0011
0000
0001
1000
0010
0000
1000
0000
,  // measure 66
0001
1000
0001
1000
0010
0100
0010
0100
0001
1000
0001
1000
0100
0010
0100
0010
,  // measure 67
0001
0100
0010
1000
0100
0010
0001
0100
0010
1000
0100
0010
0001
0000
0000
0000
,  // measure 68
1100
0000
0001
0000
0101
0000
1000
0000
0001
0010
0100
1000
0001
0000
1000
0000
,  // measure 69
1010
0000
0001
0000
0011
0000
1000
0000
0001
0010
0100
1000
0001
0000
1000
0000
,  // measure 70
1100
0000
0001
0000
0101
0000
1000
0000
0010
0100
0010
0100
0001
0000
1000
0000
,  // measure 71
0100
0010
0100
0010
0001
0000
1000
0000
0010
0100
0010
0000
0100
0000
0001
0000
,  // measure 72
1000
0100
0010
0100
1000
0100
0010
0100
1000
0100
0010
0100
1000
0000
0000
0000
,  // measure 73
0001
1000
0010
1000
0001
1000
0010
1000
0001
1000
0010
1000
0001
0000
0000
0000
,  // measure 74
1000
0100
0010
0001
0100
0010
1000
0100
0010
0001
0100
0010
1000
0100
0010
0001
,  // measure 75
0100
0010
0010
1000
0100
0100
0010
0001
1000
1001
0000
0000
;

//---------------dance-double - ----------------
#NOTEDATA:;
#CHARTNAME:;
#STEPSTYPE:dance-double;
#DESCRIPTION:;
#CHARTSTYLE:;
#DIFFICULTY:Challenge;
#METER:9;
#RADARVALUES:0.589516,0.814313,0.208065,0.159516,0.346774,542.000000,30.000000,23.000000,0.000000,0.000000,0.000000,0.000000,0.000000,0.589516,0.814313,0.208065,0.159516,0.346774,542.000000,30.000000,23.000000,0.000000,0.000000,0.000000,0.000000,0.000000;
#CREDIT:Ben Speirs;
#NOTES:
00000000
00000000
00000000
00000000
,
00000000
00000000
00000000
00000000
,
00000000
00000000
00000000
00000000
,
00000000
00000000
00000000
00000000
,
00011000
00000000
00001000
00100000
00000000
00010000
20000000
00000000
,
00100000
00010000
30010000
10010000
,
11000000
00000000
00010000
01000000
00000000
00001000
00020000
00000000
,
00100000
00100000
00001000
00031000
,
00011000
00000000
00010000
00000100
00000000
00001000
00000002
00000000
,
00000100
00001000
00001003
00001001
,
00000011
00000000
00001000
00000010
00000000
00010000
00002000
00000000
,
00000100
00000100
00010000
00013000
,
00012000
00000000
00000000
00203000
00000000
00000000
00320000
00000000
,
00000000
20030000
00000000
00000000
30100000
00000000
10000000
01000000
,
00100000
00100000
00010000
10000000
00100000
00100000
10000000
00010000
,
02000000
10000000
00100000
03010000
,
02000000
00000000
00000000
03020000
00000000
00000000
00230000
00000000
,
00000000
00302000
00000000
00000000
00023000
00000000
00030100
00010000
,
00001000
00001000
00010000
00000100
00001000
00001000
00000100
00000010
,
00000002
00000100
00001003
00000000
,
00001000
00000010
00001000
00000001
00000010
00000001
00000200
00000000
,
00000010
00000000
00000000
00000000
00000010
00000000
00000000
00000000
00000001
00000000
00000000
00000000
00000301
00000000
00000100
00000001
,
00000100
00000010
00001000
00000100
00010000
00001000
00020000
00000000
,
00001000
00000100
00001000
00031000
,
00010000
00001000
00100000
00010000
10000000
10000000
00000000
00000000
,
00010000
00010000
00000000
00000000
00001000
00001000
00000000
00000000
,
00000001
00000001
00000000
00000000
00001000
00001000
00000000
00000000
,
00010000
00010000
00000000
00000000
10000000
10000000
10010000
00000000
,
00010000
00000000
00000000
00000000
10000000
00000000
00000000
00000000
00100000
00000000
00000000
00100000
00000000
00000000
01000000
00000000
,
00010000
00000000
10000000
00000000
01000000
00100000
00010000
00100000
,
00001000
00000000
00000000
00000000
00010000
00000000
00000000
00000000
00000100
00000000
00000000
00010000
00000000
00000000
00000010
00000000
,
00000000
00001000
00000010
00000000
00000100
00000000
00000000
00000000
00000001
00000000
00000100
00000000
00000010
00000000
00001000
00000000
,
00000001
00000000
00000000
00000000
00000001
00000000
00000000
00000000
00000100
00000000
00000000
00000100
00000000
00000000
00000010
00000000
,
00001000
00000000
00001000
00000000
00000001
00000010
00000100
00001000
,
00000010
00000010
00001000
00000000
00000100
00000100
00010000
00000000
,
00001000
00010000
00001000
00010000
00000100
00010000
00001000
00010000
00001000
00100000
00000000
00000000
,
00101000
00000000
00100000
00000000
00010000
00000000
10000000
00000000
00100000
01000000
00100000
01000000
00010000
00000000
10000000
00000000
,
01000000
00000000
01000000
00000000
10000000
00000000
00010000
00000000
01000000
00100000
01000000
00100000
10000000
00000000
00010000
00000000
,
00100000
00000000
00001000
00000000
00010000
00000000
00000100
00000000
00001000
00000001
00001000
00000001
00001000
00000000
00000010
00000000
,
00001000
00000000
00000100
00000000
00010000
00000000
00001000
00000000
00100000
00010000
00100000
00010000
10000000
00000000
00000000
00000000
,
00100000
00000000
10000000
00000000
00010000
00000000
01000000
00000000
00100000
10000000
00100000
10000000
00010000
00000000
00100000
00000000
,
00010000
00000000
10000000
00000000
01000000
00000000
00100000
00000000
00010000
01000000
00010000
01000000
00010000
00000000
00000000
00000000
,
10000000
00000000
01000000
00000000
00100000
00000000
00010000
10000000
00010000
00000000
01000000
00100000
01000000
00000000
00010000
00100000
,
00001000
00010000
00001000
00010000
00000100
00001000
00000100
00001000
00000010
00000100
00000001
00001000
00000010
00000000
00000000
00000000
,
00001001
00000000
00001000
00000000
00001100
00000000
00000001
00000000
00001000
00000100
00000010
00000001
00001000
00000000
00000001
00000000
,
00001001
00000000
00000001
00000000
00000101
00000000
00001000
00000000
00000001
00000010
00000100
00001000
00000001
00000000
00001000
00000000
,
00000100
00000000
00000100
00000000
00010000
00000000
00000100
00000000
00010000
00001000
00010000
00001000
00100000
00000000
00001000
00000000
,
00100000
00000000
00100000
00000000
00010000
00000000
10000000
00000000
00100000
01000000
00100000
01000000
00010000
00000000
10000000
00000000
,
00100000
01000000
00100000
00010000
00100000
01000000
00100000
10000000
,
00010000
10000000
00010000
00000000
10000000
00010000
10000000
00000000
00010000
10000000
00010000
00000000
10000000
00010000
10000000
00000000
,
01000000
10000000
00010000
00100000
00010000
01000000
00001000
00100000
,
00202000
00000000
00300000
00013000
,
00011000
00001000
00010000
00000100
00001100
00001000
00000010
00000100
,
00000201
00000010
00001000
00000310
,
00000101
00000100
00000010
00001000
00001100
00000100
00010000
00001000
,
00012000
00100000
00010000
00013000
,
00101000
00100000
00010000
01000000
01010000
01000000
00100000
10000000
,
20100000
00010000
01000000
30100000
,
11000000
10000000
01000000
00100000
00110000
00010000
10000000
00100000
,
20100000
00010000
01000000
30010000
,
10000000
01000000
00100000
00010000
01000000
01000000
00100000
10000000
,
00010000
00100000
00001000
01000000
00010000
00010000
01000000
00100000
,
10000000
01000000
10000000
00000000
00100000
00000000
01000000
00000000
00010000
10000000
00010000
00000000
10000000
00000000
01000000
00000000
,
00100000
00010000
00100000
00000000
00001000
00000000
00100000
00000000
00010000
00000000
00100000
00000000
00001000
00000000
00010000
00000000
,
00000100
00000000
00001000
00000001
00001000
00000000
00000010
00000000
00000100
00000000
00000001
00001000
00000001
00000000
00000010
00000000
,
00000100
00000000
00001000
00000001
00001000
00000000
00000010
00000000
00000100
00000000
00000001
00001000
00000001
00000000
00000010
00000000
,
00000100
00001000
00000100
00001000
00000100
00010000
00000100
00010000
00001000
00010000
00001000
00010000
00001000
00100000
00001000
00100000
,
00010000
10000000
00010000
10000000
00010000
10000000
00010000
10000000
00010000
10000000
00010000
10000000
00100000
00000000
00000000
00000000
,
10100000
00000000
00100000
00000000
01100000
00000000
01000000
00000000
00010000
01000000
00010000
01000000
00100000
00000000
10000000
00000000
,
11000000
00000000
01000000
00000000
01100000
00000000
00100000
00000000
00010000
00100000
00010000
00100000
01000000
00000000
10000000
00000000
,
00010000
00000000
01000000
00000000
00001000
00000000
00010000
00000000
00000100
00001000
00000100
00001000
00000010
00000000
00000100
00000000
,
00000001
00001000
00000001
00000000
00000100
00000000
00000010
00000000
00001000
00000100
00001000
00000100
00010000
00000000
00000000
00000000
,
00000100
00001000
00000100
00010000
00000100
00001000
00000100
00010000
00000100
00001000
00000100
00010000
00000100
00000000
00000000
00000000
,
00010000
00001000
00010000
00000100
00010000
00001000
00010000
00000100
00010000
00001000
00010000
00000100
00010000
00000000
00000000
00000000
,
00100000
00001000
00100000
00001000
00100000
00010000
00100000
00010000
10000000
00100000
10000000
00100000
01000000
00010000
01000000
00010000
,
10000000
01000000
00010000
01000000
00010000
00001000
00010000
00001000
00000100
00000001
00000000
00000000
;

//---------------dance-single - ----------------
#NOTEDATA:;
#CHARTNAME:;
#STEPSTYPE:dance-single;
#DESCRIPTION:;
#CHARTSTYLE:;
#DIFFICULTY:Medium;
#METER:6;
#RADARVALUES:0.358664,0.446559,0.284355,0.284355,0.000000,280.000000,41.000000,41.000000,0.000000,0.000000,0.000000,0.000000,0.000000,0.358664,0.446559,0.284355,0.284355,0.000000,280.000000,41.000000,41.000000,0.000000,0.000000,0.000000,0.000000,0.000000;
#CREDIT:Ben Speirs;
#NOTES:
0000
0000
0000
0000
,
0000
0000
0000
0000
,
0000
0000
0000
0000
,
0000
0000
0000
0000
,
2000
0000
0000
3002
0000
0000
0203
0000
,
0000
0300
0010
0010
,
0200
0000
0000
0302
0000
0000
2003
0000
,
0000
3000
0100
0100
,
1000
0000
0010
0100
0000
0100
0002
0000
,
0000
0003
1000
1000
,
0001
0000
0010
0100
0000
0100
2000
0000
,
0000
3000
0001
1000
,
0020
0000
0000
0000
,
0000
0000
0030
0000
,
2000
3100
0002
0100
,
2000
0000
0000
3003
,
0200
0000
0000
0000
,
0000
0000
0300
0000
,
0002
0100
2003
0100
,
0002
0000
0000
3003
,
0020
0000
0000
0000
,
0000
0000
0030
0000
,
2000
0010
3002
0010
,
2000
0000
0000
3003
,
1000
0000
0000
0000
0001
0001
0000
0000
,
1000
1000
0000
0000
0001
0001
0000
0000
,
1000
1000
0000
0000
0010
0010
0000
0000
,
1000
0001
0000
0000
0010
0010
0000
0000
,
1000
0001
0100
0100
,
0001
0000
1000
0000
0100
0010
0100
0010
,
0001
0001
1000
0001
,
0100
0100
0010
0000
1000
0010
1000
0010
,
0100
0001
1000
1000
,
0001
0000
0010
0000
0001
0100
0001
0100
,
0010
0010
0000
0000
1000
1000
0000
0000
,
2002
0000
3003
1001
,
1100
0001
0100
1000
,
0011
1000
0010
0001
,
0101
1000
0100
0001
,
1100
0001
0010
1001
,
1010
0000
0001
0000
0010
0001
0100
0000
,
1000
0001
1000
0000
0100
1000
0010
0000
,
1000
0000
0001
0000
0100
0100
0010
0000
,
2002
0000
3003
1001
,
1100
1100
0001
0001
,
1100
0110
0011
1001
,
0101
0101
0010
0010
,
0101
0110
1010
1001
,
1000
0100
1000
0100
0010
0000
0010
0000
,
0001
1000
0001
1000
0010
0000
0010
0000
,
0100
0001
0100
0001
1000
0000
1000
0000
,
2002
0000
3003
0010
,
2010
0100
0010
0100
,
0010
0000
0100
0000
3010
0000
0010
1000
,
0002
0000
0013
0001
2000
0000
3100
1000
,
0002
0100
1003
0010
,
1002
0010
0100
0010
,
0100
0000
0010
0000
0103
0000
0100
0001
,
2000
0000
3100
1000
0002
0000
0013
0001
,
2000
0010
3001
1001
,
0001
0100
0001
0100
0002
0000
1003
0000
,
2000
3100
0002
0103
,
1000
0100
1000
0100
2000
0000
3001
0000
,
0002
0103
2000
3100
,
1001
0010
1001
0010
,
1001
0010
1001
0010
,
1001
1001
1001
1001
,
1000
0100
0010
0001
1000
0000
1001
0000
,
0101
1000
0010
0001
,
0011
1000
0100
0001
,
0101
1100
0001
1000
,
1010
0011
1000
0001
,
1000
0100
1000
0100
1000
0100
0010
0000
,
0100
1000
0100
1000
0100
1000
0010
0000
,
1000
0001
1000
0001
0100
0010
0100
0010
,
2000
0000
0000
3001
;

//---------------dance-single - ----------------
#NOTEDATA:;
#CHARTNAME:;
#STEPSTYPE:dance-single;
#DESCRIPTION:;
#CHARTSTYLE:;
#DIFFICULTY:Easy;
#METER:3;
#RADARVALUES:0.219954,0.288950,0.076290,0.298226,0.000000,168.000000,11.000000,43.000000,0.000000,0.000000,0.000000,0.000000,0.000000,0.219954,0.288950,0.076290,0.298226,0.000000,168.000000,11.000000,43.000000,0.000000,0.000000,0.000000,0.000000,0.000000;
#CREDIT:Ben Speirs;
#NOTES:
0000
0000
0000
0000
,
0000
0000
0000
0000
,
0000
0000
0000
0000
,
0000
0000
0000
0000
,
0001
1000
0010
0010
,
0200
0300
0200
0300
,
0001
1000
0100
0100
,
0020
0030
0020
0030
,
0001
1000
0010
0010
,
2000
3000
2000
3000
,
0100
1000
0100
0010
,
0002
0003
0002
0003
,
0020
0000
0000
0000
,
0000
0030
0000
0000
,
0002
0003
2000
3000
,
2002
0000
0000
3003
,
0020
0000
0000
0000
,
0000
0030
0000
0000
,
0002
0003
2000
3000
,
2002
0000
3003
0000
,
0020
0000
0000
0000
,
0000
0030
0000
0000
,
0002
0003
2000
3000
,
2002
0000
0000
3003
,
1000
0000
0000
0000
,
0001
0000
0000
0000
,
1000
0000
0000
0000
,
0001
0000
0000
0000
,
1001
0000
1000
0000
,
0010
0000
0010
0100
,
0001
0000
0001
0000
,
1000
0000
1000
0100
,
0010
0000
0010
0000
,
0001
0000
0001
1000
,
0010
0000
0010
0000
,
0020
0000
0030
1001
,
1000
0100
1000
0000
,
0001
0100
0001
0000
,
1000
0000
0001
0000
,
0010
0010
0010
0000
,
0001
0010
0001
0001
,
1000
0010
1000
0000
,
1000
0100
0100
0010
,
0001
0000
0000
0000
,
1001
1001
0100
0000
,
1001
1001
0100
0000
,
1000
0001
0100
0100
,
0010
1000
0001
0000
,
1000
0100
1000
0000
,
0010
0010
0010
0000
,
0001
0100
0001
1000
,
0010
0000
0000
1001
,
2000
3000
0002
0003
,
0200
0300
0020
0030
,
1000
0100
0010
0001
,
2000
3000
0002
0003
,
0200
0300
0002
0003
,
2000
3000
0020
0030
,
1000
1000
0001
0001
,
0200
0300
0200
0300
,
0001
0100
0010
2000
,
0000
0000
3000
0000
,
1000
0010
0100
0002
,
0000
0000
0003
0000
,
1000
0000
0001
0000
,
1000
0000
0001
0000
,
1000
1000
0001
0001
,
1000
0001
1000
0000
,
0010
0100
0010
0010
,
0100
0010
0100
0000
,
0001
0100
0001
0001
,
0100
0001
0100
0000
,
0020
0000
0030
0010
,
2000
0000
3000
1000
,
0002
0003
2000
3000
,
0200
0000
0300
1001
;

//---------------dance-single - ----------------
#NOTEDATA:;
#CHARTNAME:;
#STEPSTYPE:dance-single;
#DESCRIPTION:;
#CHARTSTYLE:;
#DIFFICULTY:Beginner;
#METER:2;
#RADARVALUES:0.114931,0.157609,0.041613,0.000000,0.000000,110.000000,6.000000,0.000000,0.000000,0.000000,0.000000,0.000000,0.000000,0.114931,0.157609,0.041613,0.000000,0.000000,110.000000,6.000000,0.000000,0.000000,0.000000,0.000000,0.000000,0.000000;
#CREDIT:Ben Speirs;
#NOTES:
0000
0000
0000
0000
,
0000
0000
0000
0000
,
0000
0000
0000
0000
,
0000
0000
0000
0000
,
1000
0000
0000
0000
,
0001
0000
0000
0000
,
0100
0000
0100
0000
,
0100
0000
0000
0000
,
0001
0000
0000
0000
,
1000
0000
0000
0000
,
0010
0000
0010
0000
,
0010
0000
0000
0000
,
1001
0000
0000
0000
,
0000
0000
0000
0000
,
0010
0000
0010
0000
,
0010
0000
0000
0000
,
0100
0000
0000
0000
,
0000
0000
0000
0000
,
0010
0000
0010
0000
,
0010
0000
0000
0000
,
1001
0000
0000
0000
,
0000
0000
0000
0000
,
0010
0000
0010
0000
,
0010
0000
0000
0000
,
1000
0000
0000
0000
,
0001
0000
0000
0000
,
1000
0000
0000
0000
,
0001
0000
0000
0000
,
1001
0000
0000
0000
,
1000
0000
0010
0010
,
0010
0000
0000
0000
,
1000
0000
0001
0001
,
0001
0000
0000
0000
,
0001
0000
0100
0100
,
0100
0000
0100
0000
,
0100
0000
0000
0000
,
0001
0000
0001
0000
,
0001
0000
0000
0000
,
1000
0000
1000
0000
,
0010
0000
0000
0000
,
0100
0000
0100
0000
,
0100
0000
0000
0000
,
0010
0000
0010
0000
,
1000
0000
0000
0000
,
0001
0000
0001
0001
,
0000
0000
1000
1000
,
0000
0000
0010
0010
,
0000
0100
0100
0000
,
0001
0000
0001
0000
,
0001
0001
0001
0000
,
1000
0000
1000
0000
,
1000
0000
0000
0000
,
1001
0000
0000
0000
,
0010
0000
0000
0000
,
1000
0000
1000
0000
,
1000
0000
0000
0000
,
0001
0000
0000
0000
,
1000
0000
0000
0000
,
0100
0000
0100
0000
,
0100
0000
0000
0000
,
0010
0000
0010
0000
,
0010
0000
0000
0000
,
0001
0000
0001
0000
,
0001
0000
0000
0000
,
1000
1000
0000
0000
,
0001
0001
0000
0000
,
0100
0000
0100
0000
,
0010
0010
0000
0000
,
1001
0000
1000
0000
,
0100
0000
0000
1000
,
1000
0000
1000
0000
,
0001
0000
0000
0001
,
0001
0000
0001
0000
,
0100
0000
0000
0100
,
0100
0000
0100
0000
,
0010
0000
0000
1001
;