#VERSION:0.82;
#TITLE:What Do You Mean?;
#SUBTITLE:(Live @ BBC Radio 1);
#ARTIST:CHVRCHES;
#TITLETRANSLIT:;
#SUBTITLETRANSLIT:;
#ARTISTTRANSLIT:;
#GENRE:Nobody Knows;
#ORIGIN:;
#CREDIT:;
#BANNER:What Do You Mean [ANOTHER].png;
#BACKGROUND:What Do You Mean [ANOTHER]-bg.png;
#PREVIEWVID:;
#JACKET:jacket.png;
#CDIMAGE:;
#DISCIMAGE:;
#LYRICSPATH:;
#CDTITLE:;
#MUSIC:What Do You Mean [ANOTHER].ogg;
#OFFSET:0.070000;
#SAMPLESTART:68.303749;
#SAMPLELENGTH:13.714000;
#SELECTABLE:YES;
#BPMS:0.000=125.000;
#STOPS:;
#DELAYS:;
#WARPS:;
#TIMESIGNATURES:0.000=4=4;
#TICKCOUNTS:0.000=4;
#COMBOS:0.000=1;
#SPEEDS:0.000=1.000=0.000=0;
#SCROLLS:0.000=1.000;
#FAKES:;
#LABELS:0.000=Song Start;
#BGCHANGES:4.000=What Do You Mean [ANOTHER].avi=1.000=0=0=1=====,
99999=-nosongbg-=1.000=0=0=0 // don't automatically add -songbackground-
;
#KEYSOUNDS:;
#ATTACKS:
;

//---------------dance-single - ----------------
#NOTEDATA:;
#CHARTNAME:;
#STEPSTYPE:dance-single;
#DESCRIPTION:;
#CHARTSTYLE:;
#DIFFICULTY:Challenge;
#METER:10;
#RADARVALUES:0.635617,0.848714,0.111447,0.137166,0.540091,490.000000,13.000000,16.000000,0.000000,0.000000,0.000000,0.000000,0.000000,0.635617,0.848714,0.111447,0.137166,0.540091,490.000000,13.000000,16.000000,0.000000,0.000000,0.000000,0.000000,0.000000;
#CREDIT:Ben Speirs;
#NOTES:
0000
0000
0000
0000
,
0000
0000
0000
0000
,
0000
0000
0000
0000
,
0000
0000
0000
0000
0000
0100
0010
0100
,
0001
0000
0000
0000
1000
0000
0000
0100
0000
0010
0000
0000
0001
0000
1000
0000
,
0010
0000
0000
1000
0000
0000
0001
0000
0000
0000
0100
0000
0010
0000
0100
0000
,
0001
0001
0100
0010
1000
0100
0010
0100
,
1000
1000
0100
1000
0010
0010
0100
0010
,
1000
0000
0000
0000
0001
0000
0000
0010
0000
0100
0000
0000
1000
0000
0001
0000
,
0100
0000
0000
0001
0000
0000
1000
0000
0000
0000
0010
0000
0100
0000
0010
0000
,
1000
1000
0010
0100
0001
0010
0100
0010
,
0001
0001
0010
0001
0100
0010
1000
0001
,
0010
0000
0010
0100
0000
0100
1000
0000
1000
0010
0000
0010
0200
0000
0000
0000
,
0301
0000
0000
0100
0000
0000
0010
0000
1000
0000
0100
0000
0010
0000
0000
0000
,
0100
0000
0100
1000
0000
1000
0010
0000
0010
0100
0000
0100
0002
0000
0000
0000
,
1003
0000
0100
1000
0000
1000
0001
0000
0000
0000
0010
0000
0100
0000
0010
0000
,
0100
0000
0100
0010
0000
0010
0001
0000
0001
0100
0000
0100
0020
0000
0000
0000
,
1030
0000
0000
0010
0000
0000
0100
0000
0001
0000
0010
0000
0100
0000
0000
0000
,
0010
0000
0010
0001
0000
0001
0100
0000
0100
0010
0000
0010
2000
0000
0000
0000
,
3001
0000
0010
0100
0010
0000
0001
0000
1000
0000
0010
0000
1000
0000
0001
0000
,
0102
1000
0010
0100
,
2003
0100
0010
0001
,
3020
0001
0100
1000
,
0230
0001
0010
1000
,
0302
0010
1000
0100
,
2003
0100
0001
0010
,
3200
0001
0010
1000
,
0320
1000
0100
0031
,
0011
0000
0000
0000
1001
0000
0000
0000
1000
0000
0010
0100
0010
0000
1000
0000
,
0001
0000
1000
0000
0010
0000
0100
0000
0001
0000
1000
0100
1000
0100
1000
0000
,
1100
0000
0000
0000
1010
0000
0000
0000
1000
0000
0001
0100
0001
0000
2000
0000
,
0000
0000
3100
0000
0010
0000
0002
0000
0000
0000
0103
0010
0100
0000
0010
0000
,
1010
0000
0000
0000
1001
0000
0000
0000
0001
0000
1000
0000
0100
1000
0100
0000
,
1000
0000
0010
0100
0010
0000
0100
0000
0001
0000
1000
0000
0100
0000
0010
0000
,
0002
0000
2003
0000
3010
0100
0001
1000
,
0100
0000
0100
0010
0000
0010
0001
0000
0000
0000
0010
0000
0001
0000
1000
0000
,
1100
0000
0100
1000
0000
0010
0100
0000
0001
1000
0000
0100
0010
0000
0000
0000
,
0011
0010
0100
1100
1000
0010
0100
0001
,
1000
0100
1000
0000
0010
0000
0010
0000
1000
0000
0100
0000
0010
0000
0001
0000
,
1000
0001
1000
0000
0010
0000
0010
0000
0100
0000
0001
0000
0001
0000
0010
0000
,
0011
0000
0010
0001
0000
0100
0010
0000
1000
0001
0000
0010
0100
0000
0000
0000
,
1100
0100
0010
0011
0001
0100
0010
1000
,
0001
0010
0001
0000
0100
0000
0100
0000
0001
0000
0010
0000
0100
0000
1000
0000
,
0001
1000
0001
0000
0100
0000
0100
0000
0010
0000
1000
0001
1000
0001
1000
0000
,
0010
1000
0010
0000
0100
0000
0001
0000
0010
0000
0100
0000
1000
0000
0001
0000
,
0100
0010
0100
0000
0001
0000
1000
0100
1000
0000
0010
0000
0100
0000
0001
0000
,
0010
0100
0010
0000
0001
0000
1000
0000
0010
0000
0100
0000
0001
0000
1000
0000
,
0100
0000
0100
0010
0000
0010
0001
0000
0000
0000
0010
0000
0001
0000
1000
0000
,
0010
0100
0010
0000
1000
0000
0001
0000
0010
0000
0100
0000
1000
0000
0001
0000
,
1000
0100
1000
0000
0010
0000
0100
0001
0100
0000
0010
0000
1000
0000
0100
0000
,
0010
0001
0010
0000
0100
0000
0010
0000
0001
0000
1000
0000
0010
0000
0100
0000
,
0001
0000
0001
1000
0000
1000
0100
0000
0000
0000
1000
0000
0010
0000
0100
0000
,
0001
0100
0010
1000
0100
0010
0001
1000
0010
0100
0001
0010
0100
0010
0001
1000
,
0010
0100
0001
1000
0100
1000
0010
0100
0001
1000
0100
0010
0001
1000
0010
1000
,
0001
0010
0100
1000
0001
0100
0010
1000
0100
0010
0001
1000
0010
0100
0001
1000
,
0100
0010
0100
0010
0001
1000
0010
0100
0001
1000
0001
1000
0010
0100
0001
0010
,
0100
1000
0010
0100
0001
0010
0100
0010
0001
1000
0010
1000
0100
0010
0001
1000
,
0010
0100
0001
1000
0100
1000
0010
0100
0001
0010
0100
1000
0001
1000
0010
0100
,
0001
0010
0100
1000
0001
0100
0010
1000
0001
0010
0100
1000
0001
1000
0100
1000
,
0001
0100
0010
1000
0100
0010
0001
1000
0010
1000
0001
0100
0010
1000
0100
0010
,
0001
0000
0000
0000
;

//---------------dance-single - ----------------
#NOTEDATA:;
#CHARTNAME:;
#STEPSTYPE:dance-single;
#DESCRIPTION:;
#CHARTSTYLE:;
#DIFFICULTY:Hard;
#METER:9;
#RADARVALUES:0.557237,0.565810,0.111447,0.137166,0.265759,426.000000,13.000000,16.000000,0.000000,0.000000,0.000000,0.000000,0.000000,0.557237,0.565810,0.111447,0.137166,0.265759,426.000000,13.000000,16.000000,0.000000,0.000000,0.000000,0.000000,0.000000;
#CREDIT:Ben Speirs;
#NOTES:
0000
0000
0000
0000
,
0000
0000
0000
0000
,
0000
0000
0000
0000
,
0000
0000
0000
0000
0000
0010
0100
0010
,
1000
0000
0000
0000
0001
0000
0000
0010
0000
0100
0000
0000
1000
0000
0001
0000
,
0100
0000
0000
0001
0000
0000
1000
0000
0000
0000
0010
0000
0100
0000
0010
0000
,
1000
1000
0010
0100
0001
0010
0100
0010
,
0001
0001
0010
0001
0100
0100
0010
0100
,
0001
0000
0000
0000
1000
0000
0000
0100
0000
0010
0000
0000
0001
0000
1000
0000
,
0010
0000
0000
1000
0000
0000
0001
0000
0000
0000
0100
0000
0010
0000
0100
0000
,
0001
0001
0100
0010
1000
0100
0010
0100
,
1000
1000
0100
1000
0010
0100
0001
1000
,
0100
0000
0100
0010
0000
0010
0001
0000
0001
0100
0000
0100
0020
0000
0000
0000
,
1030
0000
0000
0010
0000
0000
0100
0000
0001
0000
0010
0000
0100
0000
0000
0000
,
0010
0000
0010
0001
0000
0001
0100
0000
0100
0010
0000
0010
2000
0000
0000
0000
,
3001
0000
0010
0001
0000
0001
1000
0000
0000
0000
0100
0000
0010
0000
0100
0000
,
0010
0000
0010
0100
0000
0100
1000
0000
1000
0010
0000
0010
0200
0000
0000
0000
,
0301
0000
0000
0100
0000
0000
0010
0000
1000
0000
0100
0000
0010
0000
0000
0000
,
0100
0000
0100
1000
0000
1000
0010
0000
0010
0100
0000
0100
0002
0000
0000
0000
,
1003
0000
0100
0010
0100
0000
1000
0000
0001
0000
0100
0000
0001
0000
1000
0000
,
2010
0001
0100
0010
,
3002
0010
0100
1000
,
0203
1000
0010
0001
,
0320
1000
0100
0001
,
2030
0100
0001
0010
,
3002
0010
1000
0100
,
0023
1000
0100
0001
,
0230
0001
0010
1300
,
1100
0000
0000
0000
1001
0000
0000
0000
0001
0000
0100
0010
0100
0000
0001
0000
,
1000
0000
0001
0000
0100
0000
0010
0000
1000
0000
0001
0010
0001
0010
0001
0000
,
0011
0000
0000
0000
0101
0000
0000
0000
0001
0000
1000
0010
1000
0000
0002
0000
,
0000
0000
0013
0000
0100
0000
2000
0000
0000
0000
3010
0100
0010
0000
0100
0000
,
0101
0000
0000
0000
1001
0000
0000
0000
1000
0000
0001
0000
0010
0001
0010
0000
,
0001
0000
0100
0010
0100
0000
0010
0000
1000
0000
0001
0000
0010
0000
0100
0000
,
2000
0000
3002
0000
0103
0010
1000
0001
,
0010
0000
0010
0100
0000
0100
1000
0000
0000
0000
0100
0000
1000
0000
0001
0000
,
0011
0000
0010
0001
0000
0100
0010
0000
1000
0001
0000
0010
0100
0000
0000
0000
,
1100
0100
0010
0011
0001
0100
0010
1000
,
0001
0010
0001
0000
0100
0000
0100
0000
0001
0000
0010
0000
0100
0000
1000
0000
,
0001
1000
0001
0000
0100
0000
0100
0000
0010
0000
1000
0000
1000
0000
0100
0000
,
1100
0000
0100
1000
0000
0010
0100
0000
0001
1000
0000
0100
0010
0000
0000
0000
,
0011
0010
0100
1100
1000
0010
0100
0001
,
1000
0100
1000
0000
0010
0000
0010
0000
1000
0000
0100
0000
0010
0000
0001
0000
,
1000
0001
1000
0000
0010
0000
0010
0000
0100
0000
0001
1000
0001
1000
0001
0000
,
0100
0001
0100
0000
0010
0000
1000
0000
0100
0000
0010
0000
0001
0000
1000
0000
,
0010
0100
0010
0000
1000
0000
0001
0010
0001
0000
0100
0000
0010
0000
1000
0000
,
0100
0010
0100
0000
1000
0000
0001
0000
0100
0000
0010
0000
1000
0000
0001
0000
,
0010
0000
0010
0100
0000
0100
1000
0000
0000
0000
0100
0000
1000
0000
0001
0000
,
0100
0010
0100
0000
0001
0000
1000
0000
0100
0000
0010
0000
0001
0000
1000
0000
,
0001
0010
0001
0000
0100
0000
0010
1000
0010
0000
0100
0000
0001
0000
0010
0000
,
0100
1000
0100
0000
0010
0000
0100
0000
1000
0000
0001
0000
0100
0000
0010
0000
,
1000
0000
1000
0001
0000
0001
0010
0000
0000
0000
0001
0000
0100
0000
0010
0000
,
1000
0100
1000
0001
1000
0010
1000
0001
,
0001
0100
0001
1000
0001
0010
0001
0100
,
0100
1000
0100
0010
0100
0001
0100
0010
,
0010
0001
0010
0100
0010
1000
0100
0010
,
0001
1000
0100
1000
0001
0100
0010
1000
,
0100
0010
0001
1000
0010
1000
0001
0100
,
0001
1000
0100
0010
0001
1000
0010
0100
,
0010
1000
0100
0010
0001
1000
0010
0100
,
0001
0000
0000
0000
;

//---------------dance-single - ----------------
#NOTEDATA:;
#CHARTNAME:;
#STEPSTYPE:dance-single;
#DESCRIPTION:;
#CHARTSTYLE:;
#DIFFICULTY:Medium;
#METER:6;
#RADARVALUES:0.357611,0.462935,0.060010,0.480081,0.000000,229.000000,7.000000,56.000000,0.000000,0.000000,0.000000,0.000000,0.000000,0.357611,0.462935,0.060010,0.480081,0.000000,229.000000,7.000000,56.000000,0.000000,0.000000,0.000000,0.000000,0.000000;
#CREDIT:Ben Speirs;
#NOTES:
0000
0000
0000
0000
,
0000
0000
0000
0000
,
0000
0000
0000
0000
,
0000
0000
0000
0000
0000
1000
0100
0010
,
0001
1000
0001
0100
,
0010
0010
1000
0001
,
0010
0100
0010
0000
0001
0000
1000
0000
,
0010
0100
0010
0000
1000
0001
0010
0100
,
1000
0001
1000
0010
,
0100
0100
0001
1000
,
0100
0010
0100
0000
1000
0000
0001
0000
,
0100
0010
0100
0000
0001
1000
0100
0010
,
0002
2003
3020
0130
,
0001
0000
1000
0100
1000
0000
0001
0000
,
2000
3200
0320
0031
,
1000
0001
1000
0000
0010
0000
0110
0000
,
2000
3002
0203
0310
,
1000
0000
0001
0010
0001
0000
1000
0000
,
0002
0023
0230
1300
,
0001
1000
0001
0000
0100
0000
0110
0000
,
2000
0000
0000
3000
,
0020
0000
0030
0200
0000
0000
0300
0000
,
0002
0000
0000
0003
,
0020
0000
0000
0030
,
0200
0000
0000
0300
,
2000
0000
3000
0020
0000
0000
0030
0000
,
0200
0000
0000
0300
,
0002
0000
0000
0003
,
1001
1000
0100
0100
,
1000
0000
0001
0000
0100
0000
0010
0100
,
0010
0100
0001
0001
,
1000
0000
0001
0000
0010
0000
0100
0010
,
0100
1000
1000
0001
,
1000
0000
0010
0000
0100
0000
0001
0100
,
0001
0100
0010
0000
,
1000
0010
1000
0000
0001
1000
0100
0010
,
0001
0000
1100
0000
0001
1000
0001
0000
,
0200
0000
0300
0020
0000
0030
0000
0000
,
0100
0001
1000
0000
0100
0000
1000
0000
,
0010
1000
0001
0000
0010
0000
0001
0000
,
1000
0000
0011
0000
1000
0001
1000
0000
,
0020
0000
0030
0200
0000
0300
0000
0000
,
0010
1000
0001
0000
0010
0000
0001
0000
,
0100
0001
1000
0000
0100
0000
1000
0000
,
1001
0001
0100
0010
,
1000
0000
0001
0100
0000
0000
0001
0000
,
1000
0100
0010
0001
,
1000
0100
1000
0000
0010
0000
0100
0000
,
1001
1000
0010
0100
,
0001
0000
1000
0010
0000
0000
1000
0000
,
0001
0010
0100
1000
,
0001
0010
0001
0000
0100
0000
0010
0000
,
2000
3020
0230
0302
,
2003
3200
0320
0032
,
2003
3020
2030
3002
,
0023
0032
2003
3020
,
0230
0302
2003
3200
,
0320
0032
2003
3002
,
0203
0320
2030
3002
,
2003
0000
3020
0000
0130
0001
0010
0100
,
1000
0000
0000
0000
;

//---------------dance-single - ----------------
#NOTEDATA:;
#CHARTNAME:;
#STEPSTYPE:dance-single;
#DESCRIPTION:;
#CHARTSTYLE:;
#DIFFICULTY:Easy;
#METER:3;
#RADARVALUES:0.169008,0.205749,0.017146,0.085729,0.000000,126.000000,2.000000,10.000000,0.000000,0.000000,0.000000,0.000000,0.000000,0.169008,0.205749,0.017146,0.085729,0.000000,126.000000,2.000000,10.000000,0.000000,0.000000,0.000000,0.000000,0.000000;
#CREDIT:Ben Speirs;
#NOTES:
0000
0000
0000
0000
,
0000
0000
0000
0000
,
0000
0000
0000
0000
,
0000
0000
0000
0000
,
1000
0000
0001
0000
,
0100
0100
0100
0000
,
0010
1000
0001
0000
,
0010
0001
1000
0000
,
0100
0000
1000
0000
,
0010
0010
0010
0000
,
0100
0001
1000
0000
,
0100
1000
0001
0000
,
1000
0100
0010
0001
,
0000
0000
0000
0000
,
0001
0100
0010
1000
,
0000
0000
0000
0000
,
0001
0010
0100
1000
,
0000
0000
0000
0000
,
1000
0010
0100
0001
,
0000
0000
0000
0000
,
2000
0000
0000
3000
,
0002
0000
0000
0003
,
0200
0000
0000
0300
,
0020
0000
0000
0030
,
2000
0000
0000
3000
,
0200
0000
0000
0300
,
0020
0000
0000
0030
,
0002
0000
0000
0003
,
0100
0000
0100
0000
,
0010
0000
0010
0000
,
1000
0000
1000
0000
,
0001
0000
0001
0000
,
1000
0100
0010
0000
,
0001
0010
0100
0000
,
0010
0001
1000
0000
,
0001
1000
0010
0000
,
1001
1000
0001
0001
,
0000
0000
0000
0000
,
0100
0100
0010
0010
,
0000
0000
0000
0000
,
1001
0001
1000
1000
,
0000
0000
0000
0000
,
0100
0100
0010
0010
,
0000
0000
0000
0000
,
0001
0010
0100
1000
,
0010
0000
0000
0010
0000
0000
0000
0000
,
1000
0100
0010
0001
,
1000
0000
0001
0000
,
1000
0010
0100
0001
,
0010
0000
0000
0010
0000
0000
0000
0000
,
0001
0010
0100
1000
,
0010
0000
0100
0000
,
0002
0000
0000
0003
,
2000
0000
0000
3000
,
0100
0100
0100
0100
,
0010
0010
0010
0000
,
0001
0000
1000
0000
,
0010
1000
0001
0000
,
0100
0000
0100
0000
,
0001
0000
1000
0001
,
0100
0000
0000
0000
;

//---------------dance-single - ----------------
#NOTEDATA:;
#CHARTNAME:;
#STEPSTYPE:dance-single;
#DESCRIPTION:;
#CHARTSTYLE:;
#DIFFICULTY:Beginner;
#METER:1;
#RADARVALUES:0.089403,0.154312,0.008573,0.000000,0.000000,72.000000,1.000000,0.000000,0.000000,0.000000,0.000000,0.000000,0.000000,0.089403,0.154312,0.008573,0.000000,0.000000,72.000000,1.000000,0.000000,0.000000,0.000000,0.000000,0.000000,0.000000;
#CREDIT:Ben Speirs;
#NOTES:
0000
0000
0000
0000
,
0000
0000
0000
0000
,
0000
0000
0000
0000
,
0000
0000
0000
0000
,
1000
0000
0000
0000
,
0001
0000
0000
0000
,
0100
0000
0000
0000
,
0100
0000
0000
0000
,
0001
0000
0000
0000
,
1000
0000
0000
0000
,
0100
0000
0000
0000
,
0100
0000
0000
0000
,
1000
0000
1000
1000
,
0000
0000
0000
0000
,
0001
0000
0001
0001
,
0000
0000
0000
0000
,
0100
0000
0100
0100
,
0000
0000
0000
0000
,
0010
0000
0010
0010
,
0000
0000
0000
0000
,
1000
0000
0000
0000
,
0001
0000
0000
0000
,
0010
0000
0000
0000
,
0000
0000
0000
0000
,
0001
0000
0000
0000
,
1000
0000
0000
0000
,
0100
0000
0000
0000
,
0000
0000
0000
0000
,
1000
0000
0000
0000
,
0001
0000
0000
0000
,
0100
0100
0100
0000
,
0100
0000
0000
0000
,
0010
0000
0000
0000
,
1000
0000
1000
0000
,
0100
0100
0100
0000
,
0100
0000
0000
0000
,
1001
0000
0100
0100
,
0000
0000
0000
0000
,
1000
0000
0010
0010
,
0000
0000
0000
0000
,
0100
0000
0001
0001
,
0000
0000
0000
0000
,
1000
0000
0100
0100
,
0000
0000
0000
0000
,
1000
0000
0001
0000
,
0100
0000
0000
0000
,
0001
0000
1000
0000
,
0010
0000
0000
0000
,
1000
0000
0100
0000
,
0010
0000
0000
0000
,
0001
0000
0010
0000
,
0100
0000
0000
0000
,
1000
0000
0000
0000
,
0100
0000
0000
0000
,
0001
0000
0000
0000
,
0010
0000
0000
0000
,
1000
0000
0000
0000
,
0100
0000
0000
0000
,
0001
0000
0000
0000
,
0010
0000
0000
0000
,
1000
0000
0000
0000
;

//---------------dance-double - ----------------
#NOTEDATA:;
#CHARTNAME:;
#STEPSTYPE:dance-double;
#DESCRIPTION:;
#CHARTSTYLE:;
#DIFFICULTY:Challenge;
#METER:8;
#RADARVALUES:0.579281,0.795616,0.094302,0.240040,0.317196,434.000000,11.000000,28.000000,0.000000,0.000000,0.000000,0.000000,0.000000,0.579281,0.795616,0.094302,0.240040,0.317196,434.000000,11.000000,28.000000,0.000000,0.000000,0.000000,0.000000,0.000000;
#CREDIT:Ben Speirs;
#NOTES:
// measure 0
00000000
00000000
00000000
00000000
,  // measure 1
00000000
00000000
00000000
00000000
,  // measure 2
00000000
00000000
00000000
00000000
,  // measure 3
00000000
00000000
00000000
00000000
00000000
00001000
00000100
00010000
,  // measure 4
00002000
00000000
00000000
00000000
00103000
00000000
00000000
00010000
00000000
10000000
00000000
00000000
00000000
00000000
00100000
00000000
,  // measure 5
00100000
00000000
00000000
10000000
00000000
00000000
00010000
00000000
00000000
00000000
10000000
00000000
01000000
00000000
00100000
00000000
,  // measure 6
00010000
00010000
01000000
00001000
00010000
00000000
00001000
00010000
,  // measure 7
00000100
00000100
00001000
00000010
00000100
00000001
00001000
00001000
,  // measure 8
00000010
00000000
00000000
00000000
00001000
00000000
00000000
00000001
00000000
00000010
00000000
00000000
00000000
00000000
00000001
00000000
,  // measure 9
00001000
00000000
00000000
00001000
00000000
00000000
00000100
00000000
00000000
00000000
00001000
00000000
00000100
00000000
00010000
00000000
,  // measure 10
00001000
00001000
00100000
00010000
10000000
00100000
01000000
00010000
,  // measure 11
10000000
10000000
00100000
10000000
00010000
00100000
00001000
00010000
,  // measure 12
00000100
00000000
00000100
00001000
00000000
00001000
00000010
00000000
00000010
00000100
00000000
00000100
00000002
00000000
00000000
00000000
,  // measure 13
00000103
00000010
00000100
00000001
00000010
00000100
00001000
00000000
,  // measure 14
00000100
00000000
00000100
00010000
00000000
00010000
00001000
00000000
00001000
00100000
00000000
00100000
00020000
00000000
00000000
00000000
,  // measure 15
01030000
00100000
01000000
00010000
00100000
01000000
10000000
00100000
,  // measure 16
01000000
00000000
01000000
00010000
00000000
00010000
00100000
00000000
00100000
00001000
00000000
00001000
00020000
00000000
00000000
00000000
,  // measure 17
00030010
00001000
00000100
00010000
00001000
00100000
00010000
01000000
,  // measure 18
00001000
00000000
00001000
00010000
00000000
00010000
00000100
00000000
00000100
00001000
00000000
00001000
00000010
00000000
00000000
00000000
,  // measure 19
00000100
00000001
00000100
00000010
00001000
00000100
00000100
00000010
,  // measure 20
00000002
00000010
00000100
00000010
,  // measure 21
00002003
00000000
00000000
00003200
00000000
00000000
00000000
00000000
,  // measure 22
00020300
00001000
00000100
00001000
,  // measure 23
00032000
00000000
00000000
00203000
00000000
00000000
00310000
10000000
,  // measure 24
00200000
01000000
10000000
01000000
,  // measure 25
20300000
00000000
00000000
32000000
00000000
00000000
00000000
00000000
,  // measure 26
03200000
00010000
01000000
00010000
,  // measure 27
00302000
00000000
00000000
00023000
00000000
00000000
00030100
00001000
,  // measure 28
00000010
00000000
00001010
00001000
00000100
00001000
00000001
00000100
,  // measure 29
00000100
00000000
00000010
00000000
00001000
00000000
00000100
00000000
00010000
00000000
00001000
00010000
00001000
00010000
00001000
00000000
,  // measure 30
00100000
00000000
00010000
00100000
01000000
10000000
00100000
01000000
,  // measure 31
00010000
00000000
00100000
00000000
00001000
00000000
00100000
00000000
00000100
00000000
00010000
00001000
00010000
00000000
00000100
00000000
,  // measure 32
00002000
00000000
00003010
00001000
00000100
00000010
00000001
00000100
,  // measure 33
00000010
00000010
00000100
00000001
00000001
00000010
00000100
00001000
,  // measure 34
00020100
00000000
00000000
00000000
00031000
00000000
00010000
00000000
00000100
00000000
00001000
00000000
00000010
00000000
00000100
00000010
,  // measure 35
00000100
00000001
00001000
00000010
00000000
00001000
00000100
00000000
,  // measure 36
00010100
00000000
00010000
00001000
00000000
00001000
00100000
00000000
00100000
00010000
00000000
00010000
02000000
00000000
00000000
00000000
,  // measure 37
03100000
10000000
01000000
00100000
00100000
00010000
10000000
00100000
,  // measure 38
10000000
00000000
10000000
01000000
00000000
01000000
00100000
00000000
00100000
00010000
00000000
00010000
10000000
00000000
00100000
00000000
,  // measure 39
01000000
01000000
00010000
00100000
00001000
00010000
00010000
00000100
,  // measure 40
00001000
00000000
00001000
00000010
00000000
00000010
00000100
00000000
00000100
00000001
00000000
00000001
00001000
00000000
00000001
00000000
,  // measure 41
00000010
00000010
00000001
00000100
00000100
00000010
00001000
00000100
,  // measure 42
00010000
00000000
00010000
00000100
00000000
00000100
00001000
00000000
00001000
00000001
00000000
00000001
00000100
00000000
00000010
00000000
,  // measure 43
00001000
00000100
00010000
00001000
00100000
00010000
01000000
00100000
,  // measure 44
10100000
10000000
01000000
00100000
00010000
01000000
00100000
01000000
,  // measure 45
01010000
00010000
00100000
00110000
00100000
00001000
00001000
00010000
,  // measure 46
00010100
00000100
00001000
00000010
00000100
00000001
00001000
00000010
,  // measure 47
00001000
00000000
00001000
00000001
00000000
00000001
00000020
00000000
00000000
00000000
00000031
00000000
00000010
00000000
00000100
00000000
,  // measure 48
00001100
00000100
00010000
00001000
00100000
00010000
01000000
00100000
,  // measure 49
01100000
01000000
00010000
01010000
01000000
00100000
00100000
10000000
,  // measure 50
11000000
01000000
10000000
00100000
01000000
00010000
00100000
00001000
,  // measure 51
00001000
00000000
00100000
00000000
00001000
00000000
00010000
00000000
00000100
00000000
00001000
00000000
00000010
00001000
00000010
00001000
,  // measure 52
00000200
00000320
00000032
00000203
,  // measure 53
00000320
00002030
00003200
00020300
,  // measure 54
00031000
00100000
00010000
01000000
00100000
10000000
01000000
00100000
,  // measure 55
00010000
01000000
00100000
00010000
00001000
00000010
00000001
00001000
,  // measure 56
00000010
00000100
00000010
00000100
00000010
00000100
00000010
00000100
00000001
00000100
00000001
00000100
00000010
00000100
00000010
00000000
,  // measure 57
00001000
00000100
00001000
00000100
00001000
00000100
00001000
00000100
00010000
00000100
00001000
00000100
00001000
00000100
00001000
00000000
,  // measure 58
00000100
00010000
00000100
00010000
00000100
00010000
00000100
00010000
00001000
00010000
00000100
00010000
00001000
00010000
00001000
00000000
,  // measure 59
00100000
00001000
00100000
00001000
00100000
00001000
00100000
00001000
00100000
00010000
00100000
00001000
01000000
00010000
01000000
00000000
;
