#TITLE:This Woman's Work;
#SUBTITLE:(Echoes Mix);
#ARTIST:Kate Bush;
#TITLETRANSLIT:;
#SUBTITLETRANSLIT:;
#ARTISTTRANSLIT:;
#CREDIT:;
#BANNER:This Womans Work (Echoes Mix)-bn.png;
#BACKGROUND:This Womans Work (Echoes Mix)-bg.png;
#LYRICSPATH:;
#CDTITLE:;
#MUSIC:This Womans Work (Echoes Mix).mp3;
#OFFSET:-0.040;
#SAMPLESTART:69.460;
#SAMPLELENGTH:15.400;
#SELECTABLE:YES;
#BPMS:0.000=121.030,138.000=122.830,140.000=121.030;
#STOPS:;
#BGCHANGES:;

//---------------dance-single - ----------------
#NOTES:
     dance-single:
     :
     Beginner:
     1:
     0.063,0.102,0.008,0.000,0.000: // measure 1
0000
0000
0000
0000
,  // measure 2
0000
0000
0000
0000
,  // measure 3
0000
0000
0000
0000
,  // measure 4
0000
0000
0000
0000
,  // measure 5
0010
0000
0000
0000
,  // measure 6
0100
0000
0000
0000
,  // measure 7
0001
0000
0000
0000
,  // measure 8
1000
0000
0000
0000
,  // measure 9
0100
0000
0000
0000
,  // measure 10
1000
0000
0000
0000
,  // measure 11
0010
0000
0000
0000
,  // measure 12
1000
0000
0000
0000
,  // measure 13
0001
0000
0000
0000
,  // measure 14
0010
0000
0000
0000
,  // measure 15
0100
0000
0000
0000
,  // measure 16
1000
0000
0000
0000
,  // measure 17
0010
0000
0000
0000
,  // measure 18
0100
0000
0000
0000
,  // measure 19
0001
0000
0000
0000
,  // measure 20
1000
0000
0000
0000
,  // measure 21
0010
0000
0000
0000
,  // measure 22
1000
0000
0000
0000
,  // measure 23
0100
0000
0000
0000
,  // measure 24
0010
0000
0000
0000
,  // measure 25
0001
0000
0000
0000
,  // measure 26
1000
0000
0000
0000
,  // measure 27
0010
0000
0010
0000
,  // measure 28
0010
0000
0000
0000
,  // measure 29
0100
0000
0000
0000
,  // measure 30
0001
0000
0000
0000
,  // measure 31
1000
0000
0000
0000
,  // measure 32
0100
0000
0000
0000
,  // measure 33
1000
0000
0000
0000
,  // measure 34
0001
0000
0000
0000
,  // measure 35
0010
0010
0010
0000
,  // measure 36
0010
0000
0000
0000
,  // measure 37
0001
0000
0000
0000
,  // measure 38
1000
0000
0000
0000
,  // measure 39
0010
0000
0000
0000
,  // measure 40
0100
0000
0000
0000
,  // measure 41
0001
0000
0000
0000
,  // measure 42
1000
0000
0000
0000
,  // measure 43
0100
0000
0100
0000
,  // measure 44
0100
0000
0000
0000
,  // measure 45
1000
0000
0000
0000
,  // measure 46
0001
0000
0000
0000
,  // measure 47
0010
0000
0010
0000
,  // measure 48
0010
0000
0000
0000
,  // measure 49
0001
0000
0000
0000
,  // measure 50
1000
0000
0000
0000
,  // measure 51
0100
0000
0100
0000
,  // measure 52
0100
0000
0000
0000
,  // measure 53
1000
0000
0000
0000
,  // measure 54
0110
0000
0000
0000
;

//---------------dance-single - ----------------
#NOTES:
     dance-single:
     :
     Medium:
     4:
     0.166,0.220,0.008,0.046,0.000:
0000
0000
0000
0000
,
0000
0000
0000
0000
,
0000
0000
0000
0000
,
0000
0000
0000
0000
,
0000
0000
0000
0000
0000
0100
0010
1000
,
0001
0000
0000
0000
,
0000
0000
0000
0000
0000
1000
0100
1000
,
0010
0000
0000
0000
,
0000
0000
0000
0000
0000
0000
0001
0100
,
0010
0000
0000
0000
,
0000
0000
0000
0000
0000
0010
0100
0010
,
1000
0000
0000
0000
,
0000
0000
0000
0100
,
0001
0000
0000
0000
,
1000
0010
0100
0000
,
0000
0000
0001
0000
,
1000
0100
0010
0000
,
0000
1000
0100
0000
1000
0000
0000
0000
,
0000
0001
0100
0000
0001
0000
0000
0000
,
0000
0000
0000
0000
0100
0000
0000
0010
,
0010
1000
0001
0000
,
0000
1000
0100
0001
,
0100
1000
0000
0000
,
0010
0000
0000
0000
1000
0000
0000
0010
,
0100
0000
0000
0001
,
1000
0000
0000
0000
,
0001
0000
0000
0000
,
1000
0100
0001
0100
,
1000
0000
0010
0000
0100
0100
0100
0000
,
0000
0000
0010
1000
,
0001
0001
0001
0000
0001
0000
0000
0000
,
0000
0010
0001
0100
,
1000
0000
0010
0000
1000
1000
1000
0000
,
0000
0000
0000
0000
0100
0000
0010
0001
,
0001
0010
0001
0000
,
0110
0001
0100
1000
,
0010
0010
1000
0100
,
0020
0000
0000
0000
,
0230
0000
0000
0000
,
1300
0010
0100
0001
,
0010
0010
0001
1000
,
0002
0000
0000
0000
,
2003
0000
0000
0000
,
3010
1000
0100
0010
,
0001
0000
1000
0000
0010
0100
0010
0000
,
0100
0001
0010
0100
,
1000
0000
0001
0000
1000
0100
1000
0000
,
0010
1000
0001
0010
,
0100
0000
0010
0000
0001
0100
0001
0000
,
0010
0001
1000
0010
,
0100
0000
0010
0000
1000
0100
1000
0000
,
0010
0100
0010
1000
,
0001
0000
0010
0100
0010
0100
0010
0000
,
0002
0000
0000
0000
,
2000
0000
0000
0000
,
0000
0000
0000
0000
,
0000
0000
0000
0000
,
3003
0000
0000
0000
;

//---------------dance-single - ----------------
#NOTES:
     dance-single:
     :
     Hard:
     7:
     0.327,0.383,0.062,0.385,0.000:
0000
0000
0000
0000
,
0000
0000
0000
0000
,
0000
0000
0000
0000
,
0000
0000
0000
0000
,
0010
0000
0001
0000
0100
0010
1000
0100
,
2000
0000
0100
0100
,
3100
0000
1000
0000
0010
1000
0010
0100
,
0002
0100
0103
0000
,
0010
0000
1000
0000
0001
0000
1000
0100
,
1000
0010
0010
0010
,
0010
0000
0100
0000
0010
0100
0001
0100
,
0020
1000
1030
0000
,
1000
0100
1000
1001
,
0220
0000
0330
0002
,
0103
0000
1000
0100
0020
0000
0030
0000
,
0001
0000
0010
0000
0100
1000
0100
0000
,
2000
0010
3100
0000
,
0010
1000
0001
0100
0002
0000
0103
0000
,
0000
0010
0100
0010
0002
0000
1003
0000
,
0000
0010
2000
3100
,
0020
0000
0130
1000
0002
0000
0000
0000
,
0003
0000
0200
0000
0310
1000
0100
1000
,
0002
2003
0000
3000
,
0020
0000
0000
0000
0130
0000
1000
0001
,
0020
0000
0130
0000
0000
0000
1000
0010
,
0200
0010
0010
0010
,
0302
1000
1000
1003
,
1001
0000
0000
1000
0100
0001
0100
1000
,
0010
0100
0010
0000
0100
0010
0100
0000
,
0000
0000
0000
0001
0100
1000
0100
0001
,
0010
0100
1000
0000
1000
0000
0000
0000
,
0000
0000
0000
1000
0100
0001
0100
1000
,
0010
0100
0001
0000
0010
0100
0010
0000
,
0000
0000
0000
0001
0010
1000
0010
0001
,
1000
0001
0100
0000
1001
0000
0000
0000
,
0100
1000
0100
1000
0001
1000
0001
1000
,
0020
0000
0230
0000
0301
0100
0000
0100
,
0010
0100
0010
1000
,
2002
0000
3003
0000
,
0010
1000
0010
1000
0001
0100
0001
0100
,
0020
2030
3200
0320
,
0031
1000
0110
0101
,
2000
0000
0100
0010
,
3100
1000
0100
1000
0001
1000
0001
1000
,
0020
0230
0302
0023
,
0130
0010
0100
0010
0001
1000
0001
1000
,
0020
0230
0302
0003
,
1000
0100
1000
0100
0010
0001
0010
0001
,
0200
0320
2030
3001
,
1000
0001
1000
0001
0100
0010
0100
0010
,
2000
3002
0023
0130
,
0010
0001
0010
0001
1000
0100
1000
0100
,
0020
0032
0203
0300
,
2002
0000
0000
0003
,
0200
0000
0000
0300
,
0010
0100
0100
0001
,
3200
0000
0000
0000
,
0020
0000
0000
0000
,
0000
0000
0330
0000
;

//---------------dance-single - ----------------
#NOTES:
     dance-single:
     :
     Easy:
     2:
     0.103,0.143,0.054,0.000,0.000:
0000
0000
0000
0000
,
0000
0000
0000
0000
,
0000
0000
0000
0000
,
0000
0000
0000
0000
,
0010
0000
0000
0010
,
0010
0000
0000
0000
,
1000
0000
0000
1000
,
1000
0000
0000
0000
,
0100
0000
0000
0100
,
0100
0000
0000
0000
,
0010
0000
0000
0010
,
0010
0000
0000
0000
,
0001
0000
0000
0000
,
1000
0000
0000
0000
,
0010
0000
0100
0000
,
0000
0000
0001
0000
,
0001
0000
0001
0000
,
0000
1000
1000
0000
,
0000
0010
0010
0000
,
0000
0000
1000
0000
,
0100
0000
0010
0000
,
0000
0000
0001
0000
,
0001
0000
0000
0000
,
1000
0000
0000
0000
,
0100
0000
0000
0000
,
1000
0000
1000
0000
,
0001
0000
0000
0000
,
1001
0000
0100
0000
,
1000
0000
0010
0000
,
1000
0000
0001
0000
,
0010
0000
0010
0000
,
0001
0000
1000
0000
,
0010
0000
1000
0000
,
0100
0000
1000
0000
,
0100
0100
0100
0000
,
1001
0000
0010
0000
,
1000
1000
1000
0000
,
0100
0000
0010
0000
,
0001
0000
0000
0000
,
1000
0000
0001
0000
,
0010
0010
0010
0000
,
0100
0000
1000
0000
,
1001
0000
0000
0000
,
0010
0000
0010
0000
,
1000
0000
1000
0000
,
0001
0000
0001
0000
,
0100
0000
0100
0000
,
0001
0000
1000
0000
,
0100
0000
0010
0000
,
0001
0000
1000
0000
,
0010
0000
0100
0000
,
1001
0000
1001
0000
,
0100
0000
0110
0000
,
1001
0000
0000
0000
;
