#TITLE:Call Me Maybe;
#ARTIST:Carly Rae Japsen;
#FILE:Call Me Maybe.mp3;
#BPM:120.050;
#GAP:60;
#SAMPLESTART:92.040;
#SAMPLELENGTH:16.180;
#SINGLE:BEGINNER:1:
00000000
00000000
80000000
80000000
20000000
20000000
60000000
60000000
40000000
40000000
80000000
40000000
20000000
40004000
40000000
60600000
80800000
60600000
40000000
80800000
40400000
20200000
A0000000
40400000
80800000
20200000
80000000
40400000
60600000
80800000
B0000000
20002000
20000000
40004000
40000000
80008000
80000000
40004000
40000000
00000000
00000000
00000000
B0000000
20000000
80000000
60006000
B0000000
40400000
80800000
40400000
20000000
80800000
60600000
40400000
A0000000
20000000
60000000
40404040
40000000
20000000
40000000
80808080
;
#SINGLE:ANOTHER:5:
00000000
00000000
80804060
40402080
60602080
40402820
40408020
80804060
20208040
60608280
60402240
80206680
60408820
A0A0A000
804!401000
406!603000
608!80A000
806!603000
804!401000
402!203000
204!40B000
408!80A000
70602020
60402080
60408080
40602000
A0206060
80204080
40602020
60808000
3!200A!8007!40
00202010
40602000
80206000
7!400B!6009!80
002020A0
40802020
80406460
B0000002
08000004
02000006
08002020
A0000008
06000004
08000002
06004440
10802080
40608060
40802080
40604240
20408020
60804080
60208040
20408280
B!400B!6009!80
002020A0
40802060
40804060
3!600B!4001!20
008080A0
80604080
00042864
;
#SINGLE:MANIAC:8:
00000000
00000000
80804260
80804260
80804260
40602220
60608240
60608240
60608240
60402220
40308040
60108620
82804060
20604020
1!40702420
40602820
60406860
40602288
40604280
60408260
20604280
60408822
60106030
80A06240
801080A0
40108866
20308040
601030B0
82804060
42806644
802!206080
4030A0A0
6040B0B0
204010B0
308!804020
60A09090
40286060
40628420
10000008
06600002
08800004
02204!40B!60
60208420
0000468!80
0A008686
00001060
A0106420
10302840
60428640
80262840
608!8020A0
40602840
64208888
60208888
20406020
84286060
40802060
4020A0B0
A0408462
80284080
40682040
60428628
;
#SINGLE:BASIC:3:
00000000
00000000
80004020
40006080
60002080
20006040
60004020
40008020
80004060
40006080
6!60003!2000
30606000
8!8000A!2000
10404000
B0000000
80800000
40400000
20200000
B0000000
80800000
60600000
20200000
A0004060
20006080
20004020
80006040
80002060
40002060
20004080
60008020
A0001000
60402020
40006000
80006000
A0003000
40802020
80004000
60004000
A!A0000020
6!60000080
4!40000060
8!80000070
3!30000020
4!40000060
8!80000040
2!2000A000
B000A000
40206000
20008000
40806000
A000B000
20406000
80602000
80402000
10009000
B0002020
00004040
00006060
B0007000
A0002020
00006060
00004!40B0
;
#SINGLE:SMANIAC:13:
00000000
00000000
04826824
08462842
04262482
(0060208040040040)
02482682
08642864
08462846
(0080602040040040)
(2000B00040240400)
(8040200060860600)
(2080200060460600)
42624826
(3000800042040480)
(0020206082080860)
04482642
04462288
(4000200040620280)
04404826
08864248
(0020206042428686)
28468247
43348269
4AA46287
43348822
B482682A
8992462A
41148269
(4010104068682828)
64248264
(8028402010003000)
(8046802010003000)
(80462080A0401020)
38428648
(2064208090001000)
(80462080A000B000)
(20462080A020B020)
7000000A
0BB00001
0990000B
(0030300084842424)
82828282
64646464
28282824
(6482682480000000)
(4860804020806040)
(6240208040208060)
(4620804060802040)
(8260402010103030)
(8460802040602080)
(4260204080206080)
(2860208040608020)
(4860804024248282)
64286228
(804260201020B000)
(8046802010809000)
(4062804030401080)
(A042602480268024)
826472B0
(20468020A040B000)
(8026408048268248)
;
