#VERSION:0.82;
#TITLE:Chandelier;
#SUBTITLE:;
#ARTIST:Sia;
#TITLETRANSLIT:;
#SUBTITLETRANSLIT:;
#ARTISTTRANSLIT:;
#GENRE:1 2 3 1 2 3 DRINK;
#ORIGIN:;
#CREDIT:;
#BANNER:Chandelier.png;
#BACKGROUND:Chandelier-bg.png;
#PREVIEWVID:;
#JACKET:jacket.png;
#CDIMAGE:;
#DISCIMAGE:;
#LYRICSPATH:;
#CDTITLE:;
#MUSIC:Chandelier.ogg;
#OFFSET:-0.696000;
#SAMPLESTART:33.778477;
#SAMPLELENGTH:14.774005;
#SELECTABLE:YES;
#BPMS:0.000=87.000;
#STOPS:;
#DELAYS:;
#WARPS:;
#TIMESIGNATURES:0.000=4=4;
#TICKCOUNTS:0.000=4;
#COMBOS:0.000=1;
#SPEEDS:0.000=1.000=0.000=0;
#SCROLLS:0.000=1.000;
#FAKES:;
#LABELS:0.000=Song Start;
#BGCHANGES:1.750=Chandelier.avi=1.000=0=0=1=====,
99999=-nosongbg-=1.000=0=0=0 // don't automatically add -songbackground-
;
#KEYSOUNDS:;
#ATTACKS:
;

//---------------dance-single - ----------------
#NOTEDATA:;
#CHARTNAME:;
#STEPSTYPE:dance-single;
#DESCRIPTION:;
#CHARTSTYLE:;
#DIFFICULTY:Hard;
#METER:8;
#RADARVALUES:0.459097,0.487876,0.144615,0.128547,0.474017,366.000000,18.000000,16.000000,0.000000,0.000000,0.000000,0.000000,0.000000,0.459097,0.487876,0.144615,0.128547,0.474017,366.000000,18.000000,16.000000,0.000000,0.000000,0.000000,0.000000,0.000000;
#CREDIT:Ben Speirs;
#NOTES:
// measure 0
0000
0000
0000
0000
,  // measure 1
0000
0000
0000
0000
,  // measure 2
0000
0000
0000
0000
,  // measure 3
0000
0000
0000
0000
,  // measure 4
1000
0000
0000
0001
0100
0000
0001
0000
0000
1000
0000
0000
0100
0000
0010
0000
,  // measure 5
0001
0000
0000
1000
0010
0000
1000
0000
0000
0001
0000
0000
0010
0000
0100
0000
,  // measure 6
1000
0000
1000
0010
0000
0000
0100
0000
0001
0000
0001
1000
0000
0000
0100
0000
,  // measure 7
0010
0000
0000
0001
1000
0000
0010
0000
0000
0100
0000
0000
1001
0000
0000
0000
,  // measure 8
1100
0100
0001
1100
0100
0001
1001
0000
,  // measure 9
0101
0100
1000
0101
0100
1000
1001
0000
,  // measure 10
1010
0000
0001
1000
0001
0000
1010
0000
0001
1000
0001
0000
0011
0000
0000
0000
,  // measure 11
2000
0000
0000
3001
,  // measure 12
1100
0000
0000
0100
1000
0000
0010
0000
1000
0001
1000
0000
0010
0000
0100
0000
,  // measure 13
0001
0000
0000
0001
1000
0000
0010
0000
0100
0001
0100
0000
0010
0000
1000
0000
,  // measure 14
0001
0000
0000
0000
0010
0000
0000
0000
0100
0000
0000
0000
1000
0000
0000
0000
0000
0000
0010
0000
0000
0000
0000
0000
1000
0000
0000
0001
0000
0000
1000
0000
0000
0000
0000
0000
0001
0000
0000
0000
0000
0000
0001
0000
0000
0000
0000
0000
,  // measure 15
1000
0000
0000
0000
0100
0000
0000
0000
0010
0000
0000
0000
0001
0000
0000
0000
0000
0000
0100
0000
0000
0000
0000
0000
0001
0000
0000
1000
0000
0000
0001
0000
0000
0000
0000
0000
1000
0000
0000
0100
0000
0000
0010
0000
0000
0001
0000
0000
,  // measure 16
0011
0000
0000
0010
0001
0000
0100
0000
0001
1000
0001
0000
0100
0000
0010
0000
,  // measure 17
1000
0000
0000
1000
0001
0000
0100
0000
0010
1000
0010
0000
0100
0000
0001
0000
,  // measure 18
1000
0000
0000
0000
0100
0000
0000
0000
0010
0000
0000
0000
0001
0000
0000
0000
0000
0000
0100
0000
0000
0000
0000
0000
0001
0000
0000
1000
0000
0000
0001
0000
0000
0000
0000
0000
1000
0000
0000
0000
0000
0000
1000
0000
0000
0000
0000
0000
,  // measure 19
0001
0000
0000
0000
0010
0000
0000
0000
0100
0000
0000
0000
1000
0000
0000
0000
0000
0000
0010
0000
0000
0000
0000
0000
1000
0000
0000
0001
0000
0000
1000
0000
0000
0000
0000
0000
0001
0000
0000
0010
0000
0000
0100
0000
0000
1000
0000
0000
,  // measure 20
1010
0000
1000
0001
0100
0000
0001
0000
1000
0100
1000
0000
0001
0010
0100
1000
,  // measure 21
0001
0000
1000
0010
0100
0000
0001
0000
1000
0100
1000
0000
0001
0000
0100
0000
,  // measure 22
0001
0010
0001
0010
0001
0010
0100
0000
1000
0001
1000
0000
0010
0000
0100
0000
,  // measure 23
0010
1000
0010
1000
0010
1000
0100
0000
0010
0001
1000
0000
0001
1000
0001
1000
,  // measure 24
1001
0000
0000
0001
0100
0000
0010
0000
0000
0100
0001
0000
1000
0100
1000
0000
,  // measure 25
0001
0000
0000
1000
0010
0000
1000
0000
0000
0001
0010
0000
0001
1000
0001
0000
,  // measure 26
1000
0000
0000
0000
0100
0000
0000
0000
0010
0000
0000
0000
0001
0000
0000
0000
0000
0000
0100
0000
0000
0000
0000
0000
0010
0000
0000
1000
0000
0000
0001
0000
0000
0000
0000
0000
1000
0000
0000
0000
0000
0000
1000
0000
0000
0000
0000
0000
,  // measure 27
0001
0000
0000
0000
0010
0000
0000
0000
0100
0000
0000
0000
1000
0000
0000
0000
0000
0000
0001
0000
0000
0000
0000
0000
0000
0000
0000
0110
0000
0000
0000
0000
0000
0000
0000
0000
1001
0000
0000
0000
0000
0000
0000
0000
0000
0000
0000
0000
,  // measure 28
1100
0000
0000
0000
0100
0000
0000
0000
0010
0000
0000
0000
0001
0000
0000
0000
0000
0000
1000
0000
0000
0000
0000
0000
0010
0000
0000
0000
0000
0000
0100
0000
0000
0001
0000
0000
0100
0000
0000
0000
0000
0000
0010
0000
0000
0000
0000
0000
,  // measure 29
1000
0000
0000
0000
0001
0000
0000
0000
1000
0000
0000
0000
0010
0000
0000
0000
0000
0000
0100
0000
0000
0000
0000
0000
0001
0000
0000
0000
0000
0000
1000
0000
0000
0100
0000
0000
1000
0000
0000
0000
0000
0000
0001
0000
0000
0000
0000
0000
,  // measure 30
0010
0000
0001
0000
0100
0000
0010
0000
0000
1000
0000
0000
0001
0000
0010
0000
0010
0000
0100
0000
1000
0000
1000
0000
,  // measure 31
0020
0000
0000
0000
0000
0000
0130
0000
0000
0001
0000
0000
1000
0000
0000
0000
0000
0000
0001
0000
0000
0000
0000
0000
1000
0000
0000
0000
0100
0000
0000
0000
0100
0000
0000
0000
1000
0000
0000
0000
0100
0000
0000
0000
0010
0000
0000
0000
,  // measure 32
0012
0000
1003
0010
1000
0000
0001
0000
0100
0000
0010
1000
0010
0000
0100
0000
,  // measure 33
0001
0000
0000
0000
1000
0000
0000
0000
0001
0000
0000
0000
0100
0000
0000
0000
0000
0000
0010
0000
0000
0000
0000
0000
1000
0000
0000
0000
0000
0000
0001
0000
0000
0010
0000
0000
0001
0000
0000
0000
0000
0000
1000
0000
0000
0000
0000
0000
,  // measure 34
0100
0000
1000
0000
0010
0000
0100
0000
0000
0001
0000
0000
1000
0000
0100
0000
0100
0000
0010
0000
0001
0000
0001
0000
,  // measure 35
0200
0000
0310
1000
0001
0000
1000
0000
0200
0000
0310
0001
1000
0000
0001
0000
,  // measure 36
0200
0000
0000
0000
0000
0000
0310
0000
0000
1000
0000
0000
0001
0000
0000
0000
0000
0000
0100
0000
0000
0000
0000
0000
0000
0000
0000
0000
0001
0000
0000
0000
0100
0000
0000
0000
0010
0000
0000
0000
1000
0000
0000
0000
0100
0000
0000
0000
,  // measure 37
0020
0000
0000
0000
0000
0000
0031
0000
0000
1000
0000
0000
0100
0000
0000
0000
0000
0000
1000
0000
0000
0000
0000
0000
0000
0000
0000
0000
0010
0000
0000
0000
0100
0000
0000
0000
0001
0000
0000
0000
1000
0000
0000
0000
0100
0000
0000
0000
,  // measure 38
0020
0000
0031
1000
0100
0000
1000
0000
0020
0000
1030
0001
0100
0000
0001
0000
,  // measure 39
0020
0000
0000
0000
0000
0000
0031
0000
0000
1000
0000
0000
0100
0000
0000
0000
0000
0000
1000
0000
0000
0000
0000
0000
0000
0000
0000
0000
0010
0000
0000
0000
0100
0000
0000
0000
0010
0000
0000
0000
1000
0000
0000
0000
0001
0000
0000
0000
,  // measure 40
2000
0000
0000
0100
0000
0000
3001
0000
0000
0000
0000
0000
0000
0000
0100
0000
0010
0000
0100
0000
0001
0000
1000
0000
,  // measure 41
0002
0000
0000
0100
0000
0000
1003
0000
0000
0000
0000
0000
0000
0000
1000
0000
0010
0000
1000
0000
0001
0000
0100
0000
,  // measure 42
0002
0010
0013
0000
2000
0010
3010
0000
,  // measure 43
0020
0000
0130
0001
2000
0000
3100
0000
0000
0000
0000
0000
0000
0000
0000
0000
;

//---------------dance-single - ----------------
#NOTEDATA:;
#CHARTNAME:;
#STEPSTYPE:dance-single;
#DESCRIPTION:;
#CHARTSTYLE:;
#DIFFICULTY:Challenge;
#METER:12;
#RADARVALUES:1.000000,1.000000,0.064274,0.120513,1.000000,866.000000,8.000000,15.000000,0.000000,0.000000,0.000000,0.000000,0.000000,1.000000,1.000000,0.064274,0.120513,1.000000,866.000000,8.000000,15.000000,0.000000,0.000000,0.000000,0.000000,0.000000;
#CREDIT:Ben Speirs;
#NOTES:
0000
0000
0000
0000
,
0000
0000
0000
0000
,
0000
0000
0000
0000
,
0000
0000
0000
0000
,
1000
0000
0100
0010
0001
0000
0100
0010
2000
0000
3002
0000
0203
0000
0302
0000
,
1003
0100
0010
0001
1000
0000
0010
0100
0010
0100
0002
0000
2003
0000
3001
0000
,
1000
0100
1000
0100
0010
0000
0001
0000
1000
0010
1000
0010
0100
0001
1000
0000
,
0010
0000
0010
1000
0100
0000
0010
0000
0010
0001
0100
0000
1001
0000
0000
0000
,
1000
0100
1000
0000
0100
0000
1000
0000
0010
0000
1000
0000
0001
0100
0001
0000
0010
0000
0001
0000
1000
0100
0010
0001
1000
0000
0100
0000
1000
0000
0001
0000
,
0001
0010
0001
0000
0010
0000
0001
0000
0100
0000
0001
0000
1000
0010
1000
0000
0100
0000
1000
0000
0001
0010
0100
1000
0001
0000
0010
0000
0001
0000
1000
0000
,
0010
0100
0010
0000
1000
0000
0001
0000
1000
0000
0001
0000
0100
0010
0100
0000
0001
0000
1000
0000
0001
0000
1000
0000
0001
0010
0100
1000
0001
0010
0100
1000
,
0020
0000
0000
0130
,
0001
0100
0001
0100
0001
0100
0001
0100
0001
0100
0001
0100
0001
0100
0001
0100
0001
0100
0001
0100
0001
0100
0001
0100
0010
1000
0100
0010
0001
1000
0001
0100
,
0010
1000
0010
1000
0010
1000
0010
1000
0010
1000
0010
1000
0010
1000
0010
1000
0010
1000
0010
1000
0010
1000
0010
1000
0001
0100
0010
1000
0100
0010
0001
1000
,
0010
0100
0010
1000
0100
1000
0001
0010
0001
1000
0010
0100
0001
0010
0100
1000
0001
0010
0001
1000
0010
1000
0001
0100
0001
1000
0001
1000
0010
0100
0001
1000
,
0100
0010
0100
0010
0001
0010
0001
0010
0001
1000
0001
1000
0010
0100
0010
1000
0100
0010
0001
0100
0001
1000
0100
1000
0010
0000
0100
0000
0100
0000
0001
0000
,
1000
0010
1000
0010
1000
0010
1000
0010
1000
0010
1000
0010
1000
0010
1000
0010
1000
0010
1000
0010
1000
0010
1000
0010
0100
0001
0010
0100
1000
0001
1000
0010
,
0100
0001
0100
0001
0100
0001
0100
0001
0100
0001
0100
0001
0100
0001
0100
0001
1000
0001
1000
0001
1000
0001
1000
0001
1000
0010
1000
0010
1000
0010
1000
0010
,
0100
0010
0100
0001
0010
0001
1000
0100
1000
0001
0100
0010
1000
0100
0010
0001
1000
0100
1000
0001
0100
0001
1000
0010
1000
0001
1000
0001
0100
0010
1000
0001
,
0010
0100
0010
0100
1000
0100
1000
0100
1000
0001
1000
0001
0100
0010
0100
0001
0010
0100
1000
0010
1000
0001
0010
0001
0100
0000
0010
0000
0010
0000
1000
0000
,
0001
0010
0001
0010
0001
0010
0001
0010
0001
0010
0001
0010
0001
0010
0001
0010
0001
0010
0001
0010
0001
0010
0001
0010
0001
0100
0010
1000
0100
0010
0001
1000
,
0010
0100
0010
0100
0010
0100
0010
0100
0010
0100
0010
0100
0010
0100
0010
0100
0001
0010
0001
0010
0001
0010
0001
0010
0100
1000
0100
1000
0100
1000
0100
1000
,
0010
0100
0001
1000
0010
1000
0001
0010
0100
1000
0010
0100
0010
1000
0001
0010
0001
0010
0100
1000
0010
0100
0010
0100
0001
1000
0100
0010
0001
1000
0010
0100
,
0001
1000
0100
1000
0010
0100
0010
1000
0001
1000
0010
0100
0001
1000
0100
0010
0001
1000
0010
0100
0001
1000
0100
1000
0001
0000
0010
0000
0100
0000
1000
0000
,
0001
0100
0001
0100
0001
0100
0001
0100
0001
0100
0001
0100
0001
0100
0001
0100
0001
0100
0001
0100
0001
0100
0001
0100
0010
1000
0100
0010
0001
1000
0001
0100
,
0010
1000
0010
1000
0010
1000
0010
1000
0010
1000
0010
1000
0010
1000
0010
1000
0010
1000
0010
1000
0010
1000
0010
1000
0001
0100
0010
1000
0100
0010
0001
1000
,
0010
0100
0010
1000
0100
1000
0001
0010
0001
1000
0010
0100
0001
0010
0100
1000
0001
0010
0001
1000
0010
1000
0001
0100
0001
1000
0001
1000
0010
0100
0001
1000
,
0100
0010
0001
0100
0001
1000
0010
0000
0100
0000
0000
0000
0001
0000
0000
0000
0000
0000
1000
0000
0000
0000
0000
0000
1001
0000
0000
0000
0000
0000
0000
0000
,
1000
0000
0000
0000
0000
0000
0000
0000
0100
0000
0000
0000
0000
0000
0000
0000
1000
0000
0000
0000
0000
0000
0000
0000
0001
0000
0000
0000
0000
0000
0000
0000
0100
0000
0000
0000
0000
0000
0000
0000
0001
0000
0000
0000
0000
0000
0000
0000
1000
0000
0000
0000
0000
0000
0000
0000
0000
0000
0000
0000
0010
0000
0000
0000
0000
0000
0000
0000
0000
0000
0000
0000
0100
0000
0000
0000
0000
0000
0000
0000
0000
0000
0000
0000
0001
0000
0000
0000
0000
0000
0000
0000
0000
0000
0000
0000
1000
0000
0000
0000
0000
0000
0000
0000
0000
0000
0000
0000
0100
0000
0000
0000
0000
0000
0000
0000
0000
0000
0000
0000
1000
0000
0000
0000
0000
0000
0010
0000
0000
0000
0000
0000
0100
0000
0000
0000
0000
0000
0001
0000
0000
0000
0000
0000
1000
0000
0000
0000
0000
0000
0100
0000
0000
0000
0000
0000
0010
0000
0000
0000
0000
0000
0001
0000
0000
0000
0000
0000
1000
0000
0000
0000
0000
0000
0010
0000
0000
0000
0000
0000
1000
0000
0000
0000
0000
0000
0001
0000
0000
0000
0000
0000
,
0100
0000
0000
0000
0000
0000
0000
0000
0010
0000
0000
0000
0000
0000
0000
0000
0100
0000
0000
0000
0000
0000
0000
0000
0001
0000
0000
0000
0000
0000
0000
0000
1000
0000
0000
0000
0000
0000
0000
0000
0001
0000
0000
0000
0000
0000
0000
0000
0010
0000
0000
0000
0000
0000
0000
0000
0000
0000
0000
0000
0001
0000
0000
0000
0000
0000
0000
0000
0000
0000
0000
0000
1000
0000
0000
0000
0000
0000
0000
0000
0000
0000
0000
0000
0010
0000
0000
0000
0000
0000
0000
0000
0000
0000
0000
0000
0100
0000
0000
0000
0000
0000
0000
0000
0000
0000
0000
0000
0001
0000
0000
0000
0000
0000
0000
0000
0000
0000
0000
0000
1000
0000
0000
0000
0000
0000
0100
0000
0000
0000
0000
0000
0010
0000
0000
0000
0000
0000
0001
0000
0000
0000
0000
0000
0100
0000
0000
0000
0000
0000
0010
0000
0000
0000
0000
0000
1000
0000
0000
0000
0000
0000
0001
0000
0000
0000
0000
0000
0010
0000
0000
0000
0000
0000
0001
0000
0000
0000
0000
0000
1000
0000
0000
0000
0000
0000
0010
0000
0000
0000
0000
0000
,
0100
0000
0000
0000
0000
0000
0000
0000
0001
0000
0000
0000
0000
0000
0000
0000
0100
0000
0000
0000
0000
0000
0000
0000
0010
0000
0000
0000
0000
0000
0000
0000
1000
0000
0000
0000
0000
0000
0000
0000
0010
0000
0000
0000
0000
0000
0000
0000
0100
0000
0000
0000
0000
0000
0000
0000
0000
0000
0000
0000
0001
0000
0000
0000
0000
0000
0000
0000
0000
0000
0000
0000
1000
0000
0000
0000
0000
0000
0000
0000
0000
0000
0000
0000
0100
0000
0000
0000
0000
0000
0000
0000
0000
0000
0000
0000
0010
0000
0000
0000
0000
0000
0000
0000
0000
0000
0000
0000
0001
0000
0000
0000
0000
0000
0000
0000
0000
0000
0000
0000
1000
0000
0000
0000
0000
0000
0010
0000
0000
0000
0000
0000
0100
0000
0000
0000
0000
0000
0001
0000
0000
0000
0000
0000
1000
0000
0000
0000
0000
0000
0100
0000
0000
0000
0000
0000
0010
0000
0000
0000
0000
0000
0001
0000
0000
0000
0000
0000
0100
0000
0000
0000
0000
0000
0010
0000
0000
0000
0000
0000
1000
0000
0000
0000
0000
0000
0001
0000
0000
0000
0000
0000
,
0010
0000
0000
0000
0000
0000
0000
0000
0001
0000
0000
0000
0000
0000
0000
0000
0100
0000
0000
0000
0000
0000
0000
0000
0010
0000
0000
0000
0000
0000
0000
0000
1000
0000
0000
0000
0000
0000
0000
0000
0100
0000
0000
0000
0000
0000
0000
0000
1000
0000
0000
0000
0000
0000
0010
0000
0000
0000
0000
0000
0100
0000
0000
0000
0000
0000
0001
0000
0000
0000
0000
0000
1000
0000
0000
0000
0000
0000
0100
0000
0000
0000
0000
0000
0010
0000
0000
0000
0000
0000
0001
0000
0000
0000
0000
0000
1000
0000
0000
0000
0000
0000
0010
0000
0000
0000
0000
0000
0100
0000
0000
0000
0000
0000
0001
0000
0000
0000
0000
0000
1000
0000
0000
0000
0000
0000
0010
0000
0000
0000
0000
0000
0100
0000
0000
0000
0000
0000
0001
0000
0000
0000
0000
0000
1000
0000
0000
0000
0000
0000
0000
0000
0000
0000
0000
0000
0100
0000
0000
0000
0000
0000
0000
0000
0000
0000
0000
0000
0100
0000
0000
0000
0000
0000
0000
0000
0000
0000
0000
0000
0010
0000
0000
0000
0000
0000
0000
0000
0000
0000
0000
0000
,
0001
0000
0000
0000
0000
0000
0000
0000
0010
0000
0000
0000
0000
0000
0000
0000
0001
0000
0000
0000
0000
0000
0000
0000
1000
0000
0000
0000
0000
0000
0000
0000
0010
0000
0000
0000
0000
0000
0000
0000
1000
0000
0000
0000
0000
0000
0000
0000
0001
0000
0000
0000
0000
0000
0000
0000
0000
0000
0000
0000
0100
0000
0000
0000
0000
0000
0000
0000
0000
0000
0000
0000
0010
0000
0000
0000
0000
0000
0000
0000
0000
0000
0000
0000
1000
0000
0000
0000
0000
0000
0000
0000
0000
0000
0000
0000
0001
0000
0000
0000
0000
0000
0000
0000
0000
0000
0000
0000
0010
0000
0000
0000
0000
0000
0000
0000
0000
0000
0000
0000
0001
0000
0000
0000
0000
0000
0100
0000
0000
0000
0000
0000
0010
0000
0000
0000
0000
0000
1000
0000
0000
0000
0000
0000
0001
0000
0000
0000
0000
0000
0010
0000
0000
0000
0000
0000
0100
0000
0000
0000
0000
0000
1000
0000
0000
0000
0000
0000
0001
0000
0000
0000
0000
0000
0100
0000
0000
0000
0000
0000
0001
0000
0000
0000
0000
0000
1000
0000
0000
0000
0000
0000
,
0010
0000
0000
0000
0000
0000
0000
0000
0100
0000
0000
0000
0000
0000
0000
0000
0010
0000
0000
0000
0000
0000
0000
0000
1000
0000
0000
0000
0000
0000
0000
0000
0001
0000
0000
0000
0000
0000
0000
0000
1000
0000
0000
0000
0000
0000
0000
0000
0100
0000
0000
0000
0000
0000
0000
0000
0000
0000
0000
0000
1000
0000
0000
0000
0000
0000
0000
0000
0000
0000
0000
0000
0001
0000
0000
0000
0000
0000
0000
0000
0000
0000
0000
0000
0100
0000
0000
0000
0000
0000
0000
0000
0000
0000
0000
0000
0010
0000
0000
0000
0000
0000
0000
0000
0000
0000
0000
0000
1000
0000
0000
0000
0000
0000
0000
0000
0000
0000
0000
0000
0001
0000
0000
0000
0000
0000
0010
0000
0000
0000
0000
0000
0100
0000
0000
0000
0000
0000
1000
0000
0000
0000
0000
0000
0010
0000
0000
0000
0000
0000
0100
0000
0000
0000
0000
0000
0001
0000
0000
0000
0000
0000
1000
0000
0000
0000
0000
0000
0100
0000
0000
0000
0000
0000
1000
0000
0000
0000
0000
0000
0001
0000
0000
0000
0000
0000
0100
0000
0000
0000
0000
0000
,
0010
0000
0000
0000
0000
0000
0000
0000
1000
0000
0000
0000
0000
0000
0000
0000
0010
0000
0000
0000
0000
0000
0000
0000
0100
0000
0000
0000
0000
0000
0000
0000
0001
0000
0000
0000
0000
0000
0000
0000
0100
0000
0000
0000
0000
0000
0000
0000
0010
0000
0000
0000
0000
0000
0000
0000
0000
0000
0000
0000
1000
0000
0000
0000
0000
0000
0000
0000
0000
0000
0000
0000
0001
0000
0000
0000
0000
0000
0000
0000
0000
0000
0000
0000
0010
0000
0000
0000
0000
0000
0000
0000
0000
0000
0000
0000
0100
0000
0000
0000
0000
0000
0000
0000
0000
0000
0000
0000
1000
0000
0000
0000
0000
0000
0000
0000
0000
0000
0000
0000
0001
0000
0000
0000
0000
0000
0100
0000
0000
0000
0000
0000
0010
0000
0000
0000
0000
0000
1000
0000
0000
0000
0000
0000
0001
0000
0000
0000
0000
0000
0010
0000
0000
0000
0000
0000
0100
0000
0000
0000
0000
0000
1000
0000
0000
0000
0000
0000
0001
0000
0000
0000
0000
0000
0100
0000
0000
0000
0000
0000
0010
0000
0000
0000
0000
0000
1000
0000
0000
0000
0000
0000
,
0001
0100
0001
0100
0001
0100
0001
0100
0001
0000
1000
0000
0100
0000
0010
0000
0001
1000
0001
1000
0001
1000
0001
1000
0001
0000
0100
0000
0010
0000
1000
0000
,
0100
0010
0100
0010
0100
0010
0100
0010
0100
0000
0010
0000
0001
0000
1000
0000
0020
0000
0000
0000
0000
0000
0000
0000
0000
0000
0000
0000
0000
0000
0000
0000
,
1030
0100
0010
0001
1000
0010
0100
0001
2000
0000
0000
0000
0000
0000
0000
0000
,
3100
0010
0001
1000
1010
0000
1001
0000
0001
0010
0100
1000
1100
0000
0101
0000
,
1000
0010
0100
0001
0101
0000
1010
0000
0001
0010
0100
1000
0010
0100
0001
0010
,
0002
0000
0100
0000
0103
0000
0000
0000
0001
0100
0010
1000
0100
0010
0001
0100
,
0020
0000
1000
0000
1030
0000
0000
0000
0010
1000
0100
0010
0001
1000
0010
0100
,
0002
0000
1003
0100
1000
0000
0010
0000
2000
0000
3001
0100
0001
0000
1000
0000
,
0002
0000
0013
0100
2000
0000
3001
0000
0000
0000
0000
0000
0000
0000
0000
0000
;

//---------------dance-double - ----------------
#NOTEDATA:;
#CHARTNAME:;
#STEPSTYPE:dance-double;
#DESCRIPTION:;
#CHARTSTYLE:;
#DIFFICULTY:Challenge;
#METER:10;
#RADARVALUES:0.615190,0.592421,0.064274,0.112479,0.875727,514.000000,8.000000,14.000000,0.000000,0.000000,0.000000,0.000000,0.000000,0.615190,0.592421,0.064274,0.112479,0.875727,514.000000,8.000000,14.000000,0.000000,0.000000,0.000000,0.000000,0.000000;
#CREDIT:Ben Speirs;
#NOTES:
00000000
00000000
00000000
00000000
,
00000000
00000000
00000000
00000000
,
00000000
00000000
00000000
00000000
,
00000000
00000000
00000000
00000000
,
00001000
00000000
00000001
00000100
00000001
00000000
00000000
00000000
00001000
00000000
00000100
00000000
00000100
00000000
00001000
00000000
,
00000001
00000000
00001000
00000010
00001000
00000000
00000000
00000000
00000001
00000000
00000100
00000000
00000100
00000000
00000010
00000000
,
00001000
00000000
00001000
00000100
00010000
00000000
00001000
00000000
00001000
00000000
00010000
00001000
01000000
00000000
00010000
00000000
,
00010000
00000000
00000000
01000000
00010000
00000000
10000000
00000000
00000000
01000000
00000000
00000000
10010000
00000000
00000000
00000000
,
10100000
00100000
00010000
00100000
10000000
00000000
00010000
10000000
00010000
10000000
01000000
00000000
11000000
00000000
00010000
00000000
,
00110000
00100000
10000000
00100000
00010000
00000000
10000000
00010000
10000000
00010000
01000000
00000000
01010000
00000000
00010000
00000000
,
01000000
00010000
00001000
00010000
01000000
00000000
00001000
00010000
00001000
00010000
00001000
00000000
00010100
00000100
00001000
00000001
,
00002000
00000000
00000000
00003010
,
00000001
00000010
00001000
00010000
00100000
10000000
01000000
00010000
00001000
00000100
00000001
00000010
00001000
00010000
00100000
10000000
,
01000000
00010000
00001000
00000100
00000001
00000010
00001000
00010000
00100000
10000000
01000000
00010000
00001000
00000100
00000001
00000010
,
00000001
00000100
00001000
00000100
00001000
00010000
00001000
00010000
01000000
00010000
01000000
10000000
00100000
01000000
00010000
10000000
,
00010000
01000000
00100000
10000000
01000000
00100000
00010000
10000000
00010000
01000000
00100000
10000000
00010000
00000000
10000000
00000000
,
10000000
01000000
00010000
00001000
00000100
00000001
00000010
00001000
00010000
00100000
10000000
01000000
00010000
00001000
00000100
00000001
,
00000010
00001000
00010000
00100000
10000000
01000000
00010000
00001000
00000100
00000001
00000010
00001000
00010000
00100000
10000000
01000000
,
10000000
00100000
00010000
00100000
00010000
00001000
00010000
00001000
00000010
00001000
00000010
00000001
00000100
00000010
00001000
00000001
,
00001000
00000010
00000100
00000001
00000010
00000100
00001000
00000001
00001000
00000010
00000100
00000001
00001000
00000000
00000001
00000000
,
00001000
00000100
00010000
00001000
00100000
00010000
01000000
00100000
10000000
01000000
00010000
00001000
00000100
00000001
00001000
00000100
,
00000010
00000001
00000100
00000010
00001000
00000100
00000001
00000100
00001000
00000010
00001000
00000010
00010000
00000100
00010000
00000100
,
00010000
00100000
10000000
01000000
00010000
00001000
00010000
00001000
00010000
01000000
10000000
00100000
00010000
00001000
00010000
00001000
,
00000100
00000001
00001000
00000100
00000010
00000001
00001000
00000010
00010000
00001000
00100000
00010000
10000000
00100000
01000000
00010000
,
10000000
01000000
00010000
00001000
00000100
00000001
00000010
00001000
00010000
00100000
10000000
01000000
00010000
00001000
00000100
00000001
,
00000010
00001000
00010000
00100000
10000000
01000000
00010000
00001000
00000100
00000001
00000010
00001000
00010000
00100000
10000000
01000000
,
10000000
00100000
00010000
00100000
00010000
00001000
00010000
00001000
00000010
00001000
00000010
00000001
00000100
00000010
00001000
00000001
,
00001000
00000010
00000100
00000001
00001000
00000000
00000010
00000000
00000000
00000100
00000000
00000000
00001001
00000000
00000000
00000000
,
00000101
00000001
00000100
00000001
00001000
00000100
00000010
00000001
00001000
00000010
00000100
00000001
00000010
00000100
00000010
00000001
,
00001000
00000100
00001000
00000100
00010000
00001000
00000100
00001000
00010000
00001000
01000000
00010000
01000000
00010000
10000000
01000000
,
00100000
00010000
01000000
00100000
10000000
00010000
10000000
01000000
00100000
00010000
10000000
00010000
01000000
00100000
10000000
01000000
,
00100000
00010000
10000000
00100000
01000000
00010000
10000000
00010000
01000000
00100000
10000000
01000000
00010000
01000000
00100000
00010000
,
10000000
00100000
10000000
00010000
00100000
01000000
10000000
00010000
01000000
00100000
10000000
01000000
00100000
01000000
10000000
00010000
,
00100000
00010000
00100000
00001000
00001000
00010000
00100000
00010000
00001000
00010000
00000010
00001000
00000010
00001000
00000001
00000010
,
00000100
00001000
00000010
00000100
00000001
00001000
00000001
00000010
00000100
00001000
00000001
00001000
00000010
00000100
00000001
00000010
,
00000100
00001000
00000001
00000100
00000010
00001000
00000001
00001000
00000010
00000100
00000001
00000010
00001000
00000010
00000100
00001000
,
00000020
00000000
00000130
00000001
00001000
00000000
00000000
00000000
00000100
00000000
00001000
00000000
00000010
00000000
00000100
00000000
,
00000002
00000000
00000103
00000010
00001000
00000000
00000000
00000000
00000001
00000000
00001000
00000000
00000100
00000000
00010000
00000000
,
00002000
00000000
00013000
00001000
00200000
00000000
00301000
00000000
00020000
00000000
00031000
00010000
00000020
00000000
00010030
00000000
,
00002000
00000000
00013000
00001000
00200000
00000000
00300000
00000000
00010000
00100000
01000000
10000000
00100000
01000000
00010000
10000000
,
00020000
01000000
01030000
00000000
00010000
10000000
01000000
00100000
,
00002000
00010000
00013000
00000000
00001000
00000100
00000001
00001000
,
00000100
00000010
00000100
00000010
00000002
00000000
00001003
00000000
00000010
00000100
00000010
00000100
00000002
00000000
00001003
00000000
,
00000100
00000010
00000100
00000010
00000002
00000000
00001003
00000000
00000000
00000000
00000000
00000000
00000000
00000000
00000000
00000000
;

//---------------dance-single - ----------------
#NOTEDATA:;
#CHARTNAME:;
#STEPSTYPE:dance-single;
#DESCRIPTION:;
#CHARTSTYLE:;
#DIFFICULTY:Medium;
#METER:5;
#RADARVALUES:0.281197,0.313635,0.072308,0.305299,0.024103,198.000000,9.000000,38.000000,0.000000,0.000000,0.000000,0.000000,0.000000,0.281197,0.313635,0.072308,0.305299,0.024103,198.000000,9.000000,38.000000,0.000000,0.000000,0.000000,0.000000,0.000000;
#CREDIT:Ben Speirs;
#NOTES:
0000
0000
0000
0000
,
0000
0000
0000
0000
,
0000
0000
0000
0000
,
0000
0000
0000
0000
,
1000
0000
0001
0000
0100
0100
0010
0000
,
1000
0000
0001
0000
0010
0010
0100
0000
,
1000
0100
1000
0000
0001
0100
0001
0000
,
2000
0100
0010
3001
,
1000
0100
0100
1000
0100
0100
1001
0000
,
0001
0100
0100
0001
0100
0100
1001
0000
,
1000
0010
0010
1000
0010
0010
1001
0000
,
0002
0000
0000
0013
,
2100
0000
0001
0000
0010
0000
3100
1000
,
0002
0100
1000
0023
,
0031
0010
0200
0000
1000
0000
0310
0000
,
0100
1000
0020
0000
0100
0000
1030
0000
,
0102
0100
0010
1003
,
2000
3100
0020
0032
,
1003
0010
0200
0000
0001
0000
0310
0000
,
0100
0001
2000
0000
0100
0000
3010
0000
,
2002
0000
3003
0110
,
0002
0100
0103
0000
2000
0100
3100
0000
,
1000
0010
0100
0001
2000
0000
3100
0000
,
0001
0010
0100
1000
0002
0000
0103
0000
,
2010
0001
0100
3010
,
0002
0103
2000
3001
,
1000
0100
0020
0000
0001
0000
0130
0000
,
0001
0000
0000
0000
1000
0000
1000
0000
0000
0001
0000
0000
1001
0000
0000
0000
,
0100
0100
0010
0000
1000
0100
1000
0000
,
0001
0001
0100
0000
0010
1000
0001
0000
,
0020
0000
0000
0000
0031
0000
0000
0000
1000
0010
0000
0000
1000
0000
0000
0000
,
0002
0000
0000
0000
0103
0000
0000
0000
0001
1000
0000
0000
0100
0000
0000
0000
,
1000
1000
0100
0000
0010
0001
1000
0000
,
0010
0100
0001
0000
1000
1000
0100
0000
,
0010
0001
0000
0000
1000
0000
0000
0000
0020
0000
0000
0000
0130
0000
0000
0000
,
0001
1000
0000
0000
0100
0000
0000
0000
1000
0001
0000
0000
0100
0000
0000
0000
,
0002
1000
1003
0000
0000
0000
2000
0000
,
3020
0100
0130
0000
0000
0000
0002
0000
,
2003
0000
3100
0010
0002
0000
0103
0010
,
2000
0000
3001
0000
0000
0000
1000
0100
,
2000
0000
3100
0000
0000
0000
0001
0100
,
0002
0000
0103
0000
0000
0000
0001
1000
,
0020
0000
0130
0100
0002
0000
1003
1000
,
0200
0000
0310
0010
0000
0000
0000
0000
;

//---------------dance-single - ----------------
#NOTEDATA:;
#CHARTNAME:;
#STEPSTYPE:dance-single;
#DESCRIPTION:;
#CHARTSTYLE:;
#DIFFICULTY:Easy;
#METER:2;
#RADARVALUES:0.157241,0.192218,0.056239,0.216923,0.000000,103.000000,7.000000,27.000000,0.000000,0.000000,0.000000,0.000000,0.000000,0.157241,0.192218,0.056239,0.216923,0.000000,103.000000,7.000000,27.000000,0.000000,0.000000,0.000000,0.000000,0.000000;
#CREDIT:Ben Speirs;
#NOTES:
0000
0000
0000
0000
,
0000
0000
0000
0000
,
0000
0000
0000
0000
,
0000
0000
0000
0000
,
0100
0010
1000
0000
,
0100
0000
0010
0000
,
0001
1000
0010
0010
,
0200
0000
0000
0300
,
0001
1000
0100
0100
,
1000
0001
0010
0010
,
0001
1000
0001
0001
,
0200
0000
0300
0100
,
2002
0000
0000
3003
,
0200
0300
1000
0001
,
0010
0010
0000
0001
,
1000
1000
0000
0010
,
2002
0000
0000
3003
,
0200
0300
0001
1000
,
0010
0010
0000
0100
,
0001
0001
0000
1000
,
2002
0000
0000
3003
,
0020
0030
2000
3000
,
0100
0100
0010
0000
,
0001
0001
1000
0000
,
2002
0000
0000
3003
,
0020
0030
0200
0300
,
0001
0010
0010
0000
,
0100
1000
1000
0000
,
0110
0000
1000
0100
,
0010
0000
0001
1000
,
0010
0010
0100
0000
,
0001
0001
1000
0000
,
0110
0000
0001
0010
,
0100
0000
1000
0001
,
0100
0100
0010
0000
,
1000
1000
0100
0000
,
2000
3000
0100
0010
,
0002
0003
0100
0001
,
2000
3000
0002
0003
,
0200
0300
0000
0010
,
0020
0030
0000
1000
,
2000
3000
0000
0100
,
0200
0300
0020
0030
,
2002
0000
3003
0000
;

//---------------dance-single - ----------------
#NOTEDATA:;
#CHARTNAME:;
#STEPSTYPE:dance-single;
#DESCRIPTION:;
#CHARTSTYLE:;
#DIFFICULTY:Beginner;
#METER:1;
#RADARVALUES:0.090672,0.120915,0.032137,0.000000,0.000000,75.000000,4.000000,0.000000,0.000000,0.000000,0.000000,0.000000,0.000000,0.090672,0.120915,0.032137,0.000000,0.000000,75.000000,4.000000,0.000000,0.000000,0.000000,0.000000,0.000000,0.000000;
#CREDIT:Ben Speirs;
#NOTES:
0000
0000
0000
0000
,
0000
0000
0000
0000
,
0000
0000
0000
0000
,
0000
0000
0000
0000
,
0100
0000
0000
0000
,
0001
0000
0000
0000
,
1000
0000
1000
0000
,
0010
0000
0000
0000
,
1000
1000
1000
0000
,
0001
0001
0001
0000
,
0100
0100
0100
0000
,
0010
0000
0000
0000
,
1001
0000
0000
0000
,
0100
0000
1000
0000
,
0010
0000
0100
0000
,
0001
0001
0000
0000
,
1001
0000
0000
0000
,
0001
0000
0010
0000
,
0100
0000
1000
0000
,
0010
0010
0000
0000
,
1001
0000
0000
0000
,
0100
0000
0010
0000
,
1000
1000
0000
0000
,
0001
0001
0000
0000
,
1001
0000
0000
0000
,
1000
0000
0100
0000
,
0010
0000
0001
0000
,
0100
0100
0000
0000
,
0010
0010
0000
0000
,
1000
1000
0000
0000
,
0001
0001
0000
0000
,
0010
0010
0000
0000
,
0001
0001
0000
0000
,
1000
1000
0000
0000
,
0010
0010
0000
0000
,
0100
0100
0100
0000
,
0001
0000
0000
1000
,
1000
0000
0000
0010
,
0010
0000
0100
0000
,
0001
0000
0000
1000
,
1000
0000
0000
0100
,
0100
0000
0000
0010
,
0010
0000
0001
0000
,
1000
0000
0000
0000
;
