#VERSION:0.82;
#TITLE:What About Us;
#SUBTITLE:;
#ARTIST:P!nk;
#TITLETRANSLIT:;
#SUBTITLETRANSLIT:;
#ARTISTTRANSLIT:;
#GENRE:Pop;
#ORIGIN:;
#CREDIT:;
#BANNER:What About Us.png;
#BACKGROUND:What About Us-bg.png;
#PREVIEWVID:;
#JACKET:jacket.png;
#CDIMAGE:;
#DISCIMAGE:;
#LYRICSPATH:;
#CDTITLE:cdtitle.png;
#MUSIC:What About Us.ogg;
#OFFSET:-0.106000;
#SAMPLESTART:84.287361;
#SAMPLELENGTH:15.919991;
#SELECTABLE:YES;
#BPMS:0.000=114.000;
#STOPS:;
#DELAYS:;
#WARPS:;
#TIMESIGNATURES:0.000=4=4;
#TICKCOUNTS:0.000=4;
#COMBOS:0.000=1;
#SPEEDS:0.000=1.000=0.000=0;
#SCROLLS:0.000=1.000;
#FAKES:;
#LABELS:0.000=Song Start;
#BGCHANGES:8.000=What About Us.avi=1.000=0=0=1=====,
99999=-nosongbg-=1.000=0=0=0 // don't automatically add -songbackground-
;
#KEYSOUNDS:;
#ATTACKS:
;

//---------------dance-single - ----------------
#NOTEDATA:;
#CHARTNAME:;
#STEPSTYPE:dance-single;
#DESCRIPTION:;
#CHARTSTYLE:;
#DIFFICULTY:Hard;
#METER:8;
#RADARVALUES:0.422957,0.553733,0.022373,0.052204,0.395257,387.000000,3.000000,7.000000,0.000000,0.000000,0.000000,0.000000,0.000000,0.422957,0.553733,0.022373,0.052204,0.395257,387.000000,3.000000,7.000000,0.000000,0.000000,0.000000,0.000000,0.000000;
#CREDIT:Ben Speirs;
#NOTES:
// measure 0
0000
0000
0000
0000
,  // measure 1
0000
0000
0000
0000
,  // measure 2
0000
0000
0000
0000
,  // measure 3
0000
0000
0000
0000
,  // measure 4
1000
0000
0000
0100
0000
0000
0010
0000
0010
0000
0000
0000
0001
0000
0000
0000
,  // measure 5
0100
0000
0000
0001
0000
0000
1000
0000
1000
0000
0000
0000
0010
0000
0000
0000
,  // measure 6
0100
0000
0001
0001
0000
1000
1000
0000
,  // measure 7
1001
0000
0000
0000
,  // measure 8
1000
0000
0000
1000
0000
0000
0100
0000
0000
0100
0000
0000
1000
0000
0000
0000
,  // measure 9
0200
0000
1300
0000
0010
1000
0100
0000
,  // measure 10
0010
0000
0000
0010
0000
0000
0001
0000
0000
0001
0000
0000
0010
0000
0000
0000
,  // measure 11
0001
0100
0001
1000
,  // measure 12
0010
0000
0000
0010
0000
0000
0100
0000
0000
0100
0000
0000
0010
0000
0000
0000
,  // measure 13
0200
0000
0301
0100
0010
1000
0001
0000
,  // measure 14
1000
0000
0000
1000
0000
0000
0001
0000
0000
0001
0000
0000
1000
0000
0000
0000
,  // measure 15
0001
0100
0010
1000
,  // measure 16
0100
0000
0000
0100
0000
0000
1000
0000
0000
1000
0000
0000
0001
0000
0000
0000
,  // measure 17
0010
0001
1000
0000
0001
1000
0010
0100
,  // measure 18
0001
0000
0000
0001
0000
0000
0100
0000
0000
0100
0000
0000
0010
0000
0000
0000
,  // measure 19
0100
0001
1000
0010
,  // measure 20
1000
0000
0000
1000
0000
0000
0001
0000
0000
0001
0000
0000
0010
0000
0000
0000
,  // measure 21
0001
0000
1000
0100
0010
0001
0100
0000
,  // measure 22
0010
0000
0000
0010
0000
0000
0100
0000
0000
0100
0000
0000
0001
0000
0000
0000
,  // measure 23
0100
0000
0000
0000
0001
0000
0000
0000
1000
0000
0000
0000
0001
1000
0001
0000
,  // measure 24
1000
0000
0000
0100
1000
0000
0100
0000
1000
0100
0000
0000
1000
0001
1000
0000
,  // measure 25
0001
0000
0000
0100
0001
0000
0000
0100
0001
0000
0000
1000
0001
0000
0000
1000
,  // measure 26
0020
0000
0000
0000
0130
0000
0001
0000
1000
0100
0000
0000
1000
0000
0000
0000
,  // measure 27
0002
0000
0000
0000
0013
0000
0001
0000
1000
0010
0000
0000
1000
0001
1000
0000
,  // measure 28
0001
0000
0000
0010
0001
0000
0010
0000
0001
0010
0000
0000
0001
1000
0001
0000
,  // measure 29
1000
0000
0000
0010
1000
0000
0000
0010
1000
0000
0000
0001
1000
0000
0000
0001
,  // measure 30
0200
0000
0000
0000
0310
0000
0100
0000
0001
1000
0000
0000
0010
0000
0000
0000
,  // measure 31
2000
0000
0000
0000
3100
0000
1000
0000
0001
0100
0000
0000
0001
1000
0001
0000
,  // measure 32
1000
0000
0100
1000
0100
0000
1000
0000
0001
0000
1000
0000
0001
0000
0000
0000
,  // measure 33
0100
0000
0001
0100
0001
0000
0100
0000
0001
0000
1000
0000
0010
0000
0000
0000
,  // measure 34
1000
0100
0010
0001
0100
0010
1000
0000
,  // measure 35
0001
0000
0010
0000
0100
0000
1000
0000
0001
0000
0000
0000
1000
0001
1000
0000
,  // measure 36
0010
0000
0000
0010
0000
0000
0100
0000
0000
0100
0000
0000
0001
0000
0000
0000
,  // measure 37
0010
0000
0000
0010
0000
0000
0001
0000
0000
0001
0000
0000
1000
0000
0000
0000
,  // measure 38
0100
0000
0000
0100
0000
0000
1000
0000
0000
1000
0000
0000
0010
0000
0000
0000
,  // measure 39
1000
0000
0000
1000
0000
0000
0001
0000
0001
0000
0000
0000
1001
0000
1001
0000
,  // measure 40
1000
0000
0010
0100
0010
0100
0010
0000
1000
0010
1000
0000
0001
0000
0000
0000
,  // measure 41
1000
0000
0001
0100
0001
0100
0001
0000
1000
0001
1000
0000
0100
0000
0000
0000
,  // measure 42
1000
0000
0001
0010
0001
0010
0001
0000
1000
0001
1000
0000
0010
0000
0000
0000
,  // measure 43
1000
0000
0001
0100
0001
0100
0001
0000
1000
0001
1000
0000
0001
0000
0000
0000
,  // measure 44
1000
0000
0100
0010
0100
0010
0100
0000
0010
0001
0010
0000
0001
0000
0000
0000
,  // measure 45
0100
0000
0001
0100
0001
0100
0001
0000
0100
0010
0100
0000
0010
0000
0000
0000
,  // measure 46
1000
0000
0010
1000
0010
1000
0010
0000
1000
0100
1000
0000
0001
0000
0000
0000
,  // measure 47
1000
0000
0001
0100
0001
0100
0001
0000
1000
0001
1000
0000
0001
0000
0000
0000
,  // measure 48
1000
0000
1000
0100
0000
0100
0010
0000
0010
0001
0000
0001
1000
0000
0000
0000
,  // measure 49
0001
0000
0001
0100
0000
0100
0010
0000
0010
1000
0000
1000
0001
0000
0000
0000
,  // measure 50
1000
0000
0010
1000
0000
0001
1000
0000
0100
1000
0000
0001
1000
0000
0000
0000
,  // measure 51
0001
0000
0100
0001
0000
1000
0001
0000
0010
0001
0000
1000
0001
0000
0000
0000
,  // measure 52
0100
0000
0001
0100
0000
0001
1000
0000
0010
0100
0000
0001
1000
0000
0000
0000
,  // measure 53
0001
0000
1000
0100
0000
1000
0001
0000
0010
0001
0000
1000
0010
0000
0000
0000
,  // measure 54
0100
0000
0010
1000
0000
0100
1000
0000
0001
0100
0000
0001
1000
0000
0000
0000
,  // measure 55
0001
0000
0010
0001
0000
1000
0010
0000
0100
0001
0000
0000
1000
0001
1000
0000
,  // measure 56
0020
0000
0000
0130
,  // measure 57
0001
0000
0000
0000
1000
0001
1000
0000
,  // measure 58
0100
0000
0000
0000
1000
0100
0001
0000
,  // measure 59
0010
0000
0000
0000
0001
0000
0100
0100
,  // measure 60
0010
0000
0000
0000
0000
0000
0000
0000
0100
0000
0000
0100
0000
0000
0100
0000
,  // measure 61
0000
0000
0000
0000
0001
1000
0010
0100
;

//---------------dance-double - ----------------
#NOTEDATA:;
#CHARTNAME:;
#STEPSTYPE:dance-double;
#DESCRIPTION:;
#CHARTSTYLE:;
#DIFFICULTY:Challenge;
#METER:7;
#RADARVALUES:0.394192,0.553733,0.134238,0.082034,0.350511,341.000000,18.000000,11.000000,0.000000,0.000000,0.000000,0.000000,0.000000,0.394192,0.553733,0.134238,0.082034,0.350511,341.000000,18.000000,11.000000,0.000000,0.000000,0.000000,0.000000,0.000000;
#CREDIT:Ben Speirs;
#NOTES:
00000000
00000000
00000000
00000000
,
00000000
00000000
00000000
00000000
,
00000000
00000000
00000000
00000000
,
00000000
00000000
00000000
00000000
,
10000000
00000000
00000000
01000000
00000000
00000000
00100000
00000000
00100000
00000000
00000000
00000000
00010000
00000000
00000000
00000000
,
01000000
00000000
00000000
00100000
00000000
00000000
10000000
00000000
10000000
00000000
00000000
00000000
00010000
00000000
00000000
00000000
,
00100000
00000000
00001000
00100000
00000000
00001000
00010000
00000000
,
00011000
00000000
00000000
00000000
,
00000100
00000000
00000000
00000100
00000000
00000000
00001000
00000000
00000000
00001000
00000000
00000000
00000010
00000000
00000000
00000000
,
00000200
00000000
00000301
00000000
00000100
00000010
00001000
00000000
,
00000100
00000000
00000000
00001000
00000000
00000000
00000001
00000000
00000000
00001000
00000000
00000000
00000001
00000000
00000000
00000000
,
00000100
00000000
00000000
00000001
00000000
00000000
00001000
00000000
00000000
00000001
00000000
00000000
00001000
00000000
00000000
00000000
,
00000100
00000000
00000000
00000100
00000000
00000000
00010000
00000000
00000000
00010000
00000000
00000000
00001000
00000000
00000000
00000000
,
00200000
00000000
00310000
10000000
00100000
01000000
00010000
00000000
,
10000000
00000000
00000000
01000000
00000000
00000000
10000000
00000000
00000000
00010000
00000000
00000000
01000000
00000000
00000000
00000000
,
00010000
00000000
00000000
10000000
00000000
00000000
00100000
00000000
00000000
00100000
00000000
00000000
01000000
00000000
00000000
00000000
,
00020000
00000000
00100000
00000000
10000000
00000000
01030000
00010000
,
00200000
00000000
00301000
00000000
00100000
00001000
00010000
00000000
,
00000100
00000000
00000000
00000100
00000000
00000000
00001000
00000000
00000000
00000010
00000000
00000000
00000100
00000000
00000000
00000000
,
00000010
00000000
00000000
00000010
00000000
00000000
00001000
00000000
00000000
00001000
00000000
00000000
00000100
00000000
00000000
00000000
,
00020000
00001000
00000100
00001000
,
00032000
00000000
00000000
00000000
00100000
00003000
00000000
00000000
00010000
00000000
00100000
00000000
00001000
00000000
00000000
00000000
,
00100000
00000000
00000000
00001000
00000000
00000000
00010000
00000000
00000000
00010000
00000000
00000000
00000100
00000000
00000000
00000000
,
00001000
00000000
00000000
00000010
00000000
00000000
00000100
00000000
00000100
00000000
00000000
00000000
00000001
00001000
00000001
00000000
,
00001000
00000000
00000000
00000100
00001000
00000000
00000000
00000000
00000010
00000000
00001000
00000000
00000001
00000000
00000000
00000000
,
00001000
00000000
00000000
00001000
00000100
00000000
00000000
00000100
00010000
00000000
00000000
00010000
00001000
00000000
00000000
00001000
,
00200000
00000000
00000000
00000000
00310000
00000000
00000000
00000000
10000000
01000000
00000000
00000000
10000000
00000000
00000000
00000000
,
00200000
00000000
00000000
00000000
10300000
00000000
00000000
00000000
00010000
01000000
00000000
00000000
00010000
10000000
00010000
00000000
,
10000000
00000000
00000000
01000000
10000000
00000000
00000000
00000000
00100000
00000000
10000000
00000000
00010000
00000000
00000000
00000000
,
10000000
00000000
00000000
10000000
01000000
00000000
00000000
01000000
00100000
00000000
00000000
00100000
00010000
00000000
00000000
00010000
,
00100000
00000000
00000000
00000000
00001000
00000000
00000000
00000000
00100000
00001000
00000000
00000000
00010000
00000000
00000000
00000000
,
00000100
00000000
00001000
00000000
00000010
00000000
00000000
00000000
00000100
00000000
00000000
00000000
00000010
00001000
00000010
00000000
,
00001000
00000000
00000000
00000100
00001000
00000000
00000100
00000000
00001000
00000100
00000000
00000000
00001100
00000000
00000000
00000000
,
00000001
00000000
00000000
00000100
00000001
00000000
00000100
00000000
00000001
00000100
00000000
00000000
00000101
00000000
00000000
00000000
,
00001000
00000000
00000000
00001000
00000100
00000000
00000000
00000100
00010000
00000000
00000000
00010000
00001000
00000000
00000000
00001000
,
00100000
00000000
00000000
00100000
00010000
00000000
00000000
00010000
01000000
00000000
00000000
00000000
00010000
10000000
00010000
00000000
,
20000000
00000000
00000000
00000000
00000000
00000000
01000000
00000000
00000000
01000000
00000000
00000000
31000000
00000000
00000000
00000000
,
00020000
00000000
00000000
00000000
00000000
00000000
00100000
00000000
00000000
00100000
00000000
00000000
00130000
00000000
00000000
00000000
,
00200000
00000000
00000000
00000000
00000000
00000000
00001000
00000000
00000000
00010000
00000000
00000000
00301000
00000000
00000000
00000000
,
00101000
00000000
00001000
00010000
00000000
00000000
00011000
00011000
,
00010000
00000000
00000100
00001000
00000100
00001000
00000100
00000000
00001000
00000001
00001000
00000000
00000010
00000000
00000000
00000000
,
00001000
00000000
00000001
00000100
00000001
00000100
00000001
00000000
00001000
00000001
00001000
00000000
00000010
00000000
00000000
00000000
,
00010000
00000000
00001000
00010000
00001000
00010000
00001000
00000000
00100000
00010000
00100000
00000000
00001000
00000000
00000000
00000000
,
00100000
00000000
00010000
10000000
00010000
10000000
00010000
00000000
10000000
00100000
10000000
00000000
01000000
00000000
00000000
00000000
,
10000000
00000000
01000000
00100000
01000000
00100000
01000000
00000000
00100000
00010000
00100000
00000000
00001000
00000000
00000000
00000000
,
00100000
00000000
00001000
00010000
00001000
00010000
00001000
00000000
00010000
00000100
00010000
00000000
00000100
00000000
00000000
00000000
,
00001000
00000000
00000010
00001000
00000010
00001000
00000010
00000000
00000100
00000010
00000100
00000000
00000001
00000000
00000000
00000000
,
00000100
00000000
00000001
00001000
00000001
00001000
00000001
00000000
00001000
00000100
00001000
00000000
00000001
00000000
00000000
00000000
,
00001000
00000000
00000000
00000100
00000000
00000000
00010000
00000000
00000000
00001000
00000000
00000000
00101000
00000000
00000000
00000000
,
10000000
00000000
00000000
00100000
00000000
00000000
01000000
00000000
00000000
00010000
00000000
00000000
00101000
00000000
00000000
00000000
,
00001000
00000000
00000000
00010000
00000000
00000000
00000100
00000000
00000000
00001000
00000000
00000000
00000101
00000000
00000000
00000000
,
00001000
00000000
00000000
00000010
00000000
00000000
00010000
00000000
00000000
00001000
00000000
00000000
00110000
00000000
00000000
00000000
,
00001000
00000000
00000000
00010000
00000000
00000000
00000100
00000000
00000000
00001000
00000000
00000000
00001001
00000000
00000000
00000000
,
00000100
00000000
00000000
00000010
00000000
00000000
00001000
00000000
00000000
00000100
00000000
00000000
00011000
00000000
00000000
00000000
,
00100000
00000000
00000000
00010000
00000000
00000000
00110000
00000000
00000000
10100000
00000000
00000000
10010000
00000000
00000000
00000000
,
10000000
00000000
00000000
00010000
00000000
00000000
01010000
00000000
00000000
01001000
00000000
00000000
00010100
00000000
00000000
00000000
,
00001000
00000000
00000000
00000000
00000100
00000100
00000000
00000000
,
00001000
00000000
00000000
00000000
00000010
00000100
00000001
00001000
,
00001000
00000000
00000010
00000000
,
00010000
00000000
00000000
00001000
00000000
00000000
00100000
00000000
00000000
00010000
00000000
00000000
10000000
00000000
00000000
00000000
,
00100000
00000000
00000000
00000000
00000000
00000000
00000000
00000000
01000000
00000000
00000000
01000000
00000000
00000000
00010000
00000000
,
10000000
00000000
00000000
00000000
00100000
10000000
00010000
00001000
;

//---------------dance-single - ----------------
#NOTEDATA:;
#CHARTNAME:;
#STEPSTYPE:dance-single;
#DESCRIPTION:;
#CHARTSTYLE:;
#DIFFICULTY:Medium;
#METER:4;
#RADARVALUES:0.202423,0.230722,0.022373,0.089492,0.014915,175.000000,3.000000,12.000000,0.000000,0.000000,0.000000,0.000000,0.000000,0.202423,0.230722,0.022373,0.089492,0.014915,175.000000,3.000000,12.000000,0.000000,0.000000,0.000000,0.000000,0.000000;
#CREDIT:Ben Speirs;
#NOTES:
0000
0000
0000
0000
,
0000
0000
0000
0000
,
0000
0000
0000
0000
,
0000
0000
0000
0000
,
0001
0000
0000
0100
0000
0000
0000
0000
,
0010
0000
0000
1000
0000
0000
0000
0000
,
0100
0000
1000
1000
0000
0001
0001
0000
,
0000
0000
0000
0000
,
2000
0000
0000
3000
,
0100
0000
1000
0000
0010
1000
0001
0000
,
1000
0000
0001
0000
,
0100
0000
0000
0100
0000
0000
0100
0000
0000
0000
0000
0000
0000
0000
0000
0000
,
0002
0000
0000
0003
,
0010
0000
0000
0000
0001
1000
0001
0000
,
1000
0000
0001
0000
,
0100
0000
0000
0100
0000
0000
0100
0000
0000
0000
0000
0000
0000
0000
0000
0000
,
0020
0000
0000
0030
,
0010
0000
1000
0000
0100
1000
0100
0000
,
1000
0001
0100
0000
,
0001
0000
0000
0001
0000
0000
0001
0000
0000
0000
0000
0000
0000
0000
0000
0000
,
0200
0000
0000
0300
,
0100
0001
0100
0100
,
0001
0010
0010
0000
,
0100
0000
0000
0100
0000
0000
0100
0000
0000
0000
0000
0000
0000
0000
0000
0000
,
1100
0001
1000
0000
,
0101
1000
0010
0000
,
1000
0001
0010
0010
,
0001
1000
0010
0000
,
1001
1000
0010
0000
,
0100
0001
1000
1000
,
0100
0010
0001
0000
,
0100
0001
1000
0000
,
0010
0010
0010
0000
,
0100
0100
0001
1000
,
0010
0010
1000
0000
,
0001
0001
0010
0000
,
0002
0000
0003
0001
,
2000
0000
3000
1000
,
0020
0000
0030
0000
,
0100
0000
0000
0000
0000
0000
0010
0010
,
1000
0000
0100
0000
1000
0001
1000
0000
,
0010
0000
0000
0000
1000
1000
0000
0000
,
0100
0000
1000
0000
0001
0100
0001
0000
,
1000
0000
0000
0000
0010
0010
0000
0000
,
0100
0000
0100
0000
0001
1000
0001
0000
,
1000
0000
0000
0100
0100
0000
0000
0000
,
1000
0000
0001
0000
1000
0001
1000
0000
,
0010
0000
0000
0000
0100
0100
0000
0000
,
0001
0001
0010
0001
,
1000
1000
0100
1000
,
0010
0010
0100
0001
,
1000
0000
0000
0000
0001
1000
0001
0000
,
1000
0100
1000
0010
,
0100
0001
1000
0001
,
0010
0000
0001
1000
,
0010
0000
0000
0000
0100
0100
0100
0000
,
0002
0000
0003
0000
,
2000
0000
3000
0000
,
0020
0000
0030
0000
,
1000
0000
0010
0100
,
0002
0003
0000
0000
,
2000
0000
3000
0000
0010
0010
0100
0100
;

//---------------dance-single - ----------------
#NOTEDATA:;
#CHARTNAME:;
#STEPSTYPE:dance-single;
#DESCRIPTION:;
#CHARTSTYLE:;
#DIFFICULTY:Easy;
#METER:2;
#RADARVALUES:0.112931,0.181967,0.014915,0.104407,0.000000,90.000000,2.000000,14.000000,0.000000,0.000000,0.000000,0.000000,0.000000,0.112931,0.181967,0.014915,0.104407,0.000000,90.000000,2.000000,14.000000,0.000000,0.000000,0.000000,0.000000,0.000000;
#CREDIT:Ben Speirs;
#NOTES:
0000
0000
0000
0000
,
0000
0000
0000
0000
,
0000
0000
0000
0000
,
0000
0000
0000
0000
,
1000
0000
0000
0000
,
0010
0000
0000
0000
,
0010
0000
0000
0000
,
0000
0000
0000
0000
,
2000
0000
0000
3000
,
1000
0000
0000
0000
,
0001
0000
0000
0000
,
0100
0000
0100
0000
,
0002
0000
0000
0003
,
0001
0000
0000
0000
,
1000
0000
0000
0000
,
0010
0000
0010
0000
,
0200
0000
0000
0300
,
0100
0000
0000
0000
,
0001
0000
0000
0000
,
1000
0000
1000
0000
,
0020
0000
0000
0030
,
0010
0000
0000
0000
,
1000
0000
0000
0000
,
0001
0000
0000
0000
,
1001
0000
0000
0000
,
1000
1000
1000
0000
,
0100
0000
0000
0000
,
1000
0000
0000
0000
,
1001
0000
0000
0000
,
0001
0001
0001
0000
,
0001
0000
0000
0000
,
0100
0000
0000
0000
,
0001
0100
0001
0000
,
1000
1000
0000
0000
,
1000
0100
1000
0000
,
0001
0001
0000
0000
,
2000
0000
3000
0000
,
0002
0000
0003
0000
,
0200
0000
0300
0000
,
0000
0000
0000
0000
0000
0000
0010
0010
,
0010
0000
0000
1000
,
1000
0000
0000
0100
,
0100
0000
0000
0000
,
0010
0001
1000
0000
,
0001
0000
0000
0100
,
0100
0000
0000
0010
,
0010
0000
0000
0000
,
1000
0001
1000
0000
,
0001
0100
0100
0000
,
0001
1000
1000
0000
,
1000
0100
0100
0000
,
1000
0001
0001
0000
,
0020
0030
0000
0001
,
0200
0300
0000
0010
,
2000
3000
0000
0000
,
0001
0000
1000
0000
,
0020
0000
0030
0000
,
0200
0000
0300
0000
,
0002
0000
0003
0000
,
2000
0000
3000
0000
,
0010
0000
0000
0000
,
0100
0000
0000
0000
;

//---------------dance-single - ----------------
#NOTEDATA:;
#CHARTNAME:;
#STEPSTYPE:dance-single;
#DESCRIPTION:;
#CHARTSTYLE:;
#DIFFICULTY:Beginner;
#METER:1;
#RADARVALUES:0.082034,0.137594,0.014915,0.000000,0.000000,75.000000,2.000000,0.000000,0.000000,0.000000,0.000000,0.000000,0.000000,0.082034,0.137594,0.014915,0.000000,0.000000,75.000000,2.000000,0.000000,0.000000,0.000000,0.000000,0.000000,0.000000;
#CREDIT:Ben Speirs;
#NOTES:
0000
0000
0000
0000
,
0000
0000
0000
0000
,
0000
0000
0000
0000
,
0000
0000
0000
0000
,
0001
0000
0000
0000
,
1000
0000
0000
0000
,
0010
0000
0000
0000
,
0000
0000
0000
0000
,
0100
0000
0000
0000
,
0100
0000
0000
0000
,
0001
0000
0000
0000
,
1000
0000
0000
0000
,
0010
0000
0000
0000
,
0010
0000
0000
0000
,
0100
0000
0000
0000
,
0001
0000
0000
0000
,
1000
0000
0000
0000
,
1000
0000
0000
0000
,
0010
0000
0000
0000
,
0010
0000
0000
0000
,
0100
0000
0000
0000
,
0001
0000
0000
0000
,
1000
0000
0000
0000
,
1000
0000
0000
0000
,
0010
0010
0000
0000
,
0100
0100
0100
0000
,
0100
0000
0000
0000
,
0001
0000
0000
0000
,
1000
1000
0000
0000
,
0010
0010
0010
0000
,
0010
0000
0000
0000
,
0100
0000
0000
0001
,
0001
0000
0000
1000
,
1000
0000
0000
0000
,
0010
0000
0000
0000
,
0100
0000
0000
0000
,
0001
0000
0000
0000
,
1000
0000
0000
0000
,
0010
0000
0000
0000
,
0000
0000
0000
0000
,
1001
0000
0000
1000
,
1000
0000
0000
0100
,
0100
0000
0000
0000
,
1000
0000
1000
0000
,
0001
0000
0000
0001
,
0001
0000
0000
0100
,
0100
0000
0000
0000
,
0010
0000
0010
0000
,
1001
0000
0000
0000
,
1000
1000
1000
0000
,
1000
0000
0000
0000
,
0001
0000
0000
0000
,
0100
0000
0000
0000
,
0010
0010
0010
0000
,
0010
0000
0000
0000
,
1000
0000
0000
0000
,
0001
0000
0000
0000
,
1000
0000
0000
0000
,
0100
0000
0000
0000
,
0100
0000
0000
0000
,
0010
0000
0000
0000
,
0001
0000
0001
0000
;
